Subcategories

Elgar - Cello Concerto, Enigma Variations - Navarra, Barbirolli (1956)

Posted By: tropical_penguin
Elgar - Cello Concerto, Enigma Variations - Navarra, Barbirolli (1956)

Elgar - Cello Concerto, Enigma Variations - Navarra, Barbirolli (1956)
EAC FLAC + CUE, Log, Scans | 332 MB
Classical | EMI, rec. 1956, rel. 1991 | RAR 1% Recovery | RS.com
André Navarra, cello | John Barbirolli, Hallé Orchestra



John Barbirolli apparently dominated this repertoire!
As for the cello concerto, IMHO, this greatly overlooked Navarra recording is on a par with the legendary du Pre performance.
A must for all Elgar fans :-)

Tracks:

Variations on an Original Theme ('Enigma') Op. 36
01. Theme (Andante) [1:23]
02. I C.A.E. (the composer's wife) [1:38]
03. II H.D.S.P. (Hew David Steuart-Powell) [0:42]
04. III R.B.T. (Richard Baxter Townshend) [1:18]
05. IV W.M.B. (William Meath Baker) [0:28]
06. V R.P.A. (Richard Penrose Arnold) [1:56]
07. VI Ysobel (Isabel Fitton) [1:14]
08. VII Troyte (Troyte Griffith) [0:57]
09. VIII W.N. (Winifred Norbury) [1:38]
10. IX Nimrod (A.J.Jaeger) [3:22]
11. X Intermezzo Dorabella (Dora Penny) [2:08]
12. XI G.R.S. (George Robertson Sinclair) [0:51]
13. XII B.G.N. (Basil G. Nevinson) [2:40]
14. XIII Romanza:***(Lady Mary Lygon) [2:36]
15. XIV Finale: E.D.U. (the composer) [5:02]

16. Introduction and Allegro Op. 47 [13:43]

Cello Concerto in E minor Op. 85
17. I Adagio-Moderato [7:21]
18. II Lento-Allegro molto [4:24]
19. III Adagio [4:37]
20. IV Allegro, ma non troppo [10:59]

21. Elegy Op. 58 [4:00]

TT: 73'07''

RS Links


Exact Audio Copy V0.99 prebeta 3 from 28. July 2007

EAC extraction logfile from 18. August 2009, 2:18

Elgar / Cello Concerto Enigma Variations

Used drive : TEAC CD-W516EB Adapter: 2 ID: 0

Read mode : Secure
Utilize accurate stream : Yes
Defeat audio cache : Yes
Make use of C2 pointers : No

Read offset correction : 685
Overread into Lead-In and Lead-Out : No
Fill up missing offset samples with silence : Yes
Delete leading and trailing silent blocks : No
Null samples used in CRC calculations : No
Used interface : Installed external ASPI interface

Used output format : Internal WAV Routines
Sample format : 44.100 Hz; 16 Bit; Stereo


TOC of the extracted CD

Track | Start | Length | Start sector | End sector
––––––––––––––––––––––––––––-
1 | 0:00.33 | 1:23.67 | 33 | 6324
2 | 1:24.25 | 1:38.25 | 6325 | 13699
3 | 3:02.50 | 0:42.43 | 13700 | 16892
4 | 3:45.18 | 1:18.40 | 16893 | 22782
5 | 5:03.58 | 0:28.70 | 22783 | 24952
6 | 5:32.53 | 1:56.72 | 24953 | 33724
7 | 7:29.50 | 1:14.33 | 33725 | 39307
8 | 8:44.08 | 0:57.02 | 39308 | 43584
9 | 9:41.10 | 1:38.40 | 43585 | 50974
10 | 11:19.50 | 3:22.23 | 50975 | 66147
11 | 14:41.73 | 2:08.30 | 66148 | 75777
12 | 16:50.28 | 0:51.32 | 75778 | 79634
13 | 17:41.60 | 2:40.30 | 79635 | 91664
14 | 20:22.15 | 2:36.15 | 91665 | 103379
15 | 22:58.30 | 5:02.65 | 103380 | 126094
16 | 28:01.20 | 13:43.53 | 126095 | 187872
17 | 41:44.73 | 7:21.27 | 187873 | 220974
18 | 49:06.25 | 4:24.18 | 220975 | 240792
19 | 53:30.43 | 4:37.10 | 240793 | 261577
20 | 58:07.53 | 10:59.50 | 261578 | 311052
21 | 69:07.28 | 4:00.57 | 311053 | 329109


Range status and errors

Selected range

Filename E:\elgar vc concerto-navarra\cdimage.wav

Peak level 94.7 %
Range quality 100.0 %
Copy CRC 1FA1221B
Copy OK

No errors occurred

End of status report