Subcategories

Eliane Elias - Something For You - Eliane Elias Sings & Plays Bill Evans (2007) (Repost)

Posted By: Domestos
Eliane Elias - Something For You - Eliane Elias Sings & Plays Bill Evans (2007) (Repost)

Eliane Elias - Something For You - Eliane Elias Sings & Plays Bill Evans (2007)
EAC Rip | FLAC (image+.cue, log) ~ 317.08 Mb | 63:10 | Scans included
Ethnic Jazz, Contemporary Jazz, Vocal Jazz | Country: Brazil | Label: Blue Note Records (50999 5 11795 26)

Eliane Elias' return to the Blue Note label after a decade working elsewhere is a triumph. This salute to the late pianist Bill Evans, one of her favorite players, explores a number of songs he recorded, including both standards and originals. Evans' bassist from his final trio, Marc Johnson, is not only a long-time collaborator with Elias but also her husband; drummer Joey Baron rounds out the band. While Elias is influenced by Evans' playing style, his arrangements are only a launching pad for her approach to each tune; never does she sound like an obvious Evans clone. Her lush take of "My Foolish Heart" features Johnson on the late Scott LaFaro's bass (the talented Evans sideman who died in a 1961 car wreck just ten days after recording the landmark sets with the pianist at the Village Vanguard).

"Evanesque" is a newly discovered work that came from a cassette given to Johnson by Evans, so Elias adjusted the work by incorporating new material with his conception. The freewheeling take of "Solar" is a masterful group improvisation upon the Miles Davis theme. Elias' moving ballad "After All" is a sincere tribute to Evans. She has also built confidence in her singing over time; always gifted with a tender, sensuous voice, Elias glides gently over Johnson's walking introduction to "A Sleepin' Bee" and offers an equally delicate "Walt for Debby." She wrote words to Evans' previously unknown "Here Is Something for You," which was also discovered on the cassette given to Johnson. It is heard in two versions, a solo version with voice and piano where Elias mostly closely mirrors Evans' playing, then the original rehearsal by Evans, which segues into an excerpt of Elias' new version. The Japanese version of this delightful CD features an added track, "Re: Person I Knew." ~ AllMusic Review by Ken Dryden

A&R – Yoshiko Tsuge
Art Direction – Kaoru Taku
Bass, Co-producer – Marc Johnson (2)
Co-producer – Steve Rodby
Coordinator – Ken Arai
Drums – Joey Baron
Executive Producer – Hitoshi Namekata
Liner Notes – Don Heckman
Mastered By – Mark Wilder
Photography By [Studio] – Takehiko Tokiwa
Piano – Bill Evans (tracks: 17)
Piano, Vocals, Producer, Arranged By – Eliane Elias
Recorded By, Mixed By – Al Schmidt*

Track List:
1. You and the Night and the Music - Arthur Schwartz, Howard Dietz 3:16
2. Here Is Something For You - Eliane Elias, Bill Evans 2:55
3. A Sleepin' Bee - Harold Arlen, Truman Capote 2:49
4. But Not For Me - George Gershwin 3:49
5. Waltz for Debby - Bill Evans, Gene Lees 4:03
6. Five - Bill Evans 4:58
7. Blue in Green - Miles Davis, Bill Evans 4:49
8. Detour Ahead - Herb Ellis, John Frigo, Lou Carter 4:30
9. Minha (All Mine) - Francis Hime, Ruy Guerra 3:10
10. My Foolish Heart - Victor Young 5:01
11. But Beautiful / Here's that Rainy Day - Johnny Burke, James Van Heusen 4:22
12. I Love My Wife - Cy Coleman 2:53
13. For Nenette - Bill Evans 2:50
14. Evanesque - Bill Evans, Eliane Elias 3:20
15. Solar - Miles Davis 3:08
16. After All - Eliane Elias 4:25
17. Introduction To "Here Is Something For You" - Bill Evans, Eliane Elias 2:13

Eliane Elias - Something For You - Eliane Elias Sings & Plays Bill Evans (2007) (Repost)

Exact Audio Copy V1.0 beta 3 from 29. August 2011

EAC extraction logfile from 21. May 2017, 18:45

Eliane Elias / Something for You - Eliane Elias Sings & Plays Bill Evans

Used drive : PLEXTOR CD-R PREMIUM2 Adapter: 0 ID: 0

Read mode : Secure
Utilize accurate stream : Yes
Defeat audio cache : Yes
Make use of C2 pointers : No

Read offset correction : 30
Overread into Lead-In and Lead-Out : Yes
Fill up missing offset samples with silence : Yes
Delete leading and trailing silent blocks : No
Null samples used in CRC calculations : Yes
Used interface : Installed external ASPI interface

Used output format : User Defined Encoder
Selected bitrate : 896 kBit/s
Quality : High
Add ID3 tag : No
Command line compressor : C:\Program Files\Exact Audio Copy\FLAC\FLAC.EXE
Additional command line options : -V -8 -T "Date=%year%" -T "Genre=%genre%" %source%

TOC of the extracted CD

Track | Start | Length | Start sector | End sector
––––––––––––––––––––––––––––-
1 | 0:00.00 | 3:17.00 | 0 | 14774
2 | 3:17.00 | 2:58.32 | 14775 | 28156
3 | 6:15.32 | 2:51.24 | 28157 | 41005
4 | 9:06.56 | 3:51.10 | 41006 | 58340
5 | 12:57.66 | 4:05.05 | 58341 | 76720
6 | 17:02.71 | 4:59.36 | 76721 | 99181
7 | 22:02.32 | 4:50.69 | 99182 | 121000
8 | 26:53.26 | 4:32.72 | 121001 | 141472
9 | 31:26.23 | 3:13.12 | 141473 | 155959
10 | 34:39.35 | 5:01.02 | 155960 | 178536
11 | 39:40.37 | 4:25.02 | 178537 | 198413
12 | 44:05.39 | 2:54.35 | 198414 | 211498
13 | 46:59.74 | 2:53.43 | 211499 | 224516
14 | 49:53.42 | 3:23.16 | 224517 | 239757
15 | 53:16.58 | 3:11.26 | 239758 | 254108
16 | 56:28.09 | 4:29.13 | 254109 | 274296
17 | 60:57.22 | 2:13.28 | 274297 | 284299

Range status and errors

Selected range

Filename C:\Documents and Settings\Anatolij\Рабочий стол\Eliane Elias - Something for You - Eliane Elias Sings & Plays Bill Evans(2008)\Eliane Elias - Something for You - Eliane Elias Sings & Plays Bill Evans.wav

Peak level 99.8 %
Extraction speed 13.4 X
Range quality 100.0 %
Test CRC B375BC9B
Copy CRC B375BC9B
Copy OK

No errors occurred

AccurateRip summary

Track 1 accurately ripped (confidence 26) [39DA25E3] (AR v2)
Track 2 accurately ripped (confidence 25) [F45CC659] (AR v2)
Track 3 accurately ripped (confidence 26) [170F4F33] (AR v2)
Track 4 accurately ripped (confidence 26) [19A7A576] (AR v2)
Track 5 accurately ripped (confidence 25) [FA6ECA3F] (AR v2)
Track 6 accurately ripped (confidence 26) [0650D3B6] (AR v2)
Track 7 accurately ripped (confidence 25) [8A7AD2E4] (AR v2)
Track 8 accurately ripped (confidence 25) [816C83CF] (AR v2)
Track 9 accurately ripped (confidence 25) [741BF7FF] (AR v2)
Track 10 accurately ripped (confidence 26) [269DCD2C] (AR v2)
Track 11 accurately ripped (confidence 25) [860D3DC7] (AR v2)
Track 12 accurately ripped (confidence 25) [BCFBA19F] (AR v2)
Track 13 accurately ripped (confidence 25) [90616951] (AR v2)
Track 14 accurately ripped (confidence 25) [62137073] (AR v2)
Track 15 accurately ripped (confidence 26) [FB05D8CB] (AR v2)
Track 16 accurately ripped (confidence 24) [5D6A82C6] (AR v2)
Track 17 accurately ripped (confidence 25) [78F7EE5F] (AR v2)

All tracks accurately ripped

End of status report

==== Log checksum ED4BC2B1184AB257E63A97D4CF13C6190EFFD23F68130EE75935EB87AE86D9A9 ====

All thanks go to the anatolij51

More Music in My Blog
Follow My RSS Channel