Subcategories

Ella Fitzgerald - The Singles (2017)

Posted By: delpotro
Ella Fitzgerald - The Singles (2017)

Ella Fitzgerald - The Singles (2017)
EAC Rip | FLAC (tracks+log+.cue) - 941 Mb | MP3 CBR 320 kbps - 420 Mb | Scans - 23 Mb | 03:03:10
Vocal Jazz | Label: New Continent

This 3-CD set presents the complete 1954-62 singles by the great Ella Fitzgerald. Prior to 1956, complete sessions were devoted to singles, however, following that, only a few tunes from each date would be released as singles, and the remainder would be issued on the new LP format. The classic singles featured here were released on the Decca and Verve labels. Ella is accompanied on these tracks by all-star studio orchestras conducted by Nelson Riddle, Frank DeVol, Marty Paich, and Paul Weston, among others. The outstanding 1954 Ella duets with pianist Ellis Larkins were originally issued both as singles and on the then new LP format.
Tracklist:
CD 1
01. I Wished On The Moon
02. Baby
03. I Need
04. Who's Afraid
05. I'm Glad There Is You
06. Baby What Else Can I Do
07. What Is There To Say
08. Makin' Whoopee
09. Until The Real Thing Comes Along
10. People Will Say We're In Love
11. Please Be Kind
12. Imagination
13. My Heart Belongs To Daddy
14. You Leave Me Breathless
15. Nice Work If You Can Get It
16. Stardust
17. Lullaby Of Birdland
18. Later
19. Thanks For The Memory
20. It Might As Well Be Spring

CD 2
01. You'll Never Know
02. I Can't Get Started
03. Between The Devil And The Deep Blue Sea
04. That Old Black Magic
05. Old Devil Moon
06. Lover Come Back To Me
07. Hard Hearted Hannah
08. Pete Kelly's Blues
09. Ella Hums The Blues
10. Soldier Boy
11. A Satisfied Mind
12. My One And Only Love
13. The Impatient Years
14. But Not Like Mine
15. The Tender Trap
16. Stay There
17. The Sun Forgot To Shine This Morning
18. Too Young For The Blues
19. It's Only A Man
20. Beale Street Blues

CD 3
01. A Beautiful Friendship
02. The Silent Treatment
03. Hear My Heart
04. Hotta Chocolatta
05. A-Tisket A-Tasket
06. Teach Me How To Cry
07. Swingin' Shepherd Blues
08. Your Red Wagon
09. Travelin' Light
10. Oh What A Night For Love
11. Dreams Are Made For Children
12. But Not For Me
13. The Christmas Song
14. The Secret Of Christmas
15. We Three Kings Of Orient Are; O Little Town Of Betlehem
16. Ich Fuhle Mich Crazy
17. Mr. Paganini
18. Call Me Darling
19. Bill Bailey Won't You Please Come Home
20. Ol' Man Mose
21. Désafinado
22. Stardust Bossa Nova

Exact Audio Copy V1.3 from 2. September 2016

EAC extraction logfile from 14. January 2019, 14:01

Ella Fitzgerald / The Singles Disc 1

Used drive : PLEXTOR PX-891SAF Adapter: 1 ID: 0

Read mode : Secure
Utilize accurate stream : Yes
Defeat audio cache : Yes
Make use of C2 pointers : No

Read offset correction : 6
Overread into Lead-In and Lead-Out : No
Fill up missing offset samples with silence : Yes
Delete leading and trailing silent blocks : No
Null samples used in CRC calculations : Yes
Used interface : Native Win32 interface for Win NT & 2000
Gap handling : Appended to previous track

Used output format : User Defined Encoder
Selected bitrate : 1024 kBit/s
Quality : High
Add ID3 tag : No
Command line compressor : C:\Program Files (x86)\Exact Audio Copy\Flac\flac.exe
Additional command line options : -8 -V -T "ARTIST=%artist%" -T "TITLE=%title%" -T "ALBUM=%albumtitle%" -T "DATE=%year%" -T "TRACKNUMBER=%tracknr%" -T "GENRE=%genre%" -T "PERFORMER=%albuminterpret%" -T "COMPOSER=%composer%" %haslyrics%–tag-from-file=LYRICS="%lyricsfile%"%haslyrics% -T "ALBUMARTIST=%albumartist%" -T "DISCNUMBER=%cdnumber%" -T "TOTALDISCS=%totalcds%" -T "TOTALTRACKS=%numtracks%" -T "COMMENT=%comment%" %source% -o %dest%


TOC of the extracted CD

Track | Start | Length | Start sector | End sector
––––––––––––––––––––––––––––-
1 | 0:00.00 | 3:07.40 | 0 | 14064
2 | 3:07.40 | 2:43.35 | 14065 | 26324
3 | 5:51.00 | 2:40.65 | 26325 | 38389
4 | 8:31.65 | 2:49.67 | 38390 | 51131
5 | 11:21.57 | 3:09.15 | 51132 | 65321
6 | 14:30.72 | 3:48.68 | 65322 | 82489
7 | 18:19.65 | 3:21.50 | 82490 | 97614
8 | 21:41.40 | 3:04.50 | 97615 | 111464
9 | 24:46.15 | 2:56.30 | 111465 | 124694
10 | 27:42.45 | 3:10.62 | 124695 | 139006
11 | 30:53.32 | 3:33.73 | 139007 | 155054
12 | 34:27.30 | 2:36.42 | 155055 | 166796
13 | 37:03.72 | 2:35.50 | 166797 | 178471
14 | 39:39.47 | 3:06.67 | 178472 | 192488
15 | 42:46.39 | 2:38.70 | 192489 | 204408
16 | 45:25.34 | 4:02.10 | 204409 | 222568
17 | 49:27.44 | 2:52.06 | 222569 | 235474
18 | 52:19.50 | 2:32.70 | 235475 | 246944
19 | 54:52.45 | 2:29.41 | 246945 | 258160
20 | 57:22.11 | 2:42.45 | 258161 | 270355


Track 1

Filename D:\#New Wav + flac\Ella Fitzgerald - The Complete 1954-62 Singles\cd 1\01. Ella Fitzgerald - I Wished On The Moon.wav

Pre-gap length 0:00:02.00

Peak level 91.2 %
Extraction speed 4.1 X
Track quality 99.9 %
Test CRC 02B68412
Copy CRC 02B68412
Accurately ripped (confidence 5) [48854827] (AR v2)
Copy OK

Track 2

Filename D:\#New Wav + flac\Ella Fitzgerald - The Complete 1954-62 Singles\cd 1\02. Ella Fitzgerald - Baby.wav

Peak level 91.2 %
Extraction speed 5.5 X
Track quality 100.0 %
Test CRC 41904C68
Copy CRC 41904C68
Accurately ripped (confidence 5) [79BB692D] (AR v2)
Copy OK

Track 3

Filename D:\#New Wav + flac\Ella Fitzgerald - The Complete 1954-62 Singles\cd 1\03. Ella Fitzgerald - I Need.wav

Peak level 91.2 %
Extraction speed 5.8 X
Track quality 100.0 %
Test CRC 02069189
Copy CRC 02069189
Accurately ripped (confidence 5) [364A9FC1] (AR v2)
Copy OK

Track 4

Filename D:\#New Wav + flac\Ella Fitzgerald - The Complete 1954-62 Singles\cd 1\04. Ella Fitzgerald - Who's Afraid.wav

Peak level 91.2 %
Extraction speed 6.2 X
Track quality 100.0 %
Test CRC 9B89A4C2
Copy CRC 9B89A4C2
Accurately ripped (confidence 5) [905BDB4B] (AR v2)
Copy OK

Track 5

Filename D:\#New Wav + flac\Ella Fitzgerald - The Complete 1954-62 Singles\cd 1\05. Ella Fitzgerald - I'm Glad There Is You.wav

Peak level 91.2 %
Extraction speed 5.2 X
Track quality 99.9 %
Test CRC F3BFC864
Copy CRC F3BFC864
Accurately ripped (confidence 5) [291CE426] (AR v2)
Copy OK

Track 6

Filename D:\#New Wav + flac\Ella Fitzgerald - The Complete 1954-62 Singles\cd 1\06. Ella Fitzgerald - Baby What Else Can I Do.wav

Peak level 91.2 %
Extraction speed 7.2 X
Track quality 100.0 %
Test CRC A5FBB69E
Copy CRC A5FBB69E
Accurately ripped (confidence 5) [01CA2BAE] (AR v2)
Copy OK

Track 7

Filename D:\#New Wav + flac\Ella Fitzgerald - The Complete 1954-62 Singles\cd 1\07. Ella Fitzgerald - What Is There To Say.wav

Peak level 91.2 %
Extraction speed 7.4 X
Track quality 100.0 %
Test CRC 0DAC8D68
Copy CRC 0DAC8D68
Accurately ripped (confidence 5) [2BC70664] (AR v2)
Copy OK

Track 8

Filename D:\#New Wav + flac\Ella Fitzgerald - The Complete 1954-62 Singles\cd 1\08. Ella Fitzgerald - Makin' Whoopee.wav

Peak level 91.2 %
Extraction speed 7.7 X
Track quality 100.0 %
Test CRC 0DF1FD05
Copy CRC 0DF1FD05
Accurately ripped (confidence 5) [76EA5270] (AR v2)
Copy OK

Track 9

Filename D:\#New Wav + flac\Ella Fitzgerald - The Complete 1954-62 Singles\cd 1\09. Ella Fitzgerald - Until The Real Thing Comes Along.wav

Peak level 91.2 %
Extraction speed 7.8 X
Track quality 100.0 %
Test CRC 01F3A7C7
Copy CRC 01F3A7C7
Accurately ripped (confidence 5) [5C2789EE] (AR v2)
Copy OK

Track 10

Filename D:\#New Wav + flac\Ella Fitzgerald - The Complete 1954-62 Singles\cd 1\10. Ella Fitzgerald - People Will Say were In Love.wav

Peak level 91.2 %
Extraction speed 8.2 X
Track quality 100.0 %
Test CRC 6E898728
Copy CRC 6E898728
Accurately ripped (confidence 5) [3A9CD311] (AR v2)
Copy OK

Track 11

Filename D:\#New Wav + flac\Ella Fitzgerald - The Complete 1954-62 Singles\cd 1\11. Ella Fitzgerald - Please Be Kind.wav

Peak level 91.2 %
Extraction speed 8.6 X
Track quality 100.0 %
Test CRC B459A638
Copy CRC B459A638
Accurately ripped (confidence 5) [C5A57651] (AR v2)
Copy OK

Track 12

Filename D:\#New Wav + flac\Ella Fitzgerald - The Complete 1954-62 Singles\cd 1\12. Ella Fitzgerald - Imagination.wav

Peak level 91.2 %
Extraction speed 8.5 X
Track quality 100.0 %
Test CRC EDE090FA
Copy CRC EDE090FA
Accurately ripped (confidence 5) [1B3C0CA1] (AR v2)
Copy OK

Track 13

Filename D:\#New Wav + flac\Ella Fitzgerald - The Complete 1954-62 Singles\cd 1\13. Ella Fitzgerald - My Heart Belongs To Daddy.wav

Peak level 91.2 %
Extraction speed 6.5 X
Track quality 99.9 %
Test CRC 17D26B1B
Copy CRC 17D26B1B
Accurately ripped (confidence 5) [1B1159E6] (AR v2)
Copy OK

Track 14

Filename D:\#New Wav + flac\Ella Fitzgerald - The Complete 1954-62 Singles\cd 1\14. Ella Fitzgerald - You Leave Me Breathless.wav

Peak level 91.2 %
Extraction speed 7.0 X
Track quality 99.9 %
Test CRC 437A0DF9
Copy CRC 437A0DF9
Accurately ripped (confidence 5) [06E7EDE3] (AR v2)
Copy OK

Track 15

Filename D:\#New Wav + flac\Ella Fitzgerald - The Complete 1954-62 Singles\cd 1\15. Ella Fitzgerald - Nice Work If You Can Get It.wav

Peak level 91.2 %
Extraction speed 9.1 X
Track quality 100.0 %
Test CRC 0672859C
Copy CRC 0672859C
Accurately ripped (confidence 5) [DEBCF409] (AR v2)
Copy OK

Track 16

Filename D:\#New Wav + flac\Ella Fitzgerald - The Complete 1954-62 Singles\cd 1\16. Ella Fitzgerald - Stardust.wav

Peak level 91.2 %
Extraction speed 10.0 X
Track quality 100.0 %
Test CRC A3AC3FDC
Copy CRC A3AC3FDC
Accurately ripped (confidence 5) [63AA09F2] (AR v2)
Copy OK

Track 17

Filename D:\#New Wav + flac\Ella Fitzgerald - The Complete 1954-62 Singles\cd 1\17. Ella Fitzgerald - Lullaby Of Broadway.wav

Peak level 91.2 %
Extraction speed 9.8 X
Track quality 100.0 %
Test CRC 69A391DC
Copy CRC 69A391DC
Accurately ripped (confidence 5) [B460010A] (AR v2)
Copy OK

Track 18

Filename D:\#New Wav + flac\Ella Fitzgerald - The Complete 1954-62 Singles\cd 1\18. Ella Fitzgerald - Later.wav

Peak level 91.2 %
Extraction speed 9.7 X
Track quality 100.0 %
Test CRC 1544EA9A
Copy CRC 1544EA9A
Accurately ripped (confidence 5) [3D457FB3] (AR v2)
Copy OK

Track 19

Filename D:\#New Wav + flac\Ella Fitzgerald - The Complete 1954-62 Singles\cd 1\19. Ella Fitzgerald - Thanks For The Memory.wav

Peak level 91.2 %
Extraction speed 9.8 X
Track quality 100.0 %
Test CRC C7D177E9
Copy CRC C7D177E9
Accurately ripped (confidence 5) [E057EEBD] (AR v2)
Copy OK

Track 20

Filename D:\#New Wav + flac\Ella Fitzgerald - The Complete 1954-62 Singles\cd 1\20. Ella Fitzgerald - It Might As Well Be Spring.wav

Peak level 91.2 %
Extraction speed 10.0 X
Track quality 100.0 %
Test CRC 1D8126FB
Copy CRC 1D8126FB
Accurately ripped (confidence 5) [492F8119] (AR v2)
Copy OK


All tracks accurately ripped

No errors occurred

End of status report

–– CUETools DB Plugin V2.1.6

[CTDB TOCID: uCfwhSynOgdz2TRxfzaJxFPbUdM-] found
Submit result: uCfwhSynOgdz2TRxfzaJxFPbUdM- has been confirmed
Track | CTDB Status
1 | (5/5) Accurately ripped
2 | (5/5) Accurately ripped
3 | (5/5) Accurately ripped
4 | (5/5) Accurately ripped
5 | (5/5) Accurately ripped
6 | (5/5) Accurately ripped
7 | (5/5) Accurately ripped
8 | (5/5) Accurately ripped
9 | (5/5) Accurately ripped
10 | (5/5) Accurately ripped
11 | (5/5) Accurately ripped
12 | (5/5) Accurately ripped
13 | (5/5) Accurately ripped
14 | (5/5) Accurately ripped
15 | (5/5) Accurately ripped
16 | (5/5) Accurately ripped
17 | (5/5) Accurately ripped
18 | (5/5) Accurately ripped
19 | (5/5) Accurately ripped
20 | (5/5) Accurately ripped


==== Log checksum 1E0253DE6B1D3792F1426A164835A40AE61D9A71DBD768698B7A89C02B91E5AC ====

––––––––––––––––––––––––––––––

Exact Audio Copy V1.3 from 2. September 2016

EAC extraction logfile from 14. January 2019, 14:01

Ella Fitzgerald / The Singles Disc 1

Used drive : PLEXTOR PX-891SAF Adapter: 1 ID: 0

Read mode : Secure
Utilize accurate stream : Yes
Defeat audio cache : Yes
Make use of C2 pointers : No

Read offset correction : 6
Overread into Lead-In and Lead-Out : No
Fill up missing offset samples with silence : Yes
Delete leading and trailing silent blocks : No
Null samples used in CRC calculations : Yes
Used interface : Native Win32 interface for Win NT & 2000
Gap handling : Appended to previous track

Used output format : User Defined Encoder
Selected bitrate : 1024 kBit/s
Quality : High
Add ID3 tag : No
Command line compressor : C:\Program Files (x86)\Exact Audio Copy\Flac\flac.exe
Additional command line options : -8 -V -T "ARTIST=%artist%" -T "TITLE=%title%" -T "ALBUM=%albumtitle%" -T "DATE=%year%" -T "TRACKNUMBER=%tracknr%" -T "GENRE=%genre%" -T "PERFORMER=%albuminterpret%" -T "COMPOSER=%composer%" %haslyrics%–tag-from-file=LYRICS="%lyricsfile%"%haslyrics% -T "ALBUMARTIST=%albumartist%" -T "DISCNUMBER=%cdnumber%" -T "TOTALDISCS=%totalcds%" -T "TOTALTRACKS=%numtracks%" -T "COMMENT=%comment%" %source% -o %dest%


TOC of the extracted CD

Track | Start | Length | Start sector | End sector
––––––––––––––––––––––––––––-
1 | 0:00.00 | 3:07.40 | 0 | 14064
2 | 3:07.40 | 2:43.35 | 14065 | 26324
3 | 5:51.00 | 2:40.65 | 26325 | 38389
4 | 8:31.65 | 2:49.67 | 38390 | 51131
5 | 11:21.57 | 3:09.15 | 51132 | 65321
6 | 14:30.72 | 3:48.68 | 65322 | 82489
7 | 18:19.65 | 3:21.50 | 82490 | 97614
8 | 21:41.40 | 3:04.50 | 97615 | 111464
9 | 24:46.15 | 2:56.30 | 111465 | 124694
10 | 27:42.45 | 3:10.62 | 124695 | 139006
11 | 30:53.32 | 3:33.73 | 139007 | 155054
12 | 34:27.30 | 2:36.42 | 155055 | 166796
13 | 37:03.72 | 2:35.50 | 166797 | 178471
14 | 39:39.47 | 3:06.67 | 178472 | 192488
15 | 42:46.39 | 2:38.70 | 192489 | 204408
16 | 45:25.34 | 4:02.10 | 204409 | 222568
17 | 49:27.44 | 2:52.06 | 222569 | 235474
18 | 52:19.50 | 2:32.70 | 235475 | 246944
19 | 54:52.45 | 2:29.41 | 246945 | 258160
20 | 57:22.11 | 2:42.45 | 258161 | 270355


Track 1

Filename D:\#New Wav + flac\Ella Fitzgerald - The Complete 1954-62 Singles\cd 1\01. Ella Fitzgerald - I Wished On The Moon.wav

Pre-gap length 0:00:02.00

Peak level 91.2 %
Extraction speed 4.1 X
Track quality 99.9 %
Test CRC 02B68412
Copy CRC 02B68412
Accurately ripped (confidence 5) [48854827] (AR v2)
Copy OK

Track 2

Filename D:\#New Wav + flac\Ella Fitzgerald - The Complete 1954-62 Singles\cd 1\02. Ella Fitzgerald - Baby.wav

Peak level 91.2 %
Extraction speed 5.5 X
Track quality 100.0 %
Test CRC 41904C68
Copy CRC 41904C68
Accurately ripped (confidence 5) [79BB692D] (AR v2)
Copy OK

Track 3

Filename D:\#New Wav + flac\Ella Fitzgerald - The Complete 1954-62 Singles\cd 1\03. Ella Fitzgerald - I Need.wav

Peak level 91.2 %
Extraction speed 5.8 X
Track quality 100.0 %
Test CRC 02069189
Copy CRC 02069189
Accurately ripped (confidence 5) [364A9FC1] (AR v2)
Copy OK

Track 4

Filename D:\#New Wav + flac\Ella Fitzgerald - The Complete 1954-62 Singles\cd 1\04. Ella Fitzgerald - Who's Afraid.wav

Peak level 91.2 %
Extraction speed 6.2 X
Track quality 100.0 %
Test CRC 9B89A4C2
Copy CRC 9B89A4C2
Accurately ripped (confidence 5) [905BDB4B] (AR v2)
Copy OK

Track 5

Filename D:\#New Wav + flac\Ella Fitzgerald - The Complete 1954-62 Singles\cd 1\05. Ella Fitzgerald - I'm Glad There Is You.wav

Peak level 91.2 %
Extraction speed 5.2 X
Track quality 99.9 %
Test CRC F3BFC864
Copy CRC F3BFC864
Accurately ripped (confidence 5) [291CE426] (AR v2)
Copy OK

Track 6

Filename D:\#New Wav + flac\Ella Fitzgerald - The Complete 1954-62 Singles\cd 1\06. Ella Fitzgerald - Baby What Else Can I Do.wav

Peak level 91.2 %
Extraction speed 7.2 X
Track quality 100.0 %
Test CRC A5FBB69E
Copy CRC A5FBB69E
Accurately ripped (confidence 5) [01CA2BAE] (AR v2)
Copy OK

Track 7

Filename D:\#New Wav + flac\Ella Fitzgerald - The Complete 1954-62 Singles\cd 1\07. Ella Fitzgerald - What Is There To Say.wav

Peak level 91.2 %
Extraction speed 7.4 X
Track quality 100.0 %
Test CRC 0DAC8D68
Copy CRC 0DAC8D68
Accurately ripped (confidence 5) [2BC70664] (AR v2)
Copy OK

Track 8

Filename D:\#New Wav + flac\Ella Fitzgerald - The Complete 1954-62 Singles\cd 1\08. Ella Fitzgerald - Makin' Whoopee.wav

Peak level 91.2 %
Extraction speed 7.7 X
Track quality 100.0 %
Test CRC 0DF1FD05
Copy CRC 0DF1FD05
Accurately ripped (confidence 5) [76EA5270] (AR v2)
Copy OK

Track 9

Filename D:\#New Wav + flac\Ella Fitzgerald - The Complete 1954-62 Singles\cd 1\09. Ella Fitzgerald - Until The Real Thing Comes Along.wav

Peak level 91.2 %
Extraction speed 7.8 X
Track quality 100.0 %
Test CRC 01F3A7C7
Copy CRC 01F3A7C7
Accurately ripped (confidence 5) [5C2789EE] (AR v2)
Copy OK

Track 10

Filename D:\#New Wav + flac\Ella Fitzgerald - The Complete 1954-62 Singles\cd 1\10. Ella Fitzgerald - People Will Say were In Love.wav

Peak level 91.2 %
Extraction speed 8.2 X
Track quality 100.0 %
Test CRC 6E898728
Copy CRC 6E898728
Accurately ripped (confidence 5) [3A9CD311] (AR v2)
Copy OK

Track 11

Filename D:\#New Wav + flac\Ella Fitzgerald - The Complete 1954-62 Singles\cd 1\11. Ella Fitzgerald - Please Be Kind.wav

Peak level 91.2 %
Extraction speed 8.6 X
Track quality 100.0 %
Test CRC B459A638
Copy CRC B459A638
Accurately ripped (confidence 5) [C5A57651] (AR v2)
Copy OK

Track 12

Filename D:\#New Wav + flac\Ella Fitzgerald - The Complete 1954-62 Singles\cd 1\12. Ella Fitzgerald - Imagination.wav

Peak level 91.2 %
Extraction speed 8.5 X
Track quality 100.0 %
Test CRC EDE090FA
Copy CRC EDE090FA
Accurately ripped (confidence 5) [1B3C0CA1] (AR v2)
Copy OK

Track 13

Filename D:\#New Wav + flac\Ella Fitzgerald - The Complete 1954-62 Singles\cd 1\13. Ella Fitzgerald - My Heart Belongs To Daddy.wav

Peak level 91.2 %
Extraction speed 6.5 X
Track quality 99.9 %
Test CRC 17D26B1B
Copy CRC 17D26B1B
Accurately ripped (confidence 5) [1B1159E6] (AR v2)
Copy OK

Track 14

Filename D:\#New Wav + flac\Ella Fitzgerald - The Complete 1954-62 Singles\cd 1\14. Ella Fitzgerald - You Leave Me Breathless.wav

Peak level 91.2 %
Extraction speed 7.0 X
Track quality 99.9 %
Test CRC 437A0DF9
Copy CRC 437A0DF9
Accurately ripped (confidence 5) [06E7EDE3] (AR v2)
Copy OK

Track 15

Filename D:\#New Wav + flac\Ella Fitzgerald - The Complete 1954-62 Singles\cd 1\15. Ella Fitzgerald - Nice Work If You Can Get It.wav

Peak level 91.2 %
Extraction speed 9.1 X
Track quality 100.0 %
Test CRC 0672859C
Copy CRC 0672859C
Accurately ripped (confidence 5) [DEBCF409] (AR v2)
Copy OK

Track 16

Filename D:\#New Wav + flac\Ella Fitzgerald - The Complete 1954-62 Singles\cd 1\16. Ella Fitzgerald - Stardust.wav

Peak level 91.2 %
Extraction speed 10.0 X
Track quality 100.0 %
Test CRC A3AC3FDC
Copy CRC A3AC3FDC
Accurately ripped (confidence 5) [63AA09F2] (AR v2)
Copy OK

Track 17

Filename D:\#New Wav + flac\Ella Fitzgerald - The Complete 1954-62 Singles\cd 1\17. Ella Fitzgerald - Lullaby Of Broadway.wav

Peak level 91.2 %
Extraction speed 9.8 X
Track quality 100.0 %
Test CRC 69A391DC
Copy CRC 69A391DC
Accurately ripped (confidence 5) [B460010A] (AR v2)
Copy OK

Track 18

Filename D:\#New Wav + flac\Ella Fitzgerald - The Complete 1954-62 Singles\cd 1\18. Ella Fitzgerald - Later.wav

Peak level 91.2 %
Extraction speed 9.7 X
Track quality 100.0 %
Test CRC 1544EA9A
Copy CRC 1544EA9A
Accurately ripped (confidence 5) [3D457FB3] (AR v2)
Copy OK

Track 19

Filename D:\#New Wav + flac\Ella Fitzgerald - The Complete 1954-62 Singles\cd 1\19. Ella Fitzgerald - Thanks For The Memory.wav

Peak level 91.2 %
Extraction speed 9.8 X
Track quality 100.0 %
Test CRC C7D177E9
Copy CRC C7D177E9
Accurately ripped (confidence 5) [E057EEBD] (AR v2)
Copy OK

Track 20

Filename D:\#New Wav + flac\Ella Fitzgerald - The Complete 1954-62 Singles\cd 1\20. Ella Fitzgerald - It Might As Well Be Spring.wav

Peak level 91.2 %
Extraction speed 10.0 X
Track quality 100.0 %
Test CRC 1D8126FB
Copy CRC 1D8126FB
Accurately ripped (confidence 5) [492F8119] (AR v2)
Copy OK


All tracks accurately ripped

No errors occurred

End of status report

–– CUETools DB Plugin V2.1.6

[CTDB TOCID: uCfwhSynOgdz2TRxfzaJxFPbUdM-] found
Submit result: uCfwhSynOgdz2TRxfzaJxFPbUdM- has been confirmed
Track | CTDB Status
1 | (5/5) Accurately ripped
2 | (5/5) Accurately ripped
3 | (5/5) Accurately ripped
4 | (5/5) Accurately ripped
5 | (5/5) Accurately ripped
6 | (5/5) Accurately ripped
7 | (5/5) Accurately ripped
8 | (5/5) Accurately ripped
9 | (5/5) Accurately ripped
10 | (5/5) Accurately ripped
11 | (5/5) Accurately ripped
12 | (5/5) Accurately ripped
13 | (5/5) Accurately ripped
14 | (5/5) Accurately ripped
15 | (5/5) Accurately ripped
16 | (5/5) Accurately ripped
17 | (5/5) Accurately ripped
18 | (5/5) Accurately ripped
19 | (5/5) Accurately ripped
20 | (5/5) Accurately ripped


==== Log checksum 1E0253DE6B1D3792F1426A164835A40AE61D9A71DBD768698B7A89C02B91E5AC ====
Exact Audio Copy V1.3 from 2. September 2016

EAC extraction logfile from 14. January 2019, 14:28

Ella Fitzgerald / The Complete 1954-62 Singles

Used drive : PLEXTOR PX-891SAF Adapter: 1 ID: 0

Read mode : Secure
Utilize accurate stream : Yes
Defeat audio cache : Yes
Make use of C2 pointers : No

Read offset correction : 6
Overread into Lead-In and Lead-Out : No
Fill up missing offset samples with silence : Yes
Delete leading and trailing silent blocks : No
Null samples used in CRC calculations : Yes
Used interface : Native Win32 interface for Win NT & 2000
Gap handling : Appended to previous track

Used output format : User Defined Encoder
Selected bitrate : 1024 kBit/s
Quality : High
Add ID3 tag : No
Command line compressor : C:\Program Files (x86)\Exact Audio Copy\Flac\flac.exe
Additional command line options : -8 -V -T "ARTIST=%artist%" -T "TITLE=%title%" -T "ALBUM=%albumtitle%" -T "DATE=%year%" -T "TRACKNUMBER=%tracknr%" -T "GENRE=%genre%" -T "PERFORMER=%albuminterpret%" -T "COMPOSER=%composer%" %haslyrics%–tag-from-file=LYRICS="%lyricsfile%"%haslyrics% -T "ALBUMARTIST=%albumartist%" -T "DISCNUMBER=%cdnumber%" -T "TOTALDISCS=%totalcds%" -T "TOTALTRACKS=%numtracks%" -T "COMMENT=%comment%" %source% -o %dest%


TOC of the extracted CD

Track | Start | Length | Start sector | End sector
––––––––––––––––––––––––––––-
1 | 0:00.00 | 3:09.58 | 0 | 14232
2 | 3:09.58 | 3:07.28 | 14233 | 28285
3 | 6:17.11 | 2:18.07 | 28286 | 38642
4 | 8:35.18 | 2:31.45 | 38643 | 50012
5 | 11:06.63 | 2:59.62 | 50013 | 63499
6 | 14:06.50 | 2:01.32 | 63500 | 72606
7 | 16:08.07 | 3:01.20 | 72607 | 86201
8 | 19:09.27 | 2:27.31 | 86202 | 97257
9 | 21:36.58 | 5:12.58 | 97258 | 120715
10 | 26:49.41 | 2:59.05 | 120716 | 134145
11 | 29:48.46 | 2:34.43 | 134146 | 145738
12 | 32:23.14 | 3:19.25 | 145739 | 160688
13 | 35:42.39 | 2:50.22 | 160689 | 173460
14 | 38:32.61 | 3:00.01 | 173461 | 186961
15 | 41:32.62 | 3:00.03 | 186962 | 200464
16 | 44:32.65 | 2:35.13 | 200465 | 212102
17 | 47:08.03 | 3:17.17 | 212103 | 226894
18 | 50:25.20 | 3:16.70 | 226895 | 241664
19 | 53:42.15 | 3:27.69 | 241665 | 257258
20 | 57:10.09 | 2:27.50 | 257259 | 268333


Track 1

Filename D:\#New Wav + flac\Ella Fitzgerald - The Complete 1954-62 Singles\cd 2\01. Ella Fitzgerald - You'll Never Know.wav

Pre-gap length 0:00:02.00

Peak level 91.2 %
Extraction speed 5.2 X
Track quality 100.0 %
Test CRC FB862235
Copy CRC FB862235
Accurately ripped (confidence 5) [0769A07B] (AR v2)
Copy OK

Track 2

Filename D:\#New Wav + flac\Ella Fitzgerald - The Complete 1954-62 Singles\cd 2\02. Ella Fitzgerald - I Can't Get Started.wav

Peak level 91.2 %
Extraction speed 5.6 X
Track quality 100.0 %
Test CRC C3299DAF
Copy CRC C3299DAF
Accurately ripped (confidence 5) [DF68FF4A] (AR v2)
Copy OK

Track 3

Filename D:\#New Wav + flac\Ella Fitzgerald - The Complete 1954-62 Singles\cd 2\03. Ella Fitzgerald - Between The Devil And The Deep Blue Sea.wav

Peak level 91.2 %
Extraction speed 4.2 X
Track quality 99.9 %
Test CRC B994F278
Copy CRC B994F278
Accurately ripped (confidence 5) [D6DFE8B4] (AR v2)
Copy OK

Track 4

Filename D:\#New Wav + flac\Ella Fitzgerald - The Complete 1954-62 Singles\cd 2\04. Ella Fitzgerald - That Old Black Magic.wav

Peak level 91.2 %
Extraction speed 6.1 X
Track quality 100.0 %
Test CRC 5AC8A38C
Copy CRC 5AC8A38C
Accurately ripped (confidence 5) [EC80483B] (AR v2)
Copy OK

Track 5

Filename D:\#New Wav + flac\Ella Fitzgerald - The Complete 1954-62 Singles\cd 2\05. Ella Fitzgerald - Old Devil Moon.wav

Peak level 91.2 %
Extraction speed 6.5 X
Track quality 100.0 %
Test CRC 96F0327B
Copy CRC 96F0327B
Accurately ripped (confidence 5) [C562BC45] (AR v2)
Copy OK

Track 6

Filename D:\#New Wav + flac\Ella Fitzgerald - The Complete 1954-62 Singles\cd 2\06. Ella Fitzgerald - Lover Come Back To Me.wav

Peak level 91.2 %
Extraction speed 6.3 X
Track quality 100.0 %
Test CRC 90CB15C1
Copy CRC 90CB15C1
Accurately ripped (confidence 5) [4402CD2A] (AR v2)
Copy OK

Track 7

Filename D:\#New Wav + flac\Ella Fitzgerald - The Complete 1954-62 Singles\cd 2\07. Ella Fitzgerald - Hard Hearted Hannah.wav

Peak level 91.2 %
Extraction speed 5.6 X
Track quality 99.9 %
Test CRC A0D223A7
Copy CRC A0D223A7
Accurately ripped (confidence 5) [FC0BD160] (AR v2)
Copy OK

Track 8

Filename D:\#New Wav + flac\Ella Fitzgerald - The Complete 1954-62 Singles\cd 2\08. Ella Fitzgerald - Pete Kelly's Blues.wav

Peak level 91.2 %
Extraction speed 5.2 X
Track quality 99.9 %
Test CRC E178CEAC
Copy CRC E178CEAC
Accurately ripped (confidence 5) [FBF975F7] (AR v2)
Copy OK

Track 9

Filename D:\#New Wav + flac\Ella Fitzgerald - The Complete 1954-62 Singles\cd 2\09. Ella Fitzgerald - Ella Hums The Blues.wav

Peak level 91.2 %
Extraction speed 8.1 X
Track quality 100.0 %
Test CRC B97D0C4E
Copy CRC B97D0C4E
Accurately ripped (confidence 5) [6ED20956] (AR v2)
Copy OK

Track 10

Filename D:\#New Wav + flac\Ella Fitzgerald - The Complete 1954-62 Singles\cd 2\10. Ella Fitzgerald - Soldier Boy.wav

Peak level 91.2 %
Extraction speed 8.1 X
Track quality 100.0 %
Test CRC 8484C3BA
Copy CRC 8484C3BA
Accurately ripped (confidence 5) [7438A981] (AR v2)
Copy OK

Track 11

Filename D:\#New Wav + flac\Ella Fitzgerald - The Complete 1954-62 Singles\cd 2\11. Ella Fitzgerald - A Satisfied Mind.wav

Peak level 91.2 %
Extraction speed 7.8 X
Track quality 100.0 %
Test CRC 79C33E66
Copy CRC 79C33E66
Accurately ripped (confidence 5) [52B3B040] (AR v2)
Copy OK

Track 12

Filename D:\#New Wav + flac\Ella Fitzgerald - The Complete 1954-62 Singles\cd 2\12. Ella Fitzgerald - My One And Only Love.wav

Peak level 91.2 %
Extraction speed 8.7 X
Track quality 100.0 %
Test CRC A304C9B2
Copy CRC A304C9B2
Accurately ripped (confidence 5) [CCCE8CC8] (AR v2)
Copy OK

Track 13

Filename D:\#New Wav + flac\Ella Fitzgerald - The Complete 1954-62 Singles\cd 2\13. Ella Fitzgerald - The Impatient Years.wav

Peak level 91.2 %
Extraction speed 6.5 X
Track quality 99.9 %
Test CRC CCCDCC75
Copy CRC CCCDCC75
Accurately ripped (confidence 5) [64B93F2D] (AR v2)
Copy OK

Track 14

Filename D:\#New Wav + flac\Ella Fitzgerald - The Complete 1954-62 Singles\cd 2\14. Ella Fitzgerald - But Not Like Mine.wav

Peak level 91.2 %
Extraction speed 8.7 X
Track quality 100.0 %
Test CRC E9B88601
Copy CRC E9B88601
Accurately ripped (confidence 5) [E027AD91] (AR v2)
Copy OK

Track 15

Filename D:\#New Wav + flac\Ella Fitzgerald - The Complete 1954-62 Singles\cd 2\15. Ella Fitzgerald - The Tender Trap.wav

Peak level 91.2 %
Extraction speed 9.2 X
Track quality 100.0 %
Test CRC 81FD025C
Copy CRC 81FD025C
Accurately ripped (confidence 5) [054D897F] (AR v2)
Copy OK

Track 16

Filename D:\#New Wav + flac\Ella Fitzgerald - The Complete 1954-62 Singles\cd 2\16. Ella Fitzgerald - Stay There.wav

Peak level 91.2 %
Extraction speed 9.2 X
Track quality 100.0 %
Test CRC 68A5165D
Copy CRC 68A5165D
Accurately ripped (confidence 5) [CA51A473] (AR v2)
Copy OK

Track 17

Filename D:\#New Wav + flac\Ella Fitzgerald - The Complete 1954-62 Singles\cd 2\17. Ella Fitzgerald - The Sun Forgot To Shine This Morning.wav

Peak level 91.2 %
Extraction speed 7.8 X
Track quality 99.9 %
Test CRC 14E102C1
Copy CRC 14E102C1
Accurately ripped (confidence 5) [852FF71F] (AR v2)
Copy OK

Track 18

Filename D:\#New Wav + flac\Ella Fitzgerald - The Complete 1954-62 Singles\cd 2\18. Ella Fitzgerald - Too Young For The Blues.wav

Peak level 91.2 %
Extraction speed 9.8 X
Track quality 100.0 %
Test CRC B0474EB9
Copy CRC B0474EB9
Accurately ripped (confidence 5) [62ED7357] (AR v2)
Copy OK

Track 19

Filename D:\#New Wav + flac\Ella Fitzgerald - The Complete 1954-62 Singles\cd 2\19. Ella Fitzgerald - It's Only A Man.wav

Peak level 91.2 %
Extraction speed 10.3 X
Track quality 100.0 %
Test CRC E85BA114
Copy CRC E85BA114
Accurately ripped (confidence 5) [029DD5DD] (AR v2)
Copy OK

Track 20

Filename D:\#New Wav + flac\Ella Fitzgerald - The Complete 1954-62 Singles\cd 2\20. Ella Fitzgerald - Beale Street Blues.wav

Peak level 91.2 %
Extraction speed 9.7 X
Track quality 100.0 %
Test CRC D01675AA
Copy CRC D01675AA
Accurately ripped (confidence 5) [B02B48CE] (AR v2)
Copy OK


All tracks accurately ripped

No errors occurred

End of status report

–– CUETools DB Plugin V2.1.6

[CTDB TOCID: HNDuqznfqM2W9CO7PHQ902SGAtQ-] found
Submit result: HNDuqznfqM2W9CO7PHQ902SGAtQ- has been confirmed
Track | CTDB Status
1 | (3/3) Accurately ripped
2 | (3/3) Accurately ripped
3 | (3/3) Accurately ripped
4 | (3/3) Accurately ripped
5 | (3/3) Accurately ripped
6 | (3/3) Accurately ripped
7 | (3/3) Accurately ripped
8 | (3/3) Accurately ripped
9 | (3/3) Accurately ripped
10 | (3/3) Accurately ripped
11 | (3/3) Accurately ripped
12 | (3/3) Accurately ripped
13 | (3/3) Accurately ripped
14 | (3/3) Accurately ripped
15 | (3/3) Accurately ripped
16 | (3/3) Accurately ripped
17 | (3/3) Accurately ripped
18 | (3/3) Accurately ripped
19 | (3/3) Accurately ripped
20 | (3/3) Accurately ripped


==== Log checksum 347A72946D699885C83DB6C16504B3BDCCEB5D4BCF0BB1E407BF4806B9F679E4 ====

––––––––––––––––––––––––––––––

Exact Audio Copy V1.3 from 2. September 2016

EAC extraction logfile from 14. January 2019, 14:28

Ella Fitzgerald / The Complete 1954-62 Singles

Used drive : PLEXTOR PX-891SAF Adapter: 1 ID: 0

Read mode : Secure
Utilize accurate stream : Yes
Defeat audio cache : Yes
Make use of C2 pointers : No

Read offset correction : 6
Overread into Lead-In and Lead-Out : No
Fill up missing offset samples with silence : Yes
Delete leading and trailing silent blocks : No
Null samples used in CRC calculations : Yes
Used interface : Native Win32 interface for Win NT & 2000
Gap handling : Appended to previous track

Used output format : User Defined Encoder
Selected bitrate : 1024 kBit/s
Quality : High
Add ID3 tag : No
Command line compressor : C:\Program Files (x86)\Exact Audio Copy\Flac\flac.exe
Additional command line options : -8 -V -T "ARTIST=%artist%" -T "TITLE=%title%" -T "ALBUM=%albumtitle%" -T "DATE=%year%" -T "TRACKNUMBER=%tracknr%" -T "GENRE=%genre%" -T "PERFORMER=%albuminterpret%" -T "COMPOSER=%composer%" %haslyrics%–tag-from-file=LYRICS="%lyricsfile%"%haslyrics% -T "ALBUMARTIST=%albumartist%" -T "DISCNUMBER=%cdnumber%" -T "TOTALDISCS=%totalcds%" -T "TOTALTRACKS=%numtracks%" -T "COMMENT=%comment%" %source% -o %dest%


TOC of the extracted CD

Track | Start | Length | Start sector | End sector
––––––––––––––––––––––––––––-
1 | 0:00.00 | 3:09.58 | 0 | 14232
2 | 3:09.58 | 3:07.28 | 14233 | 28285
3 | 6:17.11 | 2:18.07 | 28286 | 38642
4 | 8:35.18 | 2:31.45 | 38643 | 50012
5 | 11:06.63 | 2:59.62 | 50013 | 63499
6 | 14:06.50 | 2:01.32 | 63500 | 72606
7 | 16:08.07 | 3:01.20 | 72607 | 86201
8 | 19:09.27 | 2:27.31 | 86202 | 97257
9 | 21:36.58 | 5:12.58 | 97258 | 120715
10 | 26:49.41 | 2:59.05 | 120716 | 134145
11 | 29:48.46 | 2:34.43 | 134146 | 145738
12 | 32:23.14 | 3:19.25 | 145739 | 160688
13 | 35:42.39 | 2:50.22 | 160689 | 173460
14 | 38:32.61 | 3:00.01 | 173461 | 186961
15 | 41:32.62 | 3:00.03 | 186962 | 200464
16 | 44:32.65 | 2:35.13 | 200465 | 212102
17 | 47:08.03 | 3:17.17 | 212103 | 226894
18 | 50:25.20 | 3:16.70 | 226895 | 241664
19 | 53:42.15 | 3:27.69 | 241665 | 257258
20 | 57:10.09 | 2:27.50 | 257259 | 268333


Track 1

Filename D:\#New Wav + flac\Ella Fitzgerald - The Complete 1954-62 Singles\cd 2\01. Ella Fitzgerald - You'll Never Know.wav

Pre-gap length 0:00:02.00

Peak level 91.2 %
Extraction speed 5.2 X
Track quality 100.0 %
Test CRC FB862235
Copy CRC FB862235
Accurately ripped (confidence 5) [0769A07B] (AR v2)
Copy OK

Track 2

Filename D:\#New Wav + flac\Ella Fitzgerald - The Complete 1954-62 Singles\cd 2\02. Ella Fitzgerald - I Can't Get Started.wav

Peak level 91.2 %
Extraction speed 5.6 X
Track quality 100.0 %
Test CRC C3299DAF
Copy CRC C3299DAF
Accurately ripped (confidence 5) [DF68FF4A] (AR v2)
Copy OK

Track 3

Filename D:\#New Wav + flac\Ella Fitzgerald - The Complete 1954-62 Singles\cd 2\03. Ella Fitzgerald - Between The Devil And The Deep Blue Sea.wav

Peak level 91.2 %
Extraction speed 4.2 X
Track quality 99.9 %
Test CRC B994F278
Copy CRC B994F278
Accurately ripped (confidence 5) [D6DFE8B4] (AR v2)
Copy OK

Track 4

Filename D:\#New Wav + flac\Ella Fitzgerald - The Complete 1954-62 Singles\cd 2\04. Ella Fitzgerald - That Old Black Magic.wav

Peak level 91.2 %
Extraction speed 6.1 X
Track quality 100.0 %
Test CRC 5AC8A38C
Copy CRC 5AC8A38C
Accurately ripped (confidence 5) [EC80483B] (AR v2)
Copy OK

Track 5

Filename D:\#New Wav + flac\Ella Fitzgerald - The Complete 1954-62 Singles\cd 2\05. Ella Fitzgerald - Old Devil Moon.wav

Peak level 91.2 %
Extraction speed 6.5 X
Track quality 100.0 %
Test CRC 96F0327B
Copy CRC 96F0327B
Accurately ripped (confidence 5) [C562BC45] (AR v2)
Copy OK

Track 6

Filename D:\#New Wav + flac\Ella Fitzgerald - The Complete 1954-62 Singles\cd 2\06. Ella Fitzgerald - Lover Come Back To Me.wav

Peak level 91.2 %
Extraction speed 6.3 X
Track quality 100.0 %
Test CRC 90CB15C1
Copy CRC 90CB15C1
Accurately ripped (confidence 5) [4402CD2A] (AR v2)
Copy OK

Track 7

Filename D:\#New Wav + flac\Ella Fitzgerald - The Complete 1954-62 Singles\cd 2\07. Ella Fitzgerald - Hard Hearted Hannah.wav

Peak level 91.2 %
Extraction speed 5.6 X
Track quality 99.9 %
Test CRC A0D223A7
Copy CRC A0D223A7
Accurately ripped (confidence 5) [FC0BD160] (AR v2)
Copy OK

Track 8

Filename D:\#New Wav + flac\Ella Fitzgerald - The Complete 1954-62 Singles\cd 2\08. Ella Fitzgerald - Pete Kelly's Blues.wav

Peak level 91.2 %
Extraction speed 5.2 X
Track quality 99.9 %
Test CRC E178CEAC
Copy CRC E178CEAC
Accurately ripped (confidence 5) [FBF975F7] (AR v2)
Copy OK

Track 9

Filename D:\#New Wav + flac\Ella Fitzgerald - The Complete 1954-62 Singles\cd 2\09. Ella Fitzgerald - Ella Hums The Blues.wav

Peak level 91.2 %
Extraction speed 8.1 X
Track quality 100.0 %
Test CRC B97D0C4E
Copy CRC B97D0C4E
Accurately ripped (confidence 5) [6ED20956] (AR v2)
Copy OK

Track 10

Filename D:\#New Wav + flac\Ella Fitzgerald - The Complete 1954-62 Singles\cd 2\10. Ella Fitzgerald - Soldier Boy.wav

Peak level 91.2 %
Extraction speed 8.1 X
Track quality 100.0 %
Test CRC 8484C3BA
Copy CRC 8484C3BA
Accurately ripped (confidence 5) [7438A981] (AR v2)
Copy OK

Track 11

Filename D:\#New Wav + flac\Ella Fitzgerald - The Complete 1954-62 Singles\cd 2\11. Ella Fitzgerald - A Satisfied Mind.wav

Peak level 91.2 %
Extraction speed 7.8 X
Track quality 100.0 %
Test CRC 79C33E66
Copy CRC 79C33E66
Accurately ripped (confidence 5) [52B3B040] (AR v2)
Copy OK

Track 12

Filename D:\#New Wav + flac\Ella Fitzgerald - The Complete 1954-62 Singles\cd 2\12. Ella Fitzgerald - My One And Only Love.wav

Peak level 91.2 %
Extraction speed 8.7 X
Track quality 100.0 %
Test CRC A304C9B2
Copy CRC A304C9B2
Accurately ripped (confidence 5) [CCCE8CC8] (AR v2)
Copy OK

Track 13

Filename D:\#New Wav + flac\Ella Fitzgerald - The Complete 1954-62 Singles\cd 2\13. Ella Fitzgerald - The Impatient Years.wav

Peak level 91.2 %
Extraction speed 6.5 X
Track quality 99.9 %
Test CRC CCCDCC75
Copy CRC CCCDCC75
Accurately ripped (confidence 5) [64B93F2D] (AR v2)
Copy OK

Track 14

Filename D:\#New Wav + flac\Ella Fitzgerald - The Complete 1954-62 Singles\cd 2\14. Ella Fitzgerald - But Not Like Mine.wav

Peak level 91.2 %
Extraction speed 8.7 X
Track quality 100.0 %
Test CRC E9B88601
Copy CRC E9B88601
Accurately ripped (confidence 5) [E027AD91] (AR v2)
Copy OK

Track 15

Filename D:\#New Wav + flac\Ella Fitzgerald - The Complete 1954-62 Singles\cd 2\15. Ella Fitzgerald - The Tender Trap.wav

Peak level 91.2 %
Extraction speed 9.2 X
Track quality 100.0 %
Test CRC 81FD025C
Copy CRC 81FD025C
Accurately ripped (confidence 5) [054D897F] (AR v2)
Copy OK

Track 16

Filename D:\#New Wav + flac\Ella Fitzgerald - The Complete 1954-62 Singles\cd 2\16. Ella Fitzgerald - Stay There.wav

Peak level 91.2 %
Extraction speed 9.2 X
Track quality 100.0 %
Test CRC 68A5165D
Copy CRC 68A5165D
Accurately ripped (confidence 5) [CA51A473] (AR v2)
Copy OK

Track 17

Filename D:\#New Wav + flac\Ella Fitzgerald - The Complete 1954-62 Singles\cd 2\17. Ella Fitzgerald - The Sun Forgot To Shine This Morning.wav

Peak level 91.2 %
Extraction speed 7.8 X
Track quality 99.9 %
Test CRC 14E102C1
Copy CRC 14E102C1
Accurately ripped (confidence 5) [852FF71F] (AR v2)
Copy OK

Track 18

Filename D:\#New Wav + flac\Ella Fitzgerald - The Complete 1954-62 Singles\cd 2\18. Ella Fitzgerald - Too Young For The Blues.wav

Peak level 91.2 %
Extraction speed 9.8 X
Track quality 100.0 %
Test CRC B0474EB9
Copy CRC B0474EB9
Accurately ripped (confidence 5) [62ED7357] (AR v2)
Copy OK

Track 19

Filename D:\#New Wav + flac\Ella Fitzgerald - The Complete 1954-62 Singles\cd 2\19. Ella Fitzgerald - It's Only A Man.wav

Peak level 91.2 %
Extraction speed 10.3 X
Track quality 100.0 %
Test CRC E85BA114
Copy CRC E85BA114
Accurately ripped (confidence 5) [029DD5DD] (AR v2)
Copy OK

Track 20

Filename D:\#New Wav + flac\Ella Fitzgerald - The Complete 1954-62 Singles\cd 2\20. Ella Fitzgerald - Beale Street Blues.wav

Peak level 91.2 %
Extraction speed 9.7 X
Track quality 100.0 %
Test CRC D01675AA
Copy CRC D01675AA
Accurately ripped (confidence 5) [B02B48CE] (AR v2)
Copy OK


All tracks accurately ripped

No errors occurred

End of status report

–– CUETools DB Plugin V2.1.6

[CTDB TOCID: HNDuqznfqM2W9CO7PHQ902SGAtQ-] found
Submit result: HNDuqznfqM2W9CO7PHQ902SGAtQ- has been confirmed
Track | CTDB Status
1 | (3/3) Accurately ripped
2 | (3/3) Accurately ripped
3 | (3/3) Accurately ripped
4 | (3/3) Accurately ripped
5 | (3/3) Accurately ripped
6 | (3/3) Accurately ripped
7 | (3/3) Accurately ripped
8 | (3/3) Accurately ripped
9 | (3/3) Accurately ripped
10 | (3/3) Accurately ripped
11 | (3/3) Accurately ripped
12 | (3/3) Accurately ripped
13 | (3/3) Accurately ripped
14 | (3/3) Accurately ripped
15 | (3/3) Accurately ripped
16 | (3/3) Accurately ripped
17 | (3/3) Accurately ripped
18 | (3/3) Accurately ripped
19 | (3/3) Accurately ripped
20 | (3/3) Accurately ripped


==== Log checksum 347A72946D699885C83DB6C16504B3BDCCEB5D4BCF0BB1E407BF4806B9F679E4 ====
Exact Audio Copy V1.3 from 2. September 2016

EAC extraction logfile from 14. January 2019, 14:50

Ella Fitzgerald / The Singles Disc 3

Used drive : PLEXTOR PX-891SAF Adapter: 1 ID: 0

Read mode : Secure
Utilize accurate stream : Yes
Defeat audio cache : Yes
Make use of C2 pointers : No

Read offset correction : 6
Overread into Lead-In and Lead-Out : No
Fill up missing offset samples with silence : Yes
Delete leading and trailing silent blocks : No
Null samples used in CRC calculations : Yes
Used interface : Native Win32 interface for Win NT & 2000
Gap handling : Appended to previous track

Used output format : User Defined Encoder
Selected bitrate : 1024 kBit/s
Quality : High
Add ID3 tag : No
Command line compressor : C:\Program Files (x86)\Exact Audio Copy\Flac\flac.exe
Additional command line options : -8 -V -T "ARTIST=%artist%" -T "TITLE=%title%" -T "ALBUM=%albumtitle%" -T "DATE=%year%" -T "TRACKNUMBER=%tracknr%" -T "GENRE=%genre%" -T "PERFORMER=%albuminterpret%" -T "COMPOSER=%composer%" %haslyrics%–tag-from-file=LYRICS="%lyricsfile%"%haslyrics% -T "ALBUMARTIST=%albumartist%" -T "DISCNUMBER=%cdnumber%" -T "TOTALDISCS=%totalcds%" -T "TOTALTRACKS=%numtracks%" -T "COMMENT=%comment%" %source% -o %dest%


TOC of the extracted CD

Track | Start | Length | Start sector | End sector
––––––––––––––––––––––––––––-
1 | 0:00.00 | 2:37.73 | 0 | 11847
2 | 2:37.73 | 2:51.26 | 11848 | 24698
3 | 5:29.24 | 2:19.25 | 24699 | 35148
4 | 7:48.49 | 3:08.25 | 35149 | 49273
5 | 10:56.74 | 2:20.27 | 49274 | 59800
6 | 13:17.26 | 2:58.48 | 59801 | 73198
7 | 16:15.74 | 2:41.00 | 73199 | 85273
8 | 18:56.74 | 2:56.07 | 85274 | 98480
9 | 21:53.06 | 3:12.00 | 98481 | 112880
10 | 25:05.06 | 2:24.63 | 112881 | 123743
11 | 27:29.69 | 2:38.22 | 123744 | 135615
12 | 30:08.16 | 2:05.64 | 135616 | 145054
13 | 32:14.05 | 3:18.70 | 145055 | 159974
14 | 35:33.00 | 2:47.25 | 159975 | 172524
15 | 38:20.25 | 3:36.11 | 172525 | 188735
16 | 41:56.36 | 3:07.51 | 188736 | 202811
17 | 45:04.12 | 3:46.51 | 202812 | 219812
18 | 48:50.63 | 2:35.00 | 219813 | 231437
19 | 51:25.63 | 3:24.44 | 231438 | 246781
20 | 54:50.32 | 3:53.40 | 246782 | 264296
21 | 58:43.72 | 2:11.38 | 264297 | 274159
22 | 60:55.35 | 2:32.62 | 274160 | 285621


Track 1

Filename D:\#New Wav + flac\Ella Fitzgerald - The Complete 1954-62 Singles\cd 3\01. Ella Fitzgerald - The End Of A Beautiful Friendship.wav

Pre-gap length 0:00:02.00

Peak level 91.2 %
Extraction speed 5.0 X
Track quality 100.0 %
Test CRC 72AC0122
Copy CRC 72AC0122
Accurately ripped (confidence 4) [CC10BA5C] (AR v2)
Copy OK

Track 2

Filename D:\#New Wav + flac\Ella Fitzgerald - The Complete 1954-62 Singles\cd 3\02. Ella Fitzgerald - The Silent Treatment.wav

Peak level 91.2 %
Extraction speed 5.4 X
Track quality 100.0 %
Test CRC AB8A2831
Copy CRC AB8A2831
Accurately ripped (confidence 4) [22D804D1] (AR v2)
Copy OK

Track 3

Filename D:\#New Wav + flac\Ella Fitzgerald - The Complete 1954-62 Singles\cd 3\03. Ella Fitzgerald - Hear My Heart.wav

Peak level 91.2 %
Extraction speed 5.5 X
Track quality 100.0 %
Test CRC 15342E02
Copy CRC 15342E02
Accurately ripped (confidence 4) [054A3A0C] (AR v2)
Copy OK

Track 4

Filename D:\#New Wav + flac\Ella Fitzgerald - The Complete 1954-62 Singles\cd 3\04. Ella Fitzgerald - Hotta Chocolatta.wav

Peak level 91.2 %
Extraction speed 6.1 X
Track quality 100.0 %
Test CRC 27F9459D
Copy CRC 27F9459D
Accurately ripped (confidence 4) [5EEC017F] (AR v2)
Copy OK

Track 5

Filename D:\#New Wav + flac\Ella Fitzgerald - The Complete 1954-62 Singles\cd 3\05. Ella Fitzgerald - A-Tisket-A-Tasket.wav

Peak level 91.2 %
Extraction speed 6.1 X
Track quality 100.0 %
Test CRC A7C13851
Copy CRC A7C13851
Accurately ripped (confidence 4) [AFAE73C7] (AR v2)
Copy OK

Track 6

Filename D:\#New Wav + flac\Ella Fitzgerald - The Complete 1954-62 Singles\cd 3\06. Ella Fitzgerald - Teach Me How To Cry.wav

Peak level 91.2 %
Extraction speed 5.2 X
Track quality 99.9 %
Test CRC 058B78F4
Copy CRC 058B78F4
Accurately ripped (confidence 4) [CF44D544] (AR v2)
Copy OK

Track 7

Filename D:\#New Wav + flac\Ella Fitzgerald - The Complete 1954-62 Singles\cd 3\07. Ella Fitzgerald - Swingin' Shepeard Blues.wav

Peak level 91.2 %
Extraction speed 5.2 X
Track quality 99.9 %
Test CRC 005CC67B
Copy CRC 005CC67B
Accurately ripped (confidence 4) [F1B6D08B] (AR v2)
Copy OK

Track 8

Filename D:\#New Wav + flac\Ella Fitzgerald - The Complete 1954-62 Singles\cd 3\08. Ella Fitzgerald - Your Red Wagon.wav

Peak level 91.2 %
Extraction speed 7.3 X
Track quality 100.0 %
Test CRC 77CFB16B
Copy CRC 77CFB16B
Accurately ripped (confidence 4) [CD9BD925] (AR v2)
Copy OK

Track 9

Filename D:\#New Wav + flac\Ella Fitzgerald - The Complete 1954-62 Singles\cd 3\09. Ella Fitzgerald - Travelin' Light.wav

Peak level 91.2 %
Extraction speed 7.7 X
Track quality 100.0 %
Test CRC 2FACDF6A
Copy CRC 2FACDF6A
Accurately ripped (confidence 4) [284D18D5] (AR v2)
Copy OK

Track 10

Filename D:\#New Wav + flac\Ella Fitzgerald - The Complete 1954-62 Singles\cd 3\10. Ella Fitzgerald - Oh What A Night For Love.wav

Peak level 91.2 %
Extraction speed 7.6 X
Track quality 100.0 %
Test CRC 63CA940B
Copy CRC 63CA940B
Accurately ripped (confidence 4) [21C4C7D6] (AR v2)
Copy OK

Track 11

Filename D:\#New Wav + flac\Ella Fitzgerald - The Complete 1954-62 Singles\cd 3\11. Ella Fitzgerald - Dreams Are Made For Children.wav

Peak level 91.2 %
Extraction speed 7.7 X
Track quality 100.0 %
Test CRC 5C49995A
Copy CRC 5C49995A
Accurately ripped (confidence 4) [6FC97EF1] (AR v2)
Copy OK

Track 12

Filename D:\#New Wav + flac\Ella Fitzgerald - The Complete 1954-62 Singles\cd 3\12. Ella Fitzgerald - But Not For Me.wav

Peak level 91.2 %
Extraction speed 5.7 X
Track quality 99.9 %
Test CRC 7527C0C9
Copy CRC 7527C0C9
Accurately ripped (confidence 4) [DCE27DF2] (AR v2)
Copy OK

Track 13

Filename D:\#New Wav + flac\Ella Fitzgerald - The Complete 1954-62 Singles\cd 3\13. Ella Fitzgerald - The Christmas Song.wav

Peak level 91.2 %
Extraction speed 8.7 X
Track quality 100.0 %
Test CRC DAECA4C8
Copy CRC DAECA4C8
Accurately ripped (confidence 4) [F01625C5] (AR v2)
Copy OK

Track 14

Filename D:\#New Wav + flac\Ella Fitzgerald - The Complete 1954-62 Singles\cd 3\14. Ella Fitzgerald - The Secret Of Christmas.wav

Peak level 91.2 %
Extraction speed 6.5 X
Track quality 99.9 %
Test CRC 478151BB
Copy CRC 478151BB
Accurately ripped (confidence 4) [C1FDB288] (AR v2)
Copy OK

Track 15

Filename D:\#New Wav + flac\Ella Fitzgerald - The Complete 1954-62 Singles\cd 3\15. Ella Fitzgerald - Christmas Medley.wav

Peak level 91.2 %
Extraction speed 7.5 X
Track quality 99.9 %
Test CRC 47D31560
Copy CRC 47D31560
Accurately ripped (confidence 4) [CEBB9DF2] (AR v2)
Copy OK

Track 16

Filename D:\#New Wav + flac\Ella Fitzgerald - The Complete 1954-62 Singles\cd 3\16. Ella Fitzgerald - Ich Fuhle Mich Crazy.wav

Peak level 91.2 %
Extraction speed 9.3 X
Track quality 100.0 %
Test CRC 2DA17A65
Copy CRC 2DA17A65
Accurately ripped (confidence 4) [51B3853C] (AR v2)
Copy OK

Track 17

Filename D:\#New Wav + flac\Ella Fitzgerald - The Complete 1954-62 Singles\cd 3\17. Ella Fitzgerald - Mr Paganini.wav

Peak level 91.2 %
Extraction speed 9.5 X
Track quality 100.0 %
Test CRC B35D3978
Copy CRC B35D3978
Accurately ripped (confidence 4) [F0620E4F] (AR v2)
Copy OK

Track 18

Filename D:\#New Wav + flac\Ella Fitzgerald - The Complete 1954-62 Singles\cd 3\18. Ella Fitzgerald - Call Me Darling.wav

Peak level 91.2 %
Extraction speed 6.9 X
Track quality 99.9 %
Test CRC F6269B0D
Copy CRC F6269B0D
Accurately ripped (confidence 4) [5FBBDB17] (AR v2)
Copy OK

Track 19

Filename D:\#New Wav + flac\Ella Fitzgerald - The Complete 1954-62 Singles\cd 3\19. Ella Fitzgerald - Bill BaileyWon't You Please Come Home.wav

Peak level 91.2 %
Extraction speed 10.2 X
Track quality 100.0 %
Test CRC 70AB82AC
Copy CRC 70AB82AC
Accurately ripped (confidence 4) [F6E7E874] (AR v2)
Copy OK

Track 20

Filename D:\#New Wav + flac\Ella Fitzgerald - The Complete 1954-62 Singles\cd 3\20. Ella Fitzgerald - Ol Man Mose.wav

Peak level 91.2 %
Extraction speed 10.2 X
Track quality 100.0 %
Test CRC 2156788C
Copy CRC 2156788C
Accurately ripped (confidence 4) [47D75918] (AR v2)
Copy OK

Track 21

Filename D:\#New Wav + flac\Ella Fitzgerald - The Complete 1954-62 Singles\cd 3\21. Ella Fitzgerald - Desfinado.wav

Peak level 91.2 %
Extraction speed 9.3 X
Track quality 100.0 %
Test CRC A580CDB2
Copy CRC A580CDB2
Accurately ripped (confidence 4) [D11E9FDF] (AR v2)
Copy OK

Track 22

Filename D:\#New Wav + flac\Ella Fitzgerald - The Complete 1954-62 Singles\cd 3\22. Ella Fitzgerald - Stardust Bossa Nova.wav

Peak level 91.2 %
Extraction speed 10.0 X
Track quality 100.0 %
Test CRC FBC2DEA3
Copy CRC FBC2DEA3
Accurately ripped (confidence 4) [0AF969CE] (AR v2)
Copy OK


All tracks accurately ripped

No errors occurred

End of status report

–– CUETools DB Plugin V2.1.6

[CTDB TOCID: dZmmaFzAcaaLCXHr0gVC7igGHWc-] found
Submit result: dZmmaFzAcaaLCXHr0gVC7igGHWc- has been confirmed
Track | CTDB Status
1 | (5/5) Accurately ripped
2 | (5/5) Accurately ripped
3 | (5/5) Accurately ripped
4 | (5/5) Accurately ripped
5 | (5/5) Accurately ripped
6 | (5/5) Accurately ripped
7 | (5/5) Accurately ripped
8 | (5/5) Accurately ripped
9 | (5/5) Accurately ripped
10 | (5/5) Accurately ripped
11 | (5/5) Accurately ripped
12 | (5/5) Accurately ripped
13 | (5/5) Accurately ripped
14 | (5/5) Accurately ripped
15 | (5/5) Accurately ripped
16 | (5/5) Accurately ripped
17 | (5/5) Accurately ripped
18 | (5/5) Accurately ripped
19 | (5/5) Accurately ripped
20 | (5/5) Accurately ripped
21 | (5/5) Accurately ripped
22 | (5/5) Accurately ripped


==== Log checksum F6C376E09FDFA86E19F66C3C870B87BCB63786120551E3063F7F919B6489BF2E ====

––––––––––––––––––––––––––––––

Exact Audio Copy V1.3 from 2. September 2016

EAC extraction logfile from 14. January 2019, 14:50

Ella Fitzgerald / The Singles Disc 3

Used drive : PLEXTOR PX-891SAF Adapter: 1 ID: 0

Read mode : Secure
Utilize accurate stream : Yes
Defeat audio cache : Yes
Make use of C2 pointers : No

Read offset correction : 6
Overread into Lead-In and Lead-Out : No
Fill up missing offset samples with silence : Yes
Delete leading and trailing silent blocks : No
Null samples used in CRC calculations : Yes
Used interface : Native Win32 interface for Win NT & 2000
Gap handling : Appended to previous track

Used output format : User Defined Encoder
Selected bitrate : 1024 kBit/s
Quality : High
Add ID3 tag : No
Command line compressor : C:\Program Files (x86)\Exact Audio Copy\Flac\flac.exe
Additional command line options : -8 -V -T "ARTIST=%artist%" -T "TITLE=%title%" -T "ALBUM=%albumtitle%" -T "DATE=%year%" -T "TRACKNUMBER=%tracknr%" -T "GENRE=%genre%" -T "PERFORMER=%albuminterpret%" -T "COMPOSER=%composer%" %haslyrics%–tag-from-file=LYRICS="%lyricsfile%"%haslyrics% -T "ALBUMARTIST=%albumartist%" -T "DISCNUMBER=%cdnumber%" -T "TOTALDISCS=%totalcds%" -T "TOTALTRACKS=%numtracks%" -T "COMMENT=%comment%" %source% -o %dest%


TOC of the extracted CD

Track | Start | Length | Start sector | End sector
––––––––––––––––––––––––––––-
1 | 0:00.00 | 2:37.73 | 0 | 11847
2 | 2:37.73 | 2:51.26 | 11848 | 24698
3 | 5:29.24 | 2:19.25 | 24699 | 35148
4 | 7:48.49 | 3:08.25 | 35149 | 49273
5 | 10:56.74 | 2:20.27 | 49274 | 59800
6 | 13:17.26 | 2:58.48 | 59801 | 73198
7 | 16:15.74 | 2:41.00 | 73199 | 85273
8 | 18:56.74 | 2:56.07 | 85274 | 98480
9 | 21:53.06 | 3:12.00 | 98481 | 112880
10 | 25:05.06 | 2:24.63 | 112881 | 123743
11 | 27:29.69 | 2:38.22 | 123744 | 135615
12 | 30:08.16 | 2:05.64 | 135616 | 145054
13 | 32:14.05 | 3:18.70 | 145055 | 159974
14 | 35:33.00 | 2:47.25 | 159975 | 172524
15 | 38:20.25 | 3:36.11 | 172525 | 188735
16 | 41:56.36 | 3:07.51 | 188736 | 202811
17 | 45:04.12 | 3:46.51 | 202812 | 219812
18 | 48:50.63 | 2:35.00 | 219813 | 231437
19 | 51:25.63 | 3:24.44 | 231438 | 246781
20 | 54:50.32 | 3:53.40 | 246782 | 264296
21 | 58:43.72 | 2:11.38 | 264297 | 274159
22 | 60:55.35 | 2:32.62 | 274160 | 285621


Track 1

Filename D:\#New Wav + flac\Ella Fitzgerald - The Complete 1954-62 Singles\cd 3\01. Ella Fitzgerald - The End Of A Beautiful Friendship.wav

Pre-gap length 0:00:02.00

Peak level 91.2 %
Extraction speed 5.0 X
Track quality 100.0 %
Test CRC 72AC0122
Copy CRC 72AC0122
Accurately ripped (confidence 4) [CC10BA5C] (AR v2)
Copy OK

Track 2

Filename D:\#New Wav + flac\Ella Fitzgerald - The Complete 1954-62 Singles\cd 3\02. Ella Fitzgerald - The Silent Treatment.wav

Peak level 91.2 %
Extraction speed 5.4 X
Track quality 100.0 %
Test CRC AB8A2831
Copy CRC AB8A2831
Accurately ripped (confidence 4) [22D804D1] (AR v2)
Copy OK

Track 3

Filename D:\#New Wav + flac\Ella Fitzgerald - The Complete 1954-62 Singles\cd 3\03. Ella Fitzgerald - Hear My Heart.wav

Peak level 91.2 %
Extraction speed 5.5 X
Track quality 100.0 %
Test CRC 15342E02
Copy CRC 15342E02
Accurately ripped (confidence 4) [054A3A0C] (AR v2)
Copy OK

Track 4

Filename D:\#New Wav + flac\Ella Fitzgerald - The Complete 1954-62 Singles\cd 3\04. Ella Fitzgerald - Hotta Chocolatta.wav

Peak level 91.2 %
Extraction speed 6.1 X
Track quality 100.0 %
Test CRC 27F9459D
Copy CRC 27F9459D
Accurately ripped (confidence 4) [5EEC017F] (AR v2)
Copy OK

Track 5

Filename D:\#New Wav + flac\Ella Fitzgerald - The Complete 1954-62 Singles\cd 3\05. Ella Fitzgerald - A-Tisket-A-Tasket.wav

Peak level 91.2 %
Extraction speed 6.1 X
Track quality 100.0 %
Test CRC A7C13851
Copy CRC A7C13851
Accurately ripped (confidence 4) [AFAE73C7] (AR v2)
Copy OK

Track 6

Filename D:\#New Wav + flac\Ella Fitzgerald - The Complete 1954-62 Singles\cd 3\06. Ella Fitzgerald - Teach Me How To Cry.wav

Peak level 91.2 %
Extraction speed 5.2 X
Track quality 99.9 %
Test CRC 058B78F4
Copy CRC 058B78F4
Accurately ripped (confidence 4) [CF44D544] (AR v2)
Copy OK

Track 7

Filename D:\#New Wav + flac\Ella Fitzgerald - The Complete 1954-62 Singles\cd 3\07. Ella Fitzgerald - Swingin' Shepeard Blues.wav

Peak level 91.2 %
Extraction speed 5.2 X
Track quality 99.9 %
Test CRC 005CC67B
Copy CRC 005CC67B
Accurately ripped (confidence 4) [F1B6D08B] (AR v2)
Copy OK

Track 8

Filename D:\#New Wav + flac\Ella Fitzgerald - The Complete 1954-62 Singles\cd 3\08. Ella Fitzgerald - Your Red Wagon.wav

Peak level 91.2 %
Extraction speed 7.3 X
Track quality 100.0 %
Test CRC 77CFB16B
Copy CRC 77CFB16B
Accurately ripped (confidence 4) [CD9BD925] (AR v2)
Copy OK

Track 9

Filename D:\#New Wav + flac\Ella Fitzgerald - The Complete 1954-62 Singles\cd 3\09. Ella Fitzgerald - Travelin' Light.wav

Peak level 91.2 %
Extraction speed 7.7 X
Track quality 100.0 %
Test CRC 2FACDF6A
Copy CRC 2FACDF6A
Accurately ripped (confidence 4) [284D18D5] (AR v2)
Copy OK

Track 10

Filename D:\#New Wav + flac\Ella Fitzgerald - The Complete 1954-62 Singles\cd 3\10. Ella Fitzgerald - Oh What A Night For Love.wav

Peak level 91.2 %
Extraction speed 7.6 X
Track quality 100.0 %
Test CRC 63CA940B
Copy CRC 63CA940B
Accurately ripped (confidence 4) [21C4C7D6] (AR v2)
Copy OK

Track 11

Filename D:\#New Wav + flac\Ella Fitzgerald - The Complete 1954-62 Singles\cd 3\11. Ella Fitzgerald - Dreams Are Made For Children.wav

Peak level 91.2 %
Extraction speed 7.7 X
Track quality 100.0 %
Test CRC 5C49995A
Copy CRC 5C49995A
Accurately ripped (confidence 4) [6FC97EF1] (AR v2)
Copy OK

Track 12

Filename D:\#New Wav + flac\Ella Fitzgerald - The Complete 1954-62 Singles\cd 3\12. Ella Fitzgerald - But Not For Me.wav

Peak level 91.2 %
Extraction speed 5.7 X
Track quality 99.9 %
Test CRC 7527C0C9
Copy CRC 7527C0C9
Accurately ripped (confidence 4) [DCE27DF2] (AR v2)
Copy OK

Track 13

Filename D:\#New Wav + flac\Ella Fitzgerald - The Complete 1954-62 Singles\cd 3\13. Ella Fitzgerald - The Christmas Song.wav

Peak level 91.2 %
Extraction speed 8.7 X
Track quality 100.0 %
Test CRC DAECA4C8
Copy CRC DAECA4C8
Accurately ripped (confidence 4) [F01625C5] (AR v2)
Copy OK

Track 14

Filename D:\#New Wav + flac\Ella Fitzgerald - The Complete 1954-62 Singles\cd 3\14. Ella Fitzgerald - The Secret Of Christmas.wav

Peak level 91.2 %
Extraction speed 6.5 X
Track quality 99.9 %
Test CRC 478151BB
Copy CRC 478151BB
Accurately ripped (confidence 4) [C1FDB288] (AR v2)
Copy OK

Track 15

Filename D:\#New Wav + flac\Ella Fitzgerald - The Complete 1954-62 Singles\cd 3\15. Ella Fitzgerald - Christmas Medley.wav

Peak level 91.2 %
Extraction speed 7.5 X
Track quality 99.9 %
Test CRC 47D31560
Copy CRC 47D31560
Accurately ripped (confidence 4) [CEBB9DF2] (AR v2)
Copy OK

Track 16

Filename D:\#New Wav + flac\Ella Fitzgerald - The Complete 1954-62 Singles\cd 3\16. Ella Fitzgerald - Ich Fuhle Mich Crazy.wav

Peak level 91.2 %
Extraction speed 9.3 X
Track quality 100.0 %
Test CRC 2DA17A65
Copy CRC 2DA17A65
Accurately ripped (confidence 4) [51B3853C] (AR v2)
Copy OK

Track 17

Filename D:\#New Wav + flac\Ella Fitzgerald - The Complete 1954-62 Singles\cd 3\17. Ella Fitzgerald - Mr Paganini.wav

Peak level 91.2 %
Extraction speed 9.5 X
Track quality 100.0 %
Test CRC B35D3978
Copy CRC B35D3978
Accurately ripped (confidence 4) [F0620E4F] (AR v2)
Copy OK

Track 18

Filename D:\#New Wav + flac\Ella Fitzgerald - The Complete 1954-62 Singles\cd 3\18. Ella Fitzgerald - Call Me Darling.wav

Peak level 91.2 %
Extraction speed 6.9 X
Track quality 99.9 %
Test CRC F6269B0D
Copy CRC F6269B0D
Accurately ripped (confidence 4) [5FBBDB17] (AR v2)
Copy OK

Track 19

Filename D:\#New Wav + flac\Ella Fitzgerald - The Complete 1954-62 Singles\cd 3\19. Ella Fitzgerald - Bill BaileyWon't You Please Come Home.wav

Peak level 91.2 %
Extraction speed 10.2 X
Track quality 100.0 %
Test CRC 70AB82AC
Copy CRC 70AB82AC
Accurately ripped (confidence 4) [F6E7E874] (AR v2)
Copy OK

Track 20

Filename D:\#New Wav + flac\Ella Fitzgerald - The Complete 1954-62 Singles\cd 3\20. Ella Fitzgerald - Ol Man Mose.wav

Peak level 91.2 %
Extraction speed 10.2 X
Track quality 100.0 %
Test CRC 2156788C
Copy CRC 2156788C
Accurately ripped (confidence 4) [47D75918] (AR v2)
Copy OK

Track 21

Filename D:\#New Wav + flac\Ella Fitzgerald - The Complete 1954-62 Singles\cd 3\21. Ella Fitzgerald - Desfinado.wav

Peak level 91.2 %
Extraction speed 9.3 X
Track quality 100.0 %
Test CRC A580CDB2
Copy CRC A580CDB2
Accurately ripped (confidence 4) [D11E9FDF] (AR v2)
Copy OK

Track 22

Filename D:\#New Wav + flac\Ella Fitzgerald - The Complete 1954-62 Singles\cd 3\22. Ella Fitzgerald - Stardust Bossa Nova.wav

Peak level 91.2 %
Extraction speed 10.0 X
Track quality 100.0 %
Test CRC FBC2DEA3
Copy CRC FBC2DEA3
Accurately ripped (confidence 4) [0AF969CE] (AR v2)
Copy OK


All tracks accurately ripped

No errors occurred

End of status report

–– CUETools DB Plugin V2.1.6

[CTDB TOCID: dZmmaFzAcaaLCXHr0gVC7igGHWc-] found
Submit result: dZmmaFzAcaaLCXHr0gVC7igGHWc- has been confirmed
Track | CTDB Status
1 | (5/5) Accurately ripped
2 | (5/5) Accurately ripped
3 | (5/5) Accurately ripped
4 | (5/5) Accurately ripped
5 | (5/5) Accurately ripped
6 | (5/5) Accurately ripped
7 | (5/5) Accurately ripped
8 | (5/5) Accurately ripped
9 | (5/5) Accurately ripped
10 | (5/5) Accurately ripped
11 | (5/5) Accurately ripped
12 | (5/5) Accurately ripped
13 | (5/5) Accurately ripped
14 | (5/5) Accurately ripped
15 | (5/5) Accurately ripped
16 | (5/5) Accurately ripped
17 | (5/5) Accurately ripped
18 | (5/5) Accurately ripped
19 | (5/5) Accurately ripped
20 | (5/5) Accurately ripped
21 | (5/5) Accurately ripped
22 | (5/5) Accurately ripped


==== Log checksum F6C376E09FDFA86E19F66C3C870B87BCB63786120551E3063F7F919B6489BF2E ====

Thanks to the Original ripper !