Elvis Presley - Young Man With The Big Beat. The Complete '56 Elvis Presley Masters (2011) [55th Anniversary 5CD BoxSet] {RCA}

Posted By: ruskaval
Elvis Presley - Young Man With The Big Beat. The Complete '56 Elvis Presley Masters (2011) [55th Anniversary 5CD BoxSet] {RCA}

Elvis Presley - Young Man With The Big Beat. The Complete '56 Elvis Presley Masters (2011) [55th Anniversary Deluxe 5CD BoxSet] {RCA}
EAC rip (secure mode) | FLAC (tracks)+CUE+LOG -> 1.12 Gb | MP3 @320 -> 721 Mb
Full Artwork @ 300 dpi (jpg) -> 486 Mb | 5% repair rar
© 2011 RCA Records / Legacy / Sony Music | 88697935342
Rock / Early Pop / Rock & Roll

The recorded legacy of Elvis Presley continues to be discovered by new generations that never saw him or heard him perform live. It's hard to appreciate that he started so much of what we take for granted now in popular music. Until 1956, the teenagers of suburban America, and the rest of the world, had to endure ditties by Rosemary Clooney and Perry Como but everything was about to be tossed upside down. On January 28 on a cold night in New York, Elvis took America by storm as he appeared on CBS-TV's Stage Show hosted by Jimmy and Tommy Dorsey. On February 4 for his second appearance he sang a song that literally changed the world of popular music "Heartbreak Hotel". Its unique sound and style literally blew everything before it away while at the same time inducing the blueprint for everything that was to come; by April, it would be #1 on Billboard. This incredible step-change in musical history resonated around the world and while liberating millions of young adolescent teenagers it also inspired many successful artists of today to pick a guitar or sing - everyone wanted to be like Elvis. The pure spontaneity of these seminal recordings shows through even today; "Heartbreak Hotel", Don't Be Cruel", "Hound Dog", "Blue Suede Shoes" and "My Baby Left Me" are some of the greatest rock 'n' roll records ever made. Elvis' unprecedented level of achievement is still the benchmark by which artistic success is measured today and YOUNG MAN WITH THE BIG BEAT is testament to the phenomenon and cultural icon that is Elvis Presley.
Elvis Presley - Young Man With The Big Beat. The Complete '56 Elvis Presley Masters (2011) [55th Anniversary 5CD BoxSet] {RCA}

THIS SUPER DELUXE EDITION CELEBRATES 1956 in style with this retro 12x12 format and offers;
-2 CD's of original digitally remastered RCA master recordings
-1 CD of live performances including a complete UNRELEASED concert from the Municipal Auditorium, Shreveport, Louisiana;
Little Rock, Arkansas - March 18 and the New Frontier Venus Room , Las Vegas May 6
-1 CD of insightful outtakes that offer a fly-on-the-wall experience of an Elvis recording session
- 1 CD of revealing and rare spoken word recordings including THE TRUTH ABOUT ME plus outtakes, the complete TV GUIDE PRESENTS ELVIS and Colonel Tom Parker interviews; the complete WARWICK HOTEL interview; the extremely rare Elvis RCA Victrola advertisements.

Incredible 80-Page color 12 x 12 book with 12-month day-by-day chronology, rare photos and memorabilia; including original RCA and Elvis Presley Enterprises artifacts and documents.

Also included is a unique memorabilia envelope containing original size replicas of; RCA's first ever poster for Elvis YOUNG MAN WITH THE BIG BEAT; Mosque Theater Poster, Venus Room Flyer for The New Frontier Hotel Appearance 1956; Original RCA Order Form for Heartbreak Hotel ; unique Colonel Parker letter and Cotton Bowl Ticket Stub

Plus 5 8 x10 photos suitable for framing!
Elvis Presley - Young Man With The Big Beat. The Complete '56 Elvis Presley Masters (2011) [55th Anniversary 5CD BoxSet] {RCA}

In 1996, RCA released Elvis 56, a single-disc compilation of 21 masters and one alternate take Presley recorded during 1956, the year he became a phenomenon. Fifteen years later, RCA/Legacy bested that set with Young Man with the Beat: The Complete ’56 Elvis Presley Masters, a deluxe five-disc box encompassing two discs of studio recordings, a disc of live recordings, a disc of outtakes, and a disc of interviews. Arriving just a few years after quintuple-disc box The King of Rock & Roll: The Complete ‘50s Masters, the 1996 disc almost seemed unnecessary, as it covered the same ground only not as thoroughly, and Young Man with the Big Beat doesn’t quite escape that criticism, either, as it appears just a year after the gargantuan Complete Elvis Presley Masters box, but the intent of the two boxes is wildly different. Where the 30-disc Complete Elvis Presley Masters boxed up his entire career, Young Man with the Big Beat puts a pivotal year under a microscope, examining it from every angle, and adds a gorgeous hardcover book and memorabilia replicas, in addition to the five discs of music. Music-wise, there is not too much new: only an unearthed performance at the Hirsch Youth Center in Shreveport, Louisiana from December, added to the end of the live disc which contains the least-heard music here.

Elvis Presley - Young Man With The Big Beat. The Complete '56 Elvis Presley Masters (2011) [55th Anniversary 5CD BoxSet] {RCA}


All the live cuts are of marginal audio quality – they come from rough sources and there’s only so much cleaning to be done – but there is electricity to the performances, including the cuts from the New Frontier Hotel in Vegas, and that kineticism is palpable throughout the set, including the disc of outtakes that all have been circulated before, whether on the King of Rock & Roll box or various hardcore, fan-targeted Follow That Dream compilations. Surprises aren’t really in store here, but delving so deeply into one area does reveal a few connective threads and mild revelations – Elvis’ taste for corn was surfacing this early on, and by the end of the year, the wild hepcat of Sun already was somewhat tamed, showing a flair for cool-handed crooning – and by offering so much pure rock & roll in one concentrated yet exhaustive setting, the set does manage to re-create a portion of the wild excitement Elvis sparked in 1956. So, Young Man with the Beat winds up existing in that netherworld between a hefty historical document and nostalgic time machine; it’s appealing on both fronts, but in order to find it rewarding, you need to already have some strong degree of devotion either to the King or to the year of his coronation.

tracklist:
DISC 1: DISC 1: THE ORIGINAL MASTERS

01. Blue Suede Shoes
02. I'm Counting on You
03. I Got a Woman
04. One-Sided Love Affair
05. I Love You Because
06. Just Because
07. Tutti Frutti
08. Trying to Get to You
09. I'm Gonna Sit Right Down and Cry (Over You)
10. I'll Never Let You Go (Little Darlin')
11. Blue Moon
12. Money Honey
13. Heartbreak Hotel
14. I Was the One
15. My Baby Left Me
16. Miss Clawdy Lawdy
17. Rattle & Roll Shake

DISC 2: THE ORIGINAL MASTERS
01. Rip It Up
02. Love Me
03. When My Blue Moon Turns to Gold Again
04. Long Tall Sally
05. First in Line
06. Paralyzed
07. So Glad You're Mine
08. Old Shep
09. Ready Teddy
10. Anyplace Is Paradise
11. How's the World Treating You
12. How Do You Think I Feel
13. I Need You, I Love You I Want You
14. Hound Dog
15. Don't Be Cruel
16. Any Way You Want Me (That's How I Will Be)
17. Too Much
18. Playing for Keeps
19. Love Me Tender
20. Let Me
21. Poor Boy
22. We're Gonna Move

DISC 3: THE LIVE PERFORMANCES:
01. Heartbreak Hotel [Live at the Venus Room]
02. Long Tall Sally [Live at the Venus Room]
03. Blue Suede Shoes [Live at the Venus Room]
04. Money Honey [Live at the Venus Room]
05. Heartbreak Hotel [Live at the Robinson Memorial Auditorium]
06. Long Tall Sallyl [Live at the Robinson Memorial Auditorium]
07. I Was the Onel [Live at the Robinson Memorial Auditorium]
08. Money Honeyl [Live at the Robinson Memorial Auditorium]
09. I Got a Womanl [Live at the Robinson Memorial Auditorium]
10. Blue Suede Shoesl [Live at the Robinson Memorial Auditorium]
11. Hound Dogl [Live at the Robinson Memorial Auditorium]
12. Heartbreak Hotell [Live at the Robinson Memorial Auditorium]
13. Long Tall Sallyl [Live at the Robinson Memorial Auditorium]
14. I Was the Onel [Live at the Robinson Memorial Auditorium]
15. Love Me Tenderl [Live at the Robinson Memorial Auditorium]
16. Don't Be Cruel [Live at the Robinson Memorial Auditorium
17. Love Me [Live tt the Hirsch Youth Center]
18. I Got a Woman [Live At the Hirsch Youth Center]
19. When My Blue Moon Turns to Gold Again [Live At the Hirsch Youth Center]
20. Paralyzed [Live At the Hirsch Youth Center]
21. Hound Dog [Live At the Hirsch Youth Center]

DISC 4: THE OUTTAKES:
01. I Got a Woman [Unknown Take] - (take)
02. Heartbreak Hotel [Take 6] - (take)
03. I'm Counting on You [Take 13] - (take)
04. I Was the One [Take 2] - (take)
05. Miss Clawdy [Take 1] - (take) Lawdy
06. Miss Clawdy [Take 3] - (take) Lawdy
07. Miss Clawdy [Take 4] - (take) Lawdy
08. Miss Clawdy [Take 5] - (take) Lawdy
09. Miss Clawdy [Take 6] - (take) Lawdy
10. Miss Clawdy [Takes 7-9] - (take) Lawdy
11. Miss Clawdy [Take 10 Master] - (take) Lawdy
12. Miss Clawdy [Takes 11-12] - (take) Lawdy
13. Rattle & Roll [Takes 1-2] - (take) Shake
14. Rattle & Roll [Takes 3, 5-7] - (take) Shake
15. Rattle & Roll [Take 8] - (take) Shake
16. Rattle & Roll [Takes 9-11, 12 Undubbed Master] - (take) Shake
17. The - (take) Complete Warwick Hotel Interview

DISC 5: THE INTERVIEWS:
01. The Complete T.V. Guide Presents Elvis" Interview
02. Colonel Parker Interview
03. The Truth About Me
04. The Truth About Me Interview
05. Victrola Radio Ad 1
06. Victrola Radio Ad 2

Exact Audio Copy V1.0 beta 2 from 29. April 2011

EAC extraction logfile from 27. September 2011, 18:02

Elvis Presley / Young Man With The Big Beat (Disc 01 - The Original Masters)

Used drive : DVDRW IDE 16X Adapter: 3 ID: 0

Read mode : Secure
Utilize accurate stream : Yes
Defeat audio cache : Yes
Make use of C2 pointers : No

Read offset correction : 12
Overread into Lead-In and Lead-Out : No
Fill up missing offset samples with silence : Yes
Delete leading and trailing silent blocks : No
Null samples used in CRC calculations : Yes
Used interface : Native Win32 interface for Win NT & 2000
Gap handling : Appended to previous track

Used output format : User Defined Encoder
Selected bitrate : 320 kBit/s
Quality : High
Add ID3 tag : No
Command line compressor : C:\Program Files (x86)\FLAC\flac.exe
Additional command line options : -8 -V -T "ARTIST=%artist%" -T "TITLE=%title%" -T "ALBUM=%albumtitle%" -T "DATE=%year%" -T "TRACKNUMBER=%tracknr%" -T "GENRE=%genre%" -T "COMMENT=EAC FLAC 1.2.1 -8" %source%


TOC of the extracted CD

Track | Start | Length | Start sector | End sector
––––––––––––––––––––––––––––-
1 | 0:00.00 | 2:02.27 | 0 | 9176
2 | 2:02.27 | 2:25.11 | 9177 | 20062
3 | 4:27.38 | 2:25.63 | 20063 | 31000
4 | 6:53.26 | 2:11.28 | 31001 | 40853
5 | 9:04.54 | 2:41.08 | 40854 | 52936
6 | 11:45.62 | 2:34.51 | 52937 | 64537
7 | 14:20.38 | 1:59.13 | 64538 | 73475
8 | 16:19.51 | 2:33.29 | 73476 | 84979
9 | 18:53.05 | 2:05.00 | 84980 | 94354
10 | 20:58.05 | 2:25.48 | 94355 | 105277
11 | 23:23.53 | 2:44.01 | 105278 | 117578
12 | 26:07.54 | 2:37.15 | 117579 | 129368
13 | 28:44.69 | 2:09.47 | 129369 | 139090
14 | 30:54.41 | 2:34.06 | 139091 | 150646
15 | 33:28.47 | 2:14.60 | 150647 | 160756
16 | 35:43.32 | 2:09.36 | 160757 | 170467
17 | 37:52.68 | 2:26.40 | 170468 | 181457


Track 1

Filename E:\Elvis Presley - Young Man With The Big Beat (The Complete '56 Elvis Presley Masters (2011) [FLAC] (5-CD)\Disc 01 - The Original Masters\01 - Blue Suede Shoes.wav

Pre-gap length 0:00:02.00

Peak level 93.1 %
Extraction speed 4.8 X
Track quality 100.0 %
Test CRC 7F4150E4
Copy CRC 7F4150E4
Track not present in AccurateRip database
Copy OK

Track 2

Filename E:\Elvis Presley - Young Man With The Big Beat (The Complete '56 Elvis Presley Masters (2011) [FLAC] (5-CD)\Disc 01 - The Original Masters\02 - I'm Counting On You.wav

Pre-gap length 0:00:01.57

Peak level 100.0 %
Extraction speed 5.4 X
Track quality 100.0 %
Test CRC FA241DE3
Copy CRC FA241DE3
Track not present in AccurateRip database
Copy OK

Track 3

Filename E:\Elvis Presley - Young Man With The Big Beat (The Complete '56 Elvis Presley Masters (2011) [FLAC] (5-CD)\Disc 01 - The Original Masters\03 - I Got A Woman.wav

Pre-gap length 0:00:01.57

Peak level 93.3 %
Extraction speed 5.7 X
Track quality 100.0 %
Test CRC 88C3F256
Copy CRC 88C3F256
Track not present in AccurateRip database
Copy OK

Track 4

Filename E:\Elvis Presley - Young Man With The Big Beat (The Complete '56 Elvis Presley Masters (2011) [FLAC] (5-CD)\Disc 01 - The Original Masters\04 - One-Sided Love Affair.wav

Pre-gap length 0:00:01.57

Peak level 78.1 %
Extraction speed 5.8 X
Track quality 100.0 %
Test CRC 48F49C2C
Copy CRC 48F49C2C
Track not present in AccurateRip database
Copy OK

Track 5

Filename E:\Elvis Presley - Young Man With The Big Beat (The Complete '56 Elvis Presley Masters (2011) [FLAC] (5-CD)\Disc 01 - The Original Masters\05 - I Love You Because.wav

Pre-gap length 0:00:01.57

Peak level 93.9 %
Extraction speed 6.3 X
Track quality 100.0 %
Test CRC D1B65B87
Copy CRC D1B65B87
Track not present in AccurateRip database
Copy OK

Track 6

Filename E:\Elvis Presley - Young Man With The Big Beat (The Complete '56 Elvis Presley Masters (2011) [FLAC] (5-CD)\Disc 01 - The Original Masters\06 - Just Because.wav

Pre-gap length 0:00:01.56

Peak level 85.4 %
Extraction speed 1.7 X
Track quality 99.9 %
Test CRC ADB3583C
Copy CRC ADB3583C
Track not present in AccurateRip database
Copy OK

Track 7

Filename E:\Elvis Presley - Young Man With The Big Beat (The Complete '56 Elvis Presley Masters (2011) [FLAC] (5-CD)\Disc 01 - The Original Masters\07 - Tutti Frutti.wav

Pre-gap length 0:00:01.57

Peak level 100.0 %
Extraction speed 1.4 X
Track quality 99.9 %
Test CRC 41039316
Copy CRC 41039316
Track not present in AccurateRip database
Copy OK

Track 8

Filename E:\Elvis Presley - Young Man With The Big Beat (The Complete '56 Elvis Presley Masters (2011) [FLAC] (5-CD)\Disc 01 - The Original Masters\08 - Trying To Get To You.wav

Pre-gap length 0:00:01.57

Peak level 97.5 %
Extraction speed 1.7 X
Track quality 99.9 %
Test CRC A7887387
Copy CRC A7887387
Track not present in AccurateRip database
Copy OK

Track 9

Filename E:\Elvis Presley - Young Man With The Big Beat (The Complete '56 Elvis Presley Masters (2011) [FLAC] (5-CD)\Disc 01 - The Original Masters\09 - I'm Gonna Sit Right Down And Cry (Over You).wav

Pre-gap length 0:00:01.56

Peak level 99.5 %
Extraction speed 6.8 X
Track quality 100.0 %
Test CRC CFAD2613
Copy CRC CFAD2613
Track not present in AccurateRip database
Copy OK

Track 10

Filename E:\Elvis Presley - Young Man With The Big Beat (The Complete '56 Elvis Presley Masters (2011) [FLAC] (5-CD)\Disc 01 - The Original Masters\10 - I'll Never Let You Go (Little Darlin').wav

Pre-gap length 0:00:01.56

Peak level 95.2 %
Extraction speed 7.2 X
Track quality 100.0 %
Test CRC 1D22F954
Copy CRC 1D22F954
Track not present in AccurateRip database
Copy OK

Track 11

Filename E:\Elvis Presley - Young Man With The Big Beat (The Complete '56 Elvis Presley Masters (2011) [FLAC] (5-CD)\Disc 01 - The Original Masters\11 - Blue Moon.wav

Pre-gap length 0:00:01.57

Peak level 92.6 %
Extraction speed 1.8 X
Track quality 99.9 %
Test CRC 35C36004
Copy CRC 35C36004
Track not present in AccurateRip database
Copy OK

Track 12

Filename E:\Elvis Presley - Young Man With The Big Beat (The Complete '56 Elvis Presley Masters (2011) [FLAC] (5-CD)\Disc 01 - The Original Masters\12 - Money Honey.wav

Pre-gap length 0:00:01.56

Peak level 100.0 %
Extraction speed 7.7 X
Track quality 100.0 %
Test CRC 994B29A9
Copy CRC 994B29A9
Track not present in AccurateRip database
Copy OK

Track 13

Filename E:\Elvis Presley - Young Man With The Big Beat (The Complete '56 Elvis Presley Masters (2011) [FLAC] (5-CD)\Disc 01 - The Original Masters\13 - Heartbreak Hotel.wav

Pre-gap length 0:00:01.57

Peak level 100.0 %
Extraction speed 7.6 X
Track quality 100.0 %
Test CRC 5BF83905
Copy CRC 5BF83905
Track not present in AccurateRip database
Copy OK

Track 14

Filename E:\Elvis Presley - Young Man With The Big Beat (The Complete '56 Elvis Presley Masters (2011) [FLAC] (5-CD)\Disc 01 - The Original Masters\14 - I Was The One.wav

Pre-gap length 0:00:01.56

Peak level 100.0 %
Extraction speed 8.1 X
Track quality 100.0 %
Test CRC DAD606BB
Copy CRC DAD606BB
Track not present in AccurateRip database
Copy OK

Track 15

Filename E:\Elvis Presley - Young Man With The Big Beat (The Complete '56 Elvis Presley Masters (2011) [FLAC] (5-CD)\Disc 01 - The Original Masters\15 - My Baby Left Me.wav

Pre-gap length 0:00:01.57

Peak level 91.6 %
Extraction speed 1.6 X
Track quality 99.9 %
Test CRC B0E8BC0B
Copy CRC B0E8BC0B
Track not present in AccurateRip database
Copy OK

Track 16

Filename E:\Elvis Presley - Young Man With The Big Beat (The Complete '56 Elvis Presley Masters (2011) [FLAC] (5-CD)\Disc 01 - The Original Masters\16 - Lawdy, Miss Clawdy.wav

Pre-gap length 0:00:01.57

Peak level 100.0 %
Extraction speed 1.5 X
Track quality 99.9 %
Test CRC 0E7007C8
Copy CRC 0E7007C8
Track not present in AccurateRip database
Copy OK

Track 17

Filename E:\Elvis Presley - Young Man With The Big Beat (The Complete '56 Elvis Presley Masters (2011) [FLAC] (5-CD)\Disc 01 - The Original Masters\17 - Shake, Rattle And Roll.wav

Pre-gap length 0:00:01.57

Peak level 97.9 %
Extraction speed 8.3 X
Track quality 100.0 %
Test CRC B282FAD4
Copy CRC B282FAD4
Track not present in AccurateRip database
Copy OK


None of the tracks are present in the AccurateRip database

No errors occurred

End of status report

==== Log checksum A181606605616ECF451C865164F61312F61DBDAD65F52584E154981B5FCFD2AB ====

Exact Audio Copy V1.0 beta 2 from 29. April 2011

EAC extraction logfile from 27. September 2011, 18:32

Elvis Presley / Young Man With The Big Beat (Disc 02 - The Original Masters)

Used drive : DVDRW IDE 16X Adapter: 3 ID: 0

Read mode : Secure
Utilize accurate stream : Yes
Defeat audio cache : Yes
Make use of C2 pointers : No

Read offset correction : 12
Overread into Lead-In and Lead-Out : No
Fill up missing offset samples with silence : Yes
Delete leading and trailing silent blocks : No
Null samples used in CRC calculations : Yes
Used interface : Native Win32 interface for Win NT & 2000
Gap handling : Appended to previous track

Used output format : User Defined Encoder
Selected bitrate : 320 kBit/s
Quality : High
Add ID3 tag : No
Command line compressor : C:\Program Files (x86)\FLAC\flac.exe
Additional command line options : -8 -V -T "ARTIST=%artist%" -T "TITLE=%title%" -T "ALBUM=%albumtitle%" -T "DATE=%year%" -T "TRACKNUMBER=%tracknr%" -T "GENRE=%genre%" -T "COMMENT=EAC FLAC 1.2.1 -8" %source%


TOC of the extracted CD

Track | Start | Length | Start sector | End sector
––––––––––––––––––––––––––––-
1 | 0:00.00 | 1:55.06 | 0 | 8630
2 | 1:55.06 | 2:45.43 | 8631 | 21048
3 | 4:40.49 | 2:22.29 | 21049 | 31727
4 | 7:03.03 | 1:54.09 | 31728 | 40286
5 | 8:57.12 | 3:23.43 | 40287 | 55554
6 | 12:20.55 | 2:25.60 | 55555 | 66489
7 | 14:46.40 | 2:22.20 | 66490 | 77159
8 | 17:08.60 | 4:10.21 | 77160 | 95930
9 | 21:19.06 | 1:56.73 | 95931 | 104703
10 | 23:16.04 | 2:26.52 | 104704 | 115705
11 | 25:42.56 | 2:25.58 | 115706 | 126638
12 | 28:08.39 | 2:12.54 | 126639 | 136592
13 | 30:21.18 | 2:41.35 | 136593 | 148702
14 | 33:02.53 | 2:17.68 | 148703 | 159045
15 | 35:20.46 | 2:05.08 | 159046 | 168428
16 | 37:25.54 | 2:15.69 | 168429 | 178622
17 | 39:41.48 | 2:34.45 | 178623 | 190217
18 | 42:16.18 | 2:53.07 | 190218 | 203199
19 | 45:09.25 | 2:44.53 | 203200 | 215552
20 | 47:54.03 | 2:10.39 | 215553 | 225341
21 | 50:04.42 | 2:15.27 | 225342 | 235493
22 | 52:19.69 | 2:29.70 | 235494 | 246738


Track 1

Filename E:\Elvis Presley - Young Man With The Big Beat (The Complete '56 Elvis Presley Masters (2011) [FLAC] (5-CD)\Disc 02 - The Original Masters\01 - Rip It Up.wav

Pre-gap length 0:00:02.00

Peak level 100.0 %
Extraction speed 4.8 X
Track quality 100.0 %
Test CRC F47E57D8
Copy CRC F47E57D8
Track not present in AccurateRip database
Copy OK

Track 2

Filename E:\Elvis Presley - Young Man With The Big Beat (The Complete '56 Elvis Presley Masters (2011) [FLAC] (5-CD)\Disc 02 - The Original Masters\02 - Love Me.wav

Pre-gap length 0:00:01.57

Peak level 93.2 %
Extraction speed 5.5 X
Track quality 100.0 %
Test CRC E6675933
Copy CRC E6675933
Track not present in AccurateRip database
Copy OK

Track 3

Filename E:\Elvis Presley - Young Man With The Big Beat (The Complete '56 Elvis Presley Masters (2011) [FLAC] (5-CD)\Disc 02 - The Original Masters\03 - When My Blue Moon Turns To Gold Again.wav

Pre-gap length 0:00:01.57

Peak level 94.1 %
Extraction speed 1.5 X
Track quality 99.9 %
Test CRC 0CF3A39E
Copy CRC 0CF3A39E
Track not present in AccurateRip database
Copy OK

Track 4

Filename E:\Elvis Presley - Young Man With The Big Beat (The Complete '56 Elvis Presley Masters (2011) [FLAC] (5-CD)\Disc 02 - The Original Masters\04 - Long Tall Sally.wav

Pre-gap length 0:00:01.56

Peak level 86.6 %
Extraction speed 5.5 X
Track quality 100.0 %
Test CRC 4D5B721A
Copy CRC 4D5B721A
Track not present in AccurateRip database
Copy OK

Track 5

Filename E:\Elvis Presley - Young Man With The Big Beat (The Complete '56 Elvis Presley Masters (2011) [FLAC] (5-CD)\Disc 02 - The Original Masters\05 - First In Line.wav

Pre-gap length 0:00:01.57

Peak level 95.1 %
Extraction speed 6.6 X
Track quality 100.0 %
Test CRC 906693CD
Copy CRC 906693CD
Track not present in AccurateRip database
Copy OK

Track 6

Filename E:\Elvis Presley - Young Man With The Big Beat (The Complete '56 Elvis Presley Masters (2011) [FLAC] (5-CD)\Disc 02 - The Original Masters\06 - Paralyzed.wav

Pre-gap length 0:00:01.56

Peak level 100.0 %
Extraction speed 6.5 X
Track quality 100.0 %
Test CRC 4542C0DC
Copy CRC 4542C0DC
Track not present in AccurateRip database
Copy OK

Track 7

Filename E:\Elvis Presley - Young Man With The Big Beat (The Complete '56 Elvis Presley Masters (2011) [FLAC] (5-CD)\Disc 02 - The Original Masters\07 - So Glad You're Mine.wav

Pre-gap length 0:00:01.57

Peak level 82.2 %
Extraction speed 6.7 X
Track quality 100.0 %
Test CRC 6F3AFC66
Copy CRC 6F3AFC66
Track not present in AccurateRip database
Copy OK

Track 8

Filename E:\Elvis Presley - Young Man With The Big Beat (The Complete '56 Elvis Presley Masters (2011) [FLAC] (5-CD)\Disc 02 - The Original Masters\08 - Old Shep.wav

Pre-gap length 0:00:01.56

Peak level 99.7 %
Extraction speed 7.7 X
Track quality 100.0 %
Test CRC 38F1C431
Copy CRC 38F1C431
Track not present in AccurateRip database
Copy OK

Track 9

Filename E:\Elvis Presley - Young Man With The Big Beat (The Complete '56 Elvis Presley Masters (2011) [FLAC] (5-CD)\Disc 02 - The Original Masters\09 - Ready Teddy.wav

Pre-gap length 0:00:01.56

Peak level 88.8 %
Extraction speed 6.8 X
Track quality 100.0 %
Test CRC 98AE99FC
Copy CRC 98AE99FC
Track not present in AccurateRip database
Copy OK

Track 10

Filename E:\Elvis Presley - Young Man With The Big Beat (The Complete '56 Elvis Presley Masters (2011) [FLAC] (5-CD)\Disc 02 - The Original Masters\10 - Anyplace Is Paradise.wav

Pre-gap length 0:00:01.57

Peak level 83.9 %
Extraction speed 1.7 X
Track quality 99.9 %
Test CRC A2AFFEFC
Copy CRC A2AFFEFC
Track not present in AccurateRip database
Copy OK

Track 11

Filename E:\Elvis Presley - Young Man With The Big Beat (The Complete '56 Elvis Presley Masters (2011) [FLAC] (5-CD)\Disc 02 - The Original Masters\11 - How's The World Treating You.wav

Pre-gap length 0:00:01.57

Peak level 88.7 %
Extraction speed 1.7 X
Track quality 99.9 %
Test CRC EEC2CA6C
Copy CRC EEC2CA6C
Track not present in AccurateRip database
Copy OK

Track 12

Filename E:\Elvis Presley - Young Man With The Big Beat (The Complete '56 Elvis Presley Masters (2011) [FLAC] (5-CD)\Disc 02 - The Original Masters\12 - How Do You Think I Feel.wav

Pre-gap length 0:00:01.56

Peak level 85.4 %
Extraction speed 7.6 X
Track quality 100.0 %
Test CRC 897E9350
Copy CRC 897E9350
Track not present in AccurateRip database
Copy OK

Track 13

Filename E:\Elvis Presley - Young Man With The Big Beat (The Complete '56 Elvis Presley Masters (2011) [FLAC] (5-CD)\Disc 02 - The Original Masters\13 - I Want You, I Need You, I Love You.wav

Pre-gap length 0:00:01.57

Peak level 80.6 %
Extraction speed 8.0 X
Track quality 100.0 %
Test CRC B7225439
Copy CRC B7225439
Track not present in AccurateRip database
Copy OK

Track 14

Filename E:\Elvis Presley - Young Man With The Big Beat (The Complete '56 Elvis Presley Masters (2011) [FLAC] (5-CD)\Disc 02 - The Original Masters\14 - Hound Dog.wav

Pre-gap length 0:00:01.57

Peak level 73.2 %
Extraction speed 8.0 X
Track quality 100.0 %
Test CRC 5376FE9C
Copy CRC 5376FE9C
Track not present in AccurateRip database
Copy OK

Track 15

Filename E:\Elvis Presley - Young Man With The Big Beat (The Complete '56 Elvis Presley Masters (2011) [FLAC] (5-CD)\Disc 02 - The Original Masters\15 - Don't Be Cruel.wav

Pre-gap length 0:00:01.56

Peak level 76.2 %
Extraction speed 8.0 X
Track quality 100.0 %
Test CRC 42648EA8
Copy CRC 42648EA8
Track not present in AccurateRip database
Copy OK

Track 16

Filename E:\Elvis Presley - Young Man With The Big Beat (The Complete '56 Elvis Presley Masters (2011) [FLAC] (5-CD)\Disc 02 - The Original Masters\16 - Any Way You Want Me (That's How I Will Be).wav

Pre-gap length 0:00:01.56

Peak level 65.4 %
Extraction speed 8.3 X
Track quality 100.0 %
Test CRC F64C8239
Copy CRC F64C8239
Track not present in AccurateRip database
Copy OK

Track 17

Filename E:\Elvis Presley - Young Man With The Big Beat (The Complete '56 Elvis Presley Masters (2011) [FLAC] (5-CD)\Disc 02 - The Original Masters\17 - Too Much.wav

Pre-gap length 0:00:01.56

Peak level 96.4 %
Extraction speed 8.6 X
Track quality 100.0 %
Test CRC BFD32335
Copy CRC BFD32335
Track not present in AccurateRip database
Copy OK

Track 18

Filename E:\Elvis Presley - Young Man With The Big Beat (The Complete '56 Elvis Presley Masters (2011) [FLAC] (5-CD)\Disc 02 - The Original Masters\18 - Playing For Keeps.wav

Pre-gap length 0:00:01.57

Peak level 91.1 %
Extraction speed 9.1 X
Track quality 100.0 %
Test CRC DFC1526E
Copy CRC DFC1526E
Track not present in AccurateRip database
Copy OK

Track 19

Filename E:\Elvis Presley - Young Man With The Big Beat (The Complete '56 Elvis Presley Masters (2011) [FLAC] (5-CD)\Disc 02 - The Original Masters\19 - Love Me Tender.wav

Pre-gap length 0:00:01.56

Peak level 89.9 %
Extraction speed 9.0 X
Track quality 100.0 %
Test CRC D017D4C3
Copy CRC D017D4C3
Track not present in AccurateRip database
Copy OK

Track 20

Filename E:\Elvis Presley - Young Man With The Big Beat (The Complete '56 Elvis Presley Masters (2011) [FLAC] (5-CD)\Disc 02 - The Original Masters\20 - Let Me.wav

Pre-gap length 0:00:01.56

Peak level 80.2 %
Extraction speed 8.8 X
Track quality 100.0 %
Test CRC 238962C0
Copy CRC 238962C0
Track not present in AccurateRip database
Copy OK

Track 21

Filename E:\Elvis Presley - Young Man With The Big Beat (The Complete '56 Elvis Presley Masters (2011) [FLAC] (5-CD)\Disc 02 - The Original Masters\21 - Poor Boy.wav

Pre-gap length 0:00:01.57

Peak level 82.7 %
Extraction speed 8.9 X
Track quality 100.0 %
Test CRC 9858C674
Copy CRC 9858C674
Track not present in AccurateRip database
Copy OK

Track 22

Filename E:\Elvis Presley - Young Man With The Big Beat (The Complete '56 Elvis Presley Masters (2011) [FLAC] (5-CD)\Disc 02 - The Original Masters\22 - We're Gonna Move.wav

Pre-gap length 0:00:01.56

Peak level 97.7 %
Extraction speed 9.1 X
Track quality 100.0 %
Test CRC EB5D5F41
Copy CRC EB5D5F41
Track not present in AccurateRip database
Copy OK


None of the tracks are present in the AccurateRip database

No errors occurred

End of status report

==== Log checksum C1951C1CD7E0B1520F9B06D3DEBBCC6D34E975A18337992C1F5807500E5BD446 ====

Exact Audio Copy V1.0 beta 2 from 29. April 2011

EAC extraction logfile from 27. September 2011, 19:37

Elvis Presley / Young Man With The Big Beat (Disc 03 - The Live Performances)

Used drive : DVDRW IDE 16X Adapter: 3 ID: 0

Read mode : Secure
Utilize accurate stream : Yes
Defeat audio cache : Yes
Make use of C2 pointers : No

Read offset correction : 12
Overread into Lead-In and Lead-Out : No
Fill up missing offset samples with silence : Yes
Delete leading and trailing silent blocks : No
Null samples used in CRC calculations : Yes
Used interface : Native Win32 interface for Win NT & 2000
Gap handling : Appended to previous track

Used output format : User Defined Encoder
Selected bitrate : 320 kBit/s
Quality : High
Add ID3 tag : No
Command line compressor : C:\Program Files (x86)\FLAC\flac.exe
Additional command line options : -8 -V -T "ARTIST=%artist%" -T "TITLE=%title%" -T "ALBUM=%albumtitle%" -T "DATE=%year%" -T "TRACKNUMBER=%tracknr%" -T "GENRE=%genre%" -T "COMMENT=EAC FLAC 1.2.1 -8" %source%


TOC of the extracted CD

Track | Start | Length | Start sector | End sector
––––––––––––––––––––––––––––-
1 | 0:00.00 | 3:01.61 | 0 | 13635
2 | 3:01.61 | 2:07.17 | 13636 | 23177
3 | 5:09.03 | 5:16.45 | 23178 | 46922
4 | 10:25.48 | 3:00.01 | 46923 | 60423
5 | 13:25.49 | 2:34.05 | 60424 | 71978
6 | 15:59.54 | 2:09.10 | 71979 | 81663
7 | 18:08.64 | 3:13.69 | 81664 | 96207
8 | 21:22.58 | 2:20.48 | 96208 | 106755
9 | 23:43.31 | 3:30.12 | 106756 | 122517
10 | 27:13.43 | 3:59.02 | 122518 | 140444
11 | 31:12.45 | 2:47.69 | 140445 | 153038
12 | 34:00.39 | 1:46.65 | 153039 | 161053
13 | 35:47.29 | 2:38.18 | 161054 | 172921
14 | 38:25.47 | 3:08.57 | 172922 | 187078
15 | 41:34.29 | 3:29.37 | 187079 | 202790
16 | 45:03.66 | 2:57.61 | 202791 | 216126
17 | 48:01.52 | 3:36.44 | 216127 | 232370
18 | 51:38.21 | 3:21.14 | 232371 | 247459
19 | 54:59.35 | 2:48.01 | 247460 | 260060
20 | 57:47.36 | 2:57.15 | 260061 | 273350
21 | 60:44.51 | 4:30.39 | 273351 | 293639


Track 1

Filename E:\Elvis Presley - Young Man With The Big Beat (The Complete '56 Elvis Presley Masters (2011) [FLAC] (5-CD)\Disc 03 - The Live Performances\01 - Heartbreak Hotel (05-06-56).wav

Pre-gap length 0:00:02.00

Peak level 100.0 %
Extraction speed 5.3 X
Track quality 100.0 %
Test CRC A5D3632A
Copy CRC A5D3632A
Track not present in AccurateRip database
Copy OK

Track 2

Filename E:\Elvis Presley - Young Man With The Big Beat (The Complete '56 Elvis Presley Masters (2011) [FLAC] (5-CD)\Disc 03 - The Live Performances\02 - Long Tall Sally (05-06-56).wav

Peak level 100.0 %
Extraction speed 5.3 X
Track quality 100.0 %
Test CRC B33CC685
Copy CRC B33CC685
Track not present in AccurateRip database
Copy OK

Track 3

Filename E:\Elvis Presley - Young Man With The Big Beat (The Complete '56 Elvis Presley Masters (2011) [FLAC] (5-CD)\Disc 03 - The Live Performances\03 - Blue Suede Shoes (05-06-56).wav

Peak level 100.0 %
Extraction speed 6.6 X
Track quality 100.0 %
Test CRC D7E7C37C
Copy CRC D7E7C37C
Track not present in AccurateRip database
Copy OK

Track 4

Filename E:\Elvis Presley - Young Man With The Big Beat (The Complete '56 Elvis Presley Masters (2011) [FLAC] (5-CD)\Disc 03 - The Live Performances\04 - Money Honey (05-06-56).wav

Peak level 100.0 %
Extraction speed 6.5 X
Track quality 100.0 %
Test CRC 0CCDFC39
Copy CRC 0CCDFC39
Track not present in AccurateRip database
Copy OK

Track 5

Filename E:\Elvis Presley - Young Man With The Big Beat (The Complete '56 Elvis Presley Masters (2011) [FLAC] (5-CD)\Disc 03 - The Live Performances\05 - Heartbreak Hotel (05-16-56).wav

Pre-gap length 0:00:01.57

Peak level 100.0 %
Extraction speed 6.5 X
Track quality 100.0 %
Test CRC FDE17757
Copy CRC FDE17757
Track not present in AccurateRip database
Copy OK

Track 6

Filename E:\Elvis Presley - Young Man With The Big Beat (The Complete '56 Elvis Presley Masters (2011) [FLAC] (5-CD)\Disc 03 - The Live Performances\06 - Long Tall Sally (05-16-56).wav

Peak level 100.0 %
Extraction speed 1.5 X
Track quality 99.9 %
Test CRC 30865A33
Copy CRC 30865A33
Track not present in AccurateRip database
Copy OK

Track 7

Filename E:\Elvis Presley - Young Man With The Big Beat (The Complete '56 Elvis Presley Masters (2011) [FLAC] (5-CD)\Disc 03 - The Live Performances\07 - I Was The One (05-16-56).wav

Peak level 94.0 %
Extraction speed 7.4 X
Track quality 100.0 %
Test CRC 5D70A5D7
Copy CRC 5D70A5D7
Track not present in AccurateRip database
Copy OK

Track 8

Filename E:\Elvis Presley - Young Man With The Big Beat (The Complete '56 Elvis Presley Masters (2011) [FLAC] (5-CD)\Disc 03 - The Live Performances\08 - Money Honey (05-16-56).wav

Peak level 85.8 %
Extraction speed 7.1 X
Track quality 100.0 %
Test CRC ABAE466C
Copy CRC ABAE466C
Track not present in AccurateRip database
Copy OK

Track 9

Filename E:\Elvis Presley - Young Man With The Big Beat (The Complete '56 Elvis Presley Masters (2011) [FLAC] (5-CD)\Disc 03 - The Live Performances\09 - I Got A Woman (05-16-56).wav

Peak level 79.3 %
Extraction speed 2.2 X
Track quality 99.9 %
Test CRC 24A6B2EA
Copy CRC 24A6B2EA
Track not present in AccurateRip database
Copy OK

Track 10

Filename E:\Elvis Presley - Young Man With The Big Beat (The Complete '56 Elvis Presley Masters (2011) [FLAC] (5-CD)\Disc 03 - The Live Performances\10 - Blue Suede Shoes (05-16-56).wav

Peak level 64.1 %
Extraction speed 2.5 X
Track quality 99.9 %
Test CRC 58416733
Copy CRC 58416733
Track not present in AccurateRip database
Copy OK

Track 11

Filename E:\Elvis Presley - Young Man With The Big Beat (The Complete '56 Elvis Presley Masters (2011) [FLAC] (5-CD)\Disc 03 - The Live Performances\11 - Hound Dog (05-16-56).wav

Peak level 60.6 %
Extraction speed 8.2 X
Track quality 100.0 %
Test CRC 0EBBA623
Copy CRC 0EBBA623
Track not present in AccurateRip database
Copy OK

Track 12

Filename E:\Elvis Presley - Young Man With The Big Beat (The Complete '56 Elvis Presley Masters (2011) [FLAC] (5-CD)\Disc 03 - The Live Performances\12 - Heartbreak Hotel (12-15-56).wav

Pre-gap length 0:00:02.58

Peak level 74.2 %
Extraction speed 1.3 X
Track quality 99.9 %
Test CRC EF2F2EDF
Copy CRC EF2F2EDF
Track not present in AccurateRip database
Copy OK

Track 13

Filename E:\Elvis Presley - Young Man With The Big Beat (The Complete '56 Elvis Presley Masters (2011) [FLAC] (5-CD)\Disc 03 - The Live Performances\13 - Long Tall Sally (12-15-56).wav

Peak level 96.4 %
Extraction speed 8.4 X
Track quality 100.0 %
Test CRC F9CC933D
Copy CRC F9CC933D
Track not present in AccurateRip database
Copy OK

Track 14

Filename E:\Elvis Presley - Young Man With The Big Beat (The Complete '56 Elvis Presley Masters (2011) [FLAC] (5-CD)\Disc 03 - The Live Performances\14 - I Was The One (12-15-56).wav

Peak level 97.6 %
Extraction speed 8.9 X
Track quality 100.0 %
Test CRC 0DBDB0BC
Copy CRC 0DBDB0BC
Track not present in AccurateRip database
Copy OK

Track 15

Filename E:\Elvis Presley - Young Man With The Big Beat (The Complete '56 Elvis Presley Masters (2011) [FLAC] (5-CD)\Disc 03 - The Live Performances\15 - Love Me Tender (12-15-56).wav

Peak level 100.0 %
Extraction speed 2.3 X
Track quality 99.9 %
Test CRC 59C8075B
Copy CRC 59C8075B
Track not present in AccurateRip database
Copy OK

Track 16

Filename E:\Elvis Presley - Young Man With The Big Beat (The Complete '56 Elvis Presley Masters (2011) [FLAC] (5-CD)\Disc 03 - The Live Performances\16 - Don't Be Cruel (12-15-56).wav

Peak level 100.0 %
Extraction speed 9.2 X
Track quality 100.0 %
Test CRC 0298138A
Copy CRC 0298138A
Track not present in AccurateRip database
Copy OK

Track 17

Filename E:\Elvis Presley - Young Man With The Big Beat (The Complete '56 Elvis Presley Masters (2011) [FLAC] (5-CD)\Disc 03 - The Live Performances\17 - Love Me (12-15-56).wav

Peak level 100.0 %
Extraction speed 9.8 X
Track quality 100.0 %
Test CRC 7648F3DF
Copy CRC 7648F3DF
Track not present in AccurateRip database
Copy OK

Track 18

Filename E:\Elvis Presley - Young Man With The Big Beat (The Complete '56 Elvis Presley Masters (2011) [FLAC] (5-CD)\Disc 03 - The Live Performances\18 - I Got A Woman (12-15-56).wav

Peak level 100.0 %
Extraction speed 2.2 X
Track quality 99.9 %
Test CRC 275AF972
Copy CRC 275AF972
Track not present in AccurateRip database
Copy OK

Track 19

Filename E:\Elvis Presley - Young Man With The Big Beat (The Complete '56 Elvis Presley Masters (2011) [FLAC] (5-CD)\Disc 03 - The Live Performances\19 - When My Blue Moon Turns To Gold Again (12-15-56).wav

Peak level 100.0 %
Extraction speed 9.5 X
Track quality 100.0 %
Test CRC 20C25C65
Copy CRC 20C25C65
Track not present in AccurateRip database
Copy OK

Track 20

Filename E:\Elvis Presley - Young Man With The Big Beat (The Complete '56 Elvis Presley Masters (2011) [FLAC] (5-CD)\Disc 03 - The Live Performances\20 - Paralyzed (12-15-56).wav

Peak level 97.1 %
Extraction speed 9.8 X
Track quality 100.0 %
Test CRC 4797AC9A
Copy CRC 4797AC9A
Track not present in AccurateRip database
Copy OK

Track 21

Filename E:\Elvis Presley - Young Man With The Big Beat (The Complete '56 Elvis Presley Masters (2011) [FLAC] (5-CD)\Disc 03 - The Live Performances\21 - Hound Dog (12-15-56).wav

Peak level 100.0 %
Extraction speed 10.8 X
Track quality 100.0 %
Test CRC E6FB9CA8
Copy CRC E6FB9CA8
Track not present in AccurateRip database
Copy OK


None of the tracks are present in the AccurateRip database

No errors occurred

End of status report

==== Log checksum 725AE29FF7EAFA771C96940EB5D46FA85CF0BE13E06E9021F53A0BE3638A4079 ====

Exact Audio Copy V1.0 beta 2 from 29. April 2011

EAC extraction logfile from 27. September 2011, 21:17

Elvis Presley / Young Man With The Big Beat (Disc 04 - The Outtakes)

Used drive : DVDRW IDE 16X Adapter: 3 ID: 0

Read mode : Secure
Utilize accurate stream : Yes
Defeat audio cache : Yes
Make use of C2 pointers : No

Read offset correction : 12
Overread into Lead-In and Lead-Out : No
Fill up missing offset samples with silence : Yes
Delete leading and trailing silent blocks : No
Null samples used in CRC calculations : Yes
Used interface : Native Win32 interface for Win NT & 2000
Gap handling : Appended to previous track

Used output format : User Defined Encoder
Selected bitrate : 320 kBit/s
Quality : High
Add ID3 tag : No
Command line compressor : C:\Program Files (x86)\FLAC\flac.exe
Additional command line options : -8 -V -T "ARTIST=%artist%" -T "TITLE=%title%" -T "ALBUM=%albumtitle%" -T "DATE=%year%" -T "TRACKNUMBER=%tracknr%" -T "GENRE=%genre%" -T "COMMENT=EAC FLAC 1.2.1 -8" %source%


TOC of the extracted CD

Track | Start | Length | Start sector | End sector
––––––––––––––––––––––––––––-
1 | 0:00.00 | 2:27.17 | 0 | 11041
2 | 2:27.17 | 2:17.14 | 11042 | 21330
3 | 4:44.31 | 2:31.68 | 21331 | 32723
4 | 7:16.24 | 2:32.52 | 32724 | 44175
5 | 9:49.01 | 2:41.11 | 44176 | 56261
6 | 12:30.12 | 2:21.52 | 56262 | 66888
7 | 14:51.64 | 2:17.50 | 66889 | 77213
8 | 17:09.39 | 2:20.27 | 77214 | 87740
9 | 19:29.66 | 2:19.37 | 87741 | 98202
10 | 21:49.28 | 5:06.21 | 98203 | 121173
11 | 26:55.49 | 2:28.53 | 121174 | 132326
12 | 29:24.27 | 2:33.61 | 132327 | 143862
13 | 31:58.13 | 3:12.72 | 143863 | 158334
14 | 35:11.10 | 4:19.08 | 158335 | 177767
15 | 39:30.18 | 2:36.41 | 177768 | 189508
16 | 42:06.59 | 5:08.19 | 189509 | 212627
17 | 47:15.03 | 30:22.70 | 212628 | 349347


Track 1

Filename E:\Elvis Presley - Young Man With The Big Beat (The Complete '56 Elvis Presley Masters (2011) [FLAC] (5-CD)\Disc 04 - The Outtakes\01 - I Got A Woman - Take Unknown.wav

Pre-gap length 0:00:02.00

Peak level 87.2 %
Extraction speed 5.1 X
Track quality 100.0 %
Test CRC 8645AE61
Copy CRC 8645AE61
Track not present in AccurateRip database
Copy OK

Track 2

Filename E:\Elvis Presley - Young Man With The Big Beat (The Complete '56 Elvis Presley Masters (2011) [FLAC] (5-CD)\Disc 04 - The Outtakes\02 - Heartbreak Hotel - Take 06.wav

Pre-gap length 0:00:01.56

Peak level 100.0 %
Extraction speed 5.4 X
Track quality 100.0 %
Test CRC D15D8C28
Copy CRC D15D8C28
Track not present in AccurateRip database
Copy OK

Track 3

Filename E:\Elvis Presley - Young Man With The Big Beat (The Complete '56 Elvis Presley Masters (2011) [FLAC] (5-CD)\Disc 04 - The Outtakes\03 - I'm Counting On You - Take 13.wav

Pre-gap length 0:00:01.56

Peak level 72.8 %
Extraction speed 5.8 X
Track quality 100.0 %
Test CRC A21C014F
Copy CRC A21C014F
Track not present in AccurateRip database
Copy OK

Track 4

Filename E:\Elvis Presley - Young Man With The Big Beat (The Complete '56 Elvis Presley Masters (2011) [FLAC] (5-CD)\Disc 04 - The Outtakes\04 - I Was The One - Take 02.wav

Pre-gap length 0:00:01.56

Peak level 95.7 %
Extraction speed 1.6 X
Track quality 99.9 %
Test CRC 55ED80C3
Copy CRC 55ED80C3
Track not present in AccurateRip database
Copy OK

Track 5

Filename E:\Elvis Presley - Young Man With The Big Beat (The Complete '56 Elvis Presley Masters (2011) [FLAC] (5-CD)\Disc 04 - The Outtakes\05 - Lawdy, Miss Clawdy - Take 01.wav

Pre-gap length 0:00:01.56

Peak level 68.8 %
Extraction speed 6.3 X
Track quality 100.0 %
Test CRC FEEF6CEA
Copy CRC FEEF6CEA
Track not present in AccurateRip database
Copy OK

Track 6

Filename E:\Elvis Presley - Young Man With The Big Beat (The Complete '56 Elvis Presley Masters (2011) [FLAC] (5-CD)\Disc 04 - The Outtakes\06 - Lawdy, Miss Clawdy - Take 03.wav

Peak level 75.4 %
Extraction speed 6.4 X
Track quality 100.0 %
Test CRC 0357DF8B
Copy CRC 0357DF8B
Track not present in AccurateRip database
Copy OK

Track 7

Filename E:\Elvis Presley - Young Man With The Big Beat (The Complete '56 Elvis Presley Masters (2011) [FLAC] (5-CD)\Disc 04 - The Outtakes\07 - Lawdy, Miss Clawdy - Take 04.wav

Peak level 68.0 %
Extraction speed 6.6 X
Track quality 100.0 %
Test CRC F2C213B2
Copy CRC F2C213B2
Track not present in AccurateRip database
Copy OK

Track 8

Filename E:\Elvis Presley - Young Man With The Big Beat (The Complete '56 Elvis Presley Masters (2011) [FLAC] (5-CD)\Disc 04 - The Outtakes\08 - Lawdy, Miss Clawdy - Take 05.wav

Peak level 67.0 %
Extraction speed 6.7 X
Track quality 100.0 %
Test CRC A1608C70
Copy CRC A1608C70
Track not present in AccurateRip database
Copy OK

Track 9

Filename E:\Elvis Presley - Young Man With The Big Beat (The Complete '56 Elvis Presley Masters (2011) [FLAC] (5-CD)\Disc 04 - The Outtakes\09 - Lawdy, Miss Clawdy - Take 06.wav

Peak level 69.2 %
Extraction speed 7.1 X
Track quality 100.0 %
Test CRC CC5CEA81
Copy CRC CC5CEA81
Track not present in AccurateRip database
Copy OK

Track 10

Filename E:\Elvis Presley - Young Man With The Big Beat (The Complete '56 Elvis Presley Masters (2011) [FLAC] (5-CD)\Disc 04 - The Outtakes\10 - Lawdy, Miss Clawdy - Takes 07, 08, 09.wav

Peak level 72.5 %
Extraction speed 8.3 X
Track quality 100.0 %
Test CRC 229BC3A3
Copy CRC 229BC3A3
Track not present in AccurateRip database
Copy OK

Track 11

Filename E:\Elvis Presley - Young Man With The Big Beat (The Complete '56 Elvis Presley Masters (2011) [FLAC] (5-CD)\Disc 04 - The Outtakes\11 - Lawdy, Miss Clawdy - Take 10 (Master).wav

Peak level 69.4 %
Extraction speed 1.7 X
Track quality 99.9 %
Test CRC 4A64E16D
Copy CRC 4A64E16D
Track not present in AccurateRip database
Copy OK

Track 12

Filename E:\Elvis Presley - Young Man With The Big Beat (The Complete '56 Elvis Presley Masters (2011) [FLAC] (5-CD)\Disc 04 - The Outtakes\12 - Lawdy, Miss Clawdy - Takes 11, 12.wav

Peak level 68.6 %
Extraction speed 7.9 X
Track quality 100.0 %
Test CRC CD422840
Copy CRC CD422840
Track not present in AccurateRip database
Copy OK

Track 13

Filename E:\Elvis Presley - Young Man With The Big Beat (The Complete '56 Elvis Presley Masters (2011) [FLAC] (5-CD)\Disc 04 - The Outtakes\13 - Shake, Rattle And Roll - Takes 01, 02.wav

Peak level 66.3 %
Extraction speed 8.5 X
Track quality 100.0 %
Test CRC C9E18023
Copy CRC C9E18023
Track not present in AccurateRip database
Copy OK

Track 14

Filename E:\Elvis Presley - Young Man With The Big Beat (The Complete '56 Elvis Presley Masters (2011) [FLAC] (5-CD)\Disc 04 - The Outtakes\14 - Shake, Rattle And Roll - Takes 03, 05, 06, 07.wav

Peak level 67.5 %
Extraction speed 9.2 X
Track quality 100.0 %
Test CRC 01F9D50B
Copy CRC 01F9D50B
Track not present in AccurateRip database
Copy OK

Track 15

Filename E:\Elvis Presley - Young Man With The Big Beat (The Complete '56 Elvis Presley Masters (2011) [FLAC] (5-CD)\Disc 04 - The Outtakes\15 - Shake, Rattle And Roll - Take 08.wav

Peak level 66.3 %
Extraction speed 8.7 X
Track quality 100.0 %
Test CRC 28B59098
Copy CRC 28B59098
Track not present in AccurateRip database
Copy OK

Track 16

Filename E:\Elvis Presley - Young Man With The Big Beat (The Complete '56 Elvis Presley Masters (2011) [FLAC] (5-CD)\Disc 04 - The Outtakes\16 - Shake, Rattle And Roll - Takes 09, 10, 11, 12, 12 (Undubbed Master).wav

Peak level 66.0 %
Extraction speed 9.8 X
Track quality 100.0 %
Test CRC A17A691E
Copy CRC A17A691E
Track not present in AccurateRip database
Copy OK

Track 17

Filename E:\Elvis Presley - Young Man With The Big Beat (The Complete '56 Elvis Presley Masters (2011) [FLAC] (5-CD)\Disc 04 - The Outtakes\17 - The Complete Warwick Hotel Interview (Robert Brown).wav

Pre-gap length 0:00:02.57

Peak level 100.0 %
Extraction speed 11.6 X
Track quality 100.0 %
Test CRC F529649D
Copy CRC F529649D
Track not present in AccurateRip database
Copy OK


None of the tracks are present in the AccurateRip database

No errors occurred

End of status report

==== Log checksum 5A5D5C526205C99874F1B6F280FED6B08715ECF7A1457EB0938FAE1A2D0F0AA7 ====

Exact Audio Copy V1.0 beta 2 from 29. April 2011

EAC extraction logfile from 27. September 2011, 22:15

Elvis Presley / Young Man With The Big Beat (Disc 05 - The Interviews)

Used drive : DVDRW IDE 16X Adapter: 3 ID: 0

Read mode : Secure
Utilize accurate stream : Yes
Defeat audio cache : Yes
Make use of C2 pointers : No

Read offset correction : 12
Overread into Lead-In and Lead-Out : No
Fill up missing offset samples with silence : Yes
Delete leading and trailing silent blocks : No
Null samples used in CRC calculations : Yes
Used interface : Native Win32 interface for Win NT & 2000
Gap handling : Appended to previous track

Used output format : User Defined Encoder
Selected bitrate : 320 kBit/s
Quality : High
Add ID3 tag : No
Command line compressor : C:\Program Files (x86)\FLAC\flac.exe
Additional command line options : -8 -V -T "ARTIST=%artist%" -T "TITLE=%title%" -T "ALBUM=%albumtitle%" -T "DATE=%year%" -T "TRACKNUMBER=%tracknr%" -T "GENRE=%genre%" -T "COMMENT=EAC FLAC 1.2.1 -8" %source%


TOC of the extracted CD

Track | Start | Length | Start sector | End sector
––––––––––––––––––––––––––––-
1 | 0:00.00 | 27:27.41 | 0 | 123565
2 | 27:27.41 | 22:35.20 | 123566 | 225210
3 | 50:02.61 | 2:10.41 | 225211 | 235001
4 | 52:13.27 | 10:03.44 | 235002 | 280270
5 | 62:16.71 | 0:54.29 | 280271 | 284349
6 | 63:11.25 | 0:50.43 | 284350 | 288142


Track 1

Filename E:\Elvis Presley - Young Man With The Big Beat (The Complete '56 Elvis Presley Masters (2011) [FLAC] (5-CD)\Disc 05 - The Interviews\01 - The Complete 'T.V. Guide Presents Elvis' Interview (Paul Wilder).wav

Pre-gap length 0:00:02.00

Peak level 100.0 %
Extraction speed 7.8 X
Track quality 100.0 %
Test CRC CC9E717D
Copy CRC CC9E717D
Track not present in AccurateRip database
Copy OK

Track 2

Filename E:\Elvis Presley - Young Man With The Big Beat (The Complete '56 Elvis Presley Masters (2011) [FLAC] (5-CD)\Disc 05 - The Interviews\02 - Colonel Parker Interview (Paul Wilder).wav

Pre-gap length 0:00:02.60

Peak level 100.0 %
Extraction speed 10.2 X
Track quality 100.0 %
Test CRC A5A69991
Copy CRC A5A69991
Track not present in AccurateRip database
Copy OK

Track 3

Filename E:\Elvis Presley - Young Man With The Big Beat (The Complete '56 Elvis Presley Masters (2011) [FLAC] (5-CD)\Disc 05 - The Interviews\03 - 'The Truth About Me' (Original 'Teen Parade' 45 rpm Disc).wav

Pre-gap length 0:00:02.57

Peak level 76.6 %
Extraction speed 9.0 X
Track quality 100.0 %
Test CRC E88CAB68
Copy CRC E88CAB68
Track not present in AccurateRip database
Copy OK

Track 4

Filename E:\Elvis Presley - Young Man With The Big Beat (The Complete '56 Elvis Presley Masters (2011) [FLAC] (5-CD)\Disc 05 - The Interviews\04 - 'The Truth About Me' Interview.wav

Pre-gap length 0:00:01.56

Peak level 74.9 %
Extraction speed 3.4 X
Track quality 99.9 %
Test CRC 94975635
Copy CRC 94975635
Track not present in AccurateRip database
Copy OK

Track 5

Filename E:\Elvis Presley - Young Man With The Big Beat (The Complete '56 Elvis Presley Masters (2011) [FLAC] (5-CD)\Disc 05 - The Interviews\05 - Victrola Radio Ad 1.wav

Pre-gap length 0:00:02.57

Peak level 75.2 %
Extraction speed 0.6 X
Track quality 99.8 %
Test CRC 66D826E1
Copy CRC 66D826E1
Track not present in AccurateRip database
Copy OK

Track 6

Filename E:\Elvis Presley - Young Man With The Big Beat (The Complete '56 Elvis Presley Masters (2011) [FLAC] (5-CD)\Disc 05 - The Interviews\06 - Victrola Radio Ad 2.wav

Pre-gap length 0:00:02.56

Peak level 74.4 %
Extraction speed 0.6 X
Track quality 99.7 %
Test CRC CF32FCBE
Copy CRC CF32FCBE
Track not present in AccurateRip database
Copy OK


None of the tracks are present in the AccurateRip database

No errors occurred

End of status report

==== Log checksum AC30B45D198183DD1DE0CFB35F2CD64A5E4EB2306227FE4062517CCD05B0E4AA ====


Elvis Presley - Young Man With The Big Beat. The Complete '56 Elvis Presley Masters (2011) [55th Anniversary 5CD BoxSet] {RCA}

Elvis Presley - Young Man With The Big Beat. The Complete '56 Elvis Presley Masters (2011) [55th Anniversary 5CD BoxSet] {RCA}


Some Elvis Albums:
Elvis Presley - Aloha From Hawaii Via Satellite (1973) [2CD] {2013 40th Anniversary Legacy Edition}
Elvis Presley - Elvis As Recorded At Madison Square Garden (1972) [2CD] {2012 40th Anniversary Legacy Edition}
Elvis Presley - Elvis Country (I'm 10,000 Years Old) (1971) [2CD] {2012 40th Anniversary Legacy Edition}
Elvis Presley - Elvis Is Back! (1960) [2CD] {2011 50th Anniversary Legacy Edition}



All thanks goes to the original releaser!