Brian Eno - Another Day On Earth (2005) {Opal Japan Edition BRC-128}

Posted By: ruskaval
Brian Eno - Another Day On Earth (2005) {Opal Japan Edition BRC-128}

Brian Eno - Another Day On Earth (2005) {Opal Japan Edition BRC-128}
EAC rip (secure mode) | FLAC (tracks)+CUE+LOG -> 293 Mb | MP3 @320 -> 124 Mb | Artwork | 5% repair rar
© 2005 Opal / Beat Records Japan | BRC-128
Ambient / Electronic / Avant-Garde / Experimental

Finally bored with ambient music, a genre he pioneered in the 1970s, pop polymath Brian Eno emerged with Another Day on Earth, his first solo recording of "conventional" songs since Another Green World. From the rhythm track of opening song "This," the sound is unmistakable. A quirky hook covered in layers of atmosphere and a bouncy loop, it's a smart little tune with additional guitars by Leo Abrahams. Lyrically, Eno's process is poetic, employing not only his own strategies, but a computer generating words as well. At three-and-a-half minutes, it's a fine pop song, albeit one that would never get played on the radio.
Brian Eno - Another Day On Earth (2005) {Opal Japan Edition BRC-128}

"And Then So Clear" is more evocative of Eno's work with Daniel Lanois, utilizing a very simple loop adorned with sparse guitars while keyboards pulse softly as a completely treated human voice paints a landscape both exterior and interior. "A Long Way Down," is pure mood, a tense, taut mood offered by electric piano, spectral keyboards imitating strings, and the layered guitars of Steve Jones and Abrahams. Eno multi-tracks his voice across the angular melody, and it slips and falls out more than it flows. And that's a basic problem with Another Day on Earth. Once again, despite trying to work with song forms and structures, they feel tossed off, half-baked. "Going Unconscious" isn't so much a song as an ambient soundscape with spoken word accompaniment by Inge Zalaliene. "Bone Bomb" is the same. "Under" feels like a demo rhythm track with a lyric draped loosely over it. But there are some fine moments too, such as "Passing Over" with Jones guitar cruising over the tune like a spaceship and Eno's sung lines intersecting at (mostly) just the right moments. "How Many Worlds" is almost a child's ditty full of existential questions. Another Day on Earth is a re-entry for Eno, who has the tremendous pressure of always trying to do something new. Nothing here feels new, but so what? If lightweight, it is often pleasant and amusing, if not utterly engaging. Fans will want to seek it out to see what the brainy one has been up to, but those just coming around should go to the back catalog first.

tracklist:
01 - This
02 - And Then So Clear
03 - A Long Way Down
04 - Going Unconscious
05 - Caought Between
06 - Passing Over
07 - How Many Worlds
08 - Bottomliners
09 - Just Another Day
10 - Under
11 - Bone Bomb
12 - The Demon Of The Mines (bonus track for japan)

Exact Audio Copy V1.0 beta 3 from 29. August 2011

EAC extraction logfile from 5. October 2013, 11:26

Brian Eno / Another Day On Earth

Used drive : TSSTcorpDVD+-RW TS-U633F Adapter: 1 ID: 0

Read mode : Secure
Utilize accurate stream : Yes
Defeat audio cache : Yes
Make use of C2 pointers : No

Read offset correction : 6
Overread into Lead-In and Lead-Out : No
Fill up missing offset samples with silence : Yes
Delete leading and trailing silent blocks : No
Null samples used in CRC calculations : Yes
Used interface : Installed external ASPI interface
Gap handling : Appended to previous track

Used output format : User Defined Encoder
Selected bitrate : 1024 kBit/s
Quality : High
Add ID3 tag : No
Command line compressor : C:\Program Files\Exact Audio Copy\Flac\flac.exe
Additional command line options : -8 -V -T "ARTIST=%artist%" -T "TITLE=%title%" -T "ALBUM=%albumtitle%" -T "DATE=%year%" -T "TRACKNUMBER=%tracknr%" -T "GENRE=%genre%" -T "PERFORMER=%albuminterpret%" -T "COMPOSER=%composer%" %haslyrics%–tag-from-file=LYRICS="%lyricsfile%"%haslyrics% -T "ALBUMARTIST=%albumartist%" -T "DISCNUMBER=%cdnumber%" -T "TOTALDISCS=%totalcds%" -T "TOTALTRACKS=%numtracks%" -T "COMMENT=%comment%" %source% -o %dest%


TOC of the extracted CD

Track | Start | Length | Start sector | End sector
––––––––––––––––––––––––––––-
1 | 0:00.00 | 3:33.19 | 0 | 15993
2 | 3:33.19 | 5:49.43 | 15994 | 42211
3 | 9:22.62 | 2:40.52 | 42212 | 54263
4 | 12:03.39 | 4:22.17 | 54264 | 73930
5 | 16:25.56 | 4:25.59 | 73931 | 93864
6 | 20:51.40 | 4:25.51 | 93865 | 113790
7 | 25:17.16 | 4:47.12 | 113791 | 135327
8 | 30:04.28 | 3:59.22 | 135328 | 153274
9 | 34:03.50 | 4:21.62 | 153275 | 172911
10 | 38:25.37 | 5:19.58 | 172912 | 196894
11 | 43:45.20 | 3:14.72 | 196895 | 211516
12 | 47:00.17 | 4:39.63 | 211517 | 232504


Track 1

Filename H:\flac\Brian Eno - Another Day On Earth (2005, BRC-128)\01 - This.wav

Pre-gap length 0:00:02.00

Peak level 97.7 %
Extraction speed 0.9 X
Track quality 100.0 %
Test CRC A704B155
Copy CRC A704B155
Accurately ripped (confidence 2) [4F93CB9F] (AR v2)
Copy OK

Track 2

Filename H:\flac\Brian Eno - Another Day On Earth (2005, BRC-128)\02 - And Then So Clear.wav

Pre-gap length 0:00:01.97

Peak level 96.1 %
Extraction speed 1.0 X
Track quality 99.9 %
Test CRC 0BD67D02
Copy CRC 0BD67D02
Accurately ripped (confidence 2) [78FA8857] (AR v2)
Copy OK

Track 3

Filename H:\flac\Brian Eno - Another Day On Earth (2005, BRC-128)\03 - A Long Way Down.wav

Peak level 82.5 %
Extraction speed 0.9 X
Track quality 99.9 %
Test CRC 0B918523
Copy CRC 0B918523
Accurately ripped (confidence 2) [95EE7790] (AR v2)
Copy OK

Track 4

Filename H:\flac\Brian Eno - Another Day On Earth (2005, BRC-128)\04 - Going Unconscious.wav

Pre-gap length 0:00:01.84

Peak level 94.5 %
Extraction speed 1.2 X
Track quality 100.0 %
Test CRC 79F4A1BC
Copy CRC 79F4A1BC
Accurately ripped (confidence 2) [871A8DD5] (AR v2)
Copy OK

Track 5

Filename H:\flac\Brian Eno - Another Day On Earth (2005, BRC-128)\05 - Caought Between.wav

Pre-gap length 0:00:03.25

Peak level 95.2 %
Extraction speed 1.3 X
Track quality 100.0 %
Test CRC 1C1392C0
Copy CRC 1C1392C0
Accurately ripped (confidence 2) [6FC23210] (AR v2)
Copy OK

Track 6

Filename H:\flac\Brian Eno - Another Day On Earth (2005, BRC-128)\06 - Passing Over.wav

Pre-gap length 0:00:01.12

Peak level 91.8 %
Extraction speed 1.4 X
Track quality 100.0 %
Test CRC C90C29C3
Copy CRC C90C29C3
Accurately ripped (confidence 2) [24EDE5C1] (AR v2)
Copy OK

Track 7

Filename H:\flac\Brian Eno - Another Day On Earth (2005, BRC-128)\07 - How Many Worlds.wav

Pre-gap length 0:00:01.90

Peak level 93.6 %
Extraction speed 1.3 X
Track quality 99.9 %
Test CRC 7DCBC411
Copy CRC 7DCBC411
Accurately ripped (confidence 2) [B5738A5B] (AR v2)
Copy OK

Track 8

Filename H:\flac\Brian Eno - Another Day On Earth (2005, BRC-128)\08 - Bottomliners.wav

Pre-gap length 0:00:03.16

Peak level 92.6 %
Extraction speed 1.5 X
Track quality 100.0 %
Test CRC 63085F07
Copy CRC 63085F07
Accurately ripped (confidence 2) [213B58D8] (AR v2)
Copy OK

Track 9

Filename H:\flac\Brian Eno - Another Day On Earth (2005, BRC-128)\09 - Just Another Day.wav

Pre-gap length 0:00:02.69

Peak level 94.8 %
Extraction speed 1.6 X
Track quality 100.0 %
Test CRC 4B397A90
Copy CRC 4B397A90
Accurately ripped (confidence 2) [D91D6757] (AR v2)
Copy OK

Track 10

Filename H:\flac\Brian Eno - Another Day On Earth (2005, BRC-128)\10 - Under.wav

Pre-gap length 0:00:01.80

Peak level 97.5 %
Extraction speed 1.7 X
Track quality 100.0 %
Test CRC BB00E525
Copy CRC BB00E525
Accurately ripped (confidence 2) [D4AE2C7D] (AR v2)
Copy OK

Track 11

Filename H:\flac\Brian Eno - Another Day On Earth (2005, BRC-128)\11 - Bone Bomb.wav

Pre-gap length 0:00:01.28

Peak level 91.0 %
Extraction speed 1.6 X
Track quality 100.0 %
Test CRC 77FB3540
Copy CRC 77FB3540
Accurately ripped (confidence 2) [4B6CD22A] (AR v2)
Copy OK

Track 12

Filename H:\flac\Brian Eno - Another Day On Earth (2005, BRC-128)\12 - The Demon Of The Mines.wav

Pre-gap length 0:00:05.00

Peak level 99.9 %
Extraction speed 1.5 X
Track quality 99.9 %
Test CRC 8A2AE201
Copy CRC 8A2AE201
Accurately ripped (confidence 2) [AD2852EC] (AR v2)
Copy OK


All tracks accurately ripped

No errors occurred

End of status report

==== Log checksum C1C91A665393059763BF917955661835A1CCC994DB42D42EEBD76F77CE2452CB ====


Brian Eno - Another Day On Earth (2005) {Opal Japan Edition BRC-128}

Brian Eno - Another Day On Earth (2005) {Opal Japan Edition BRC-128}


All thanks goes to the original releaser!

Fripp & Eno - No Pussyfooting (1973) [2CD] {2008 Discipline Remaster Limited Edition}
Fripp & Eno - The Equatorial Stars (2004) {Opal}
Fripp & Eno - Evening Star (1975) {2008 Opal Remaster}
Fripp & Eno - Beyond Even 1992-2006 [2CD] (2007) {Opal Limited Edition}

Brian Eno - Apollo - Atmospheres & Soundtracks (1983) {2009 Virgin DSD Remaster}
Brian Eno - Discreet Music (1975) {2009 Virgin DSD Remaster}
Brian Eno - Ambient 1 Music For Airports (1978) {2009 Virgin DSD Remaster}
Brian Eno - Taking Tiger Mountain (By Strategy) (1974) {2009 Virgin DSD Remaster}

Fripp & Eno - Live In Paris 28.05.1975 [3CD BoxSet] (2014) {Opal}

Brian Eno - Another Green World (1975) {2009 Virgin DSD Remaster}
Brian Eno - Music For Films (1978) {2009 Virgin DSD Remaster}

Robert Fripp & Brian Eno - The Essential Fripp and Eno (1994) {Virgin}
Brian Eno & Peter Schwalm + Reiko Okano - Music for Onmyo-Ji (2000) [2CD] {Victor Entertainment Japan}

Brian Eno - Before And After Science (1977) {2004 Virgin DSD Remaster}
Brian Eno & Harold Budd - Ambient 2: The Plateaux Of Mirror (1980) {2009 Virgin DSD Remaster}
Brian Eno - Ambient 4: On Land (1982) {2009 Virgin DSD Remaster}
Brian Eno - Thursday Afternoon (1985) {2009 Virgin DSD Remaster}

Cluster and Eno - Cluster and Eno (1977) {Sky Records}

Brian Eno & Harold Budd - The Pearl (1984) {2009 Virgin DSD Remaster}
Brian Eno - More Music For Films (1976-83) {2009 Virgin DSD Remaster}

Cluster & Brian Eno - Old Land (1986) {Relativity Records}
Brian Eno & Jah Wobble - Spinner (1995) {All Saints Records}

Brian Eno - Neroli (1993) {All Saints Records}
Brian Eno - Nerve Net (1992) {Opal}
Brian Eno - The Drop (1997) {All Saints Records}

Brian Eno + David Byrne - My Life In The Bush Of Ghosts (1981) {2006 Nonesuch Remaster}

Brian Eno - Neroli (1993) [2CD] {2014 All Saints Records Deluxe Expanded Edition}
Brian Eno - The Drop (1997) [2CD] {2014 All Saints Records Deluxe Expanded Edition}
Brian Eno - Nerve Net (1992) [2CD] {2014 All Saints Records Deluxe Expanded Edition}
Brian Eno - The Shutov Assembly (1992) [2CD] {2014 All Saints Records Deluxe Expanded Edition}