Subcategories

Entourage - Ceremony of Dreams: Studio Sessions & Outtakes, 1972-1977 (3CD) (2018)

Posted By: delpotro
Entourage - Ceremony of Dreams: Studio Sessions & Outtakes, 1972-1977 (3CD) (2018)

Entourage - Ceremony of Dreams: Studio Sessions & Outtakes, 1972-1977 (3CD) (2018)
XLD Rip | FLAC (tracks+log+.cue) - 682 Mb | MP3 CBR 320 kbps - 308 Mb | 02:11:21
Folk, Experimental, Electronic | Label: Tompkins Square

Sampled by Four Tet, their name whispered in reverence through the decades, Entourage forged bold musical ideas on their two rare '70s Folkways LPs. Now, collected for the first time, 30 previously unreleased tracks from their archives.
Tracklist:
Disc 1
1. Journey By Water
2. Temple Of Whales
3. Tears
4. The Shores Of God (full Version)
5. The Shores Of God (Bass & Horn)
6. The Shores Of God (Piano)
7. Necrophelia
8. Sleazy Sue (Love Duet 1 from Cleopatra)
9. Outer Tiger (Street Scene from Cleopatra)
10. Young Girls Dance (From Cleopatra)

Disc 2
1. Euphoric Bells (Alt Take)
2. Euphoric Bells (Fragment)
3. E Minor Piano
4. The Two Snails Who Went To The Funeral OF A Dead Leaf (Full)
5. Military Music 1 (From Cleopatra)
6. Neptune Rising (Alt Take)
7. Tarbox Poltergeist (Alt Take)
8. King's Birdcage (Alt Take)
9. Druid Dance (Alt Take)
10. Military Music 2 (From Cleopatra)

Disc 3
1. Millbrook (Original Version)
2. Episode II
3. Days (Early Version)
4. Caesar And Cleopatra (Love Duet 2 from Cleopatra)
5. Neptune Rising (Early Version)
6. Snails (Early Version)
7. Daleth
8. Transition
9. Soft Fist
10. Priestess

X Lossless Decoder version 20170729 (150.3)

XLD extraction logfile from 2018-06-08 15:19:03 +0100

Entourage / Ceremony Of Dreams : Studio Sessions & Outtakes, 1972-1977

Used drive : MATSHITA DVD-R UJ-8A8 (revision HA13)
Media type : Pressed CD

Ripper mode : XLD Secure Ripper
Disable audio cache : OK for the drive with a cache less than 1375KiB
Make use of C2 pointers : NO
Read offset correction : 102
Max retry count : 50
Gap status : Analyzed, Appended

TOC of the extracted CD
Track | Start | Length | Start sector | End sector
––––––––––––––––––––––––––––-
1 | 00:00:00 | 03:58:07 | 0 | 17856
2 | 03:58:07 | 03:08:61 | 17857 | 32017
3 | 07:06:68 | 01:31:02 | 32018 | 38844
4 | 08:37:70 | 06:21:70 | 38845 | 67489
5 | 14:59:65 | 02:43:05 | 67490 | 79719
6 | 17:42:70 | 02:27:60 | 79720 | 90804
7 | 20:10:55 | 05:11:20 | 90805 | 114149
8 | 25:22:00 | 04:27:63 | 114150 | 134237
9 | 29:49:63 | 08:09:14 | 134238 | 170926
10 | 37:59:02 | 07:16:43 | 170927 | 203669

AccurateRip Summary
Disc not found in AccurateRip DB.

All Tracks
Album gain : -4.17 dB
Peak : 1.000000
Statistics
Read error : 0
Jitter error (maybe fixed) : 0
Retry sector count : 0
Damaged sector count : 0

Track 01
Filename : /Users/edwardsharp/Downloads/Entourage - Ceremony Of Dreams : Studio Sessions & Outtakes, 1972-1977 (2018)/01 - Journey By Water.flac
Pre-gap length : 00:02:00

Track gain : -1.81 dB
Peak : 0.977448
CRC32 hash (test run) : 2D1E197F
CRC32 hash : 2D1E197F
CRC32 hash (skip zero) : 2C997F95
AccurateRip v1 signature : B26E381D
AccurateRip v2 signature : 3EEB9CCA
->Track not present in AccurateRip database.
Statistics
Read error : 0
Jitter error (maybe fixed) : 0
Retry sector count : 0
Damaged sector count : 0

Track 02
Filename : /Users/edwardsharp/Downloads/Entourage - Ceremony Of Dreams : Studio Sessions & Outtakes, 1972-1977 (2018)/02 - Temple Of Whales.flac

Track gain : -6.94 dB
Peak : 0.985748
CRC32 hash (test run) : 57286C8B
CRC32 hash : 57286C8B
CRC32 hash (skip zero) : 64E95292
AccurateRip v1 signature : 12981AA7
AccurateRip v2 signature : 1CFDC478
->Track not present in AccurateRip database.
Statistics
Read error : 0
Jitter error (maybe fixed) : 0
Retry sector count : 0
Damaged sector count : 0

Track 03
Filename : /Users/edwardsharp/Downloads/Entourage - Ceremony Of Dreams : Studio Sessions & Outtakes, 1972-1977 (2018)/03 - Tears.flac

Track gain : -0.28 dB
Peak : 0.829681
CRC32 hash (test run) : F57E6946
CRC32 hash : F57E6946
CRC32 hash (skip zero) : DFDCAE67
AccurateRip v1 signature : 32908C84
AccurateRip v2 signature : DDEF9724
->Track not present in AccurateRip database.
Statistics
Read error : 0
Jitter error (maybe fixed) : 0
Retry sector count : 0
Damaged sector count : 0

Track 04
Filename : /Users/edwardsharp/Downloads/Entourage - Ceremony Of Dreams : Studio Sessions & Outtakes, 1972-1977 (2018)/04 - The Shores Of God (Full Version).flac

Track gain : -4.80 dB
Peak : 0.977386
CRC32 hash (test run) : 8A11C29E
CRC32 hash : 8A11C29E
CRC32 hash (skip zero) : F15B2375
AccurateRip v1 signature : A9484B8F
AccurateRip v2 signature : AD29BD9B
->Track not present in AccurateRip database.
Statistics
Read error : 0
Jitter error (maybe fixed) : 0
Retry sector count : 0
Damaged sector count : 0

Track 05
Filename : /Users/edwardsharp/Downloads/Entourage - Ceremony Of Dreams : Studio Sessions & Outtakes, 1972-1977 (2018)/05 - The Shores Of God (Bass And Horn).flac

Track gain : -5.73 dB
Peak : 0.927124
CRC32 hash (test run) : 31E9F735
CRC32 hash : 31E9F735
CRC32 hash (skip zero) : CEF06A5F
AccurateRip v1 signature : E5C4CF7F
AccurateRip v2 signature : D4338FF3
->Track not present in AccurateRip database.
Statistics
Read error : 0
Jitter error (maybe fixed) : 0
Retry sector count : 0
Damaged sector count : 0

Track 06
Filename : /Users/edwardsharp/Downloads/Entourage - Ceremony Of Dreams : Studio Sessions & Outtakes, 1972-1977 (2018)/06 - The Shores Of God (Piano).flac

Track gain : -2.39 dB
Peak : 0.978027
CRC32 hash (test run) : 26FA1E8D
CRC32 hash : 26FA1E8D
CRC32 hash (skip zero) : 1CCB35D5
AccurateRip v1 signature : CA484477
AccurateRip v2 signature : 75857202
->Track not present in AccurateRip database.
Statistics
Read error : 0
Jitter error (maybe fixed) : 0
Retry sector count : 0
Damaged sector count : 0

Track 07
Filename : /Users/edwardsharp/Downloads/Entourage - Ceremony Of Dreams : Studio Sessions & Outtakes, 1972-1977 (2018)/07 - Necrophelia.flac

Track gain : 0.67 dB
Peak : 0.627747
CRC32 hash (test run) : 508B34C8
CRC32 hash : 508B34C8
CRC32 hash (skip zero) : 5D669DF1
AccurateRip v1 signature : 984405FE
AccurateRip v2 signature : 86833D33
->Track not present in AccurateRip database.
Statistics
Read error : 0
Jitter error (maybe fixed) : 0
Retry sector count : 0
Damaged sector count : 0

Track 08
Filename : /Users/edwardsharp/Downloads/Entourage - Ceremony Of Dreams : Studio Sessions & Outtakes, 1972-1977 (2018)/08 - Sleazy Sue (Love Duet 1 From Cleopatra).flac

Track gain : -3.69 dB
Peak : 0.978058
CRC32 hash (test run) : 11056C93
CRC32 hash : 11056C93
CRC32 hash (skip zero) : 97E9B0FA
AccurateRip v1 signature : D3AA8616
AccurateRip v2 signature : A7E3D277
->Track not present in AccurateRip database.
Statistics
Read error : 0
Jitter error (maybe fixed) : 0
Retry sector count : 0
Damaged sector count : 0

Track 09
Filename : /Users/edwardsharp/Downloads/Entourage - Ceremony Of Dreams : Studio Sessions & Outtakes, 1972-1977 (2018)/09 - Outer Tiger (Street Scene From Cleopatra).flac

Track gain : -2.24 dB
Peak : 1.000000
CRC32 hash (test run) : 57614C15
CRC32 hash : 57614C15
CRC32 hash (skip zero) : E9CBCA19
AccurateRip v1 signature : D66787FA
AccurateRip v2 signature : CE1CCF0F
->Track not present in AccurateRip database.
Statistics
Read error : 0
Jitter error (maybe fixed) : 0
Retry sector count : 0
Damaged sector count : 0

Track 10
Filename : /Users/edwardsharp/Downloads/Entourage - Ceremony Of Dreams : Studio Sessions & Outtakes, 1972-1977 (2018)/10 - Young Girls' Dance (From Cleopatra).flac

Track gain : 0.62 dB
Peak : 1.000000
CRC32 hash (test run) : 81A3843C
CRC32 hash : 81A3843C
CRC32 hash (skip zero) : A7967C2B
AccurateRip v1 signature : F2DB7E71
AccurateRip v2 signature : 97A23D86
->Track not present in AccurateRip database.
Statistics
Read error : 0
Jitter error (maybe fixed) : 0
Retry sector count : 0
Damaged sector count : 0

No errors occurred

End of status report

––-BEGIN XLD SIGNATURE––-
K6J8tJj8KZjV1WomgRt8UhXEhgyQ6ebdcfp5vo2d2ooCX7.tdlFY5IPJCleSNiPFSCNaagkZmv7f2cXdblroBqkdlP504vErzIf07LW
––-END XLD SIGNATURE––-

X Lossless Decoder version 20170729 (150.3)

XLD extraction logfile from 2018-06-08 13:30:46 +0100

Entourage / Ceremony Of Dreams : Studio Sessions & Outtakes, 1972-1977

Used drive : MATSHITA DVD-R UJ-8A8 (revision HA13)
Media type : Pressed CD

Ripper mode : XLD Secure Ripper
Disable audio cache : OK for the drive with a cache less than 1375KiB
Make use of C2 pointers : NO
Read offset correction : 102
Max retry count : 50
Gap status : Analyzed, Appended

TOC of the extracted CD
Track | Start | Length | Start sector | End sector
––––––––––––––––––––––––––––-
1 | 00:00:00 | 02:40:00 | 0 | 11999
2 | 02:40:00 | 01:28:22 | 12000 | 18621
3 | 04:08:22 | 02:50:03 | 18622 | 31374
4 | 06:58:25 | 03:54:09 | 31375 | 48933
5 | 10:52:34 | 08:59:47 | 48934 | 89405
6 | 19:52:06 | 05:34:58 | 89406 | 114513
7 | 25:26:64 | 03:42:33 | 114514 | 131196
8 | 29:09:22 | 02:50:09 | 131197 | 143955
9 | 31:59:31 | 04:09:62 | 143956 | 162692
10 | 36:09:18 | 09:13:09 | 162693 | 204176

AccurateRip Summary
Disc not found in AccurateRip DB.

All Tracks
Album gain : -3.09 dB
Peak : 0.993378
Statistics
Read error : 0
Jitter error (maybe fixed) : 0
Retry sector count : 0
Damaged sector count : 0

Track 01
Filename : /Users/edwardsharp/Downloads/Entourage - Ceremony Of Dreams : Studio Sessions & Outtakes, 1972-1977 (2018)/01 - Journey By Water.flac
Pre-gap length : 00:02:00

Track gain : -2.82 dB
Peak : 0.797791
CRC32 hash (test run) : 28EAC4AA
CRC32 hash : 28EAC4AA
CRC32 hash (skip zero) : 9AB8290D
AccurateRip v1 signature : 6DCCB292
AccurateRip v2 signature : 2C7511FD
->Track not present in AccurateRip database.
Statistics
Read error : 0
Jitter error (maybe fixed) : 0
Retry sector count : 0
Damaged sector count : 0

Track 02
Filename : /Users/edwardsharp/Downloads/Entourage - Ceremony Of Dreams : Studio Sessions & Outtakes, 1972-1977 (2018)/02 - Temple Of Whales.flac

Track gain : -2.03 dB
Peak : 0.721222
CRC32 hash (test run) : 4A210E34
CRC32 hash : 4A210E34
CRC32 hash (skip zero) : 4FA358FD
AccurateRip v1 signature : 65937933
AccurateRip v2 signature : 1D03A53E
->Track not present in AccurateRip database.
Statistics
Read error : 0
Jitter error (maybe fixed) : 0
Retry sector count : 0
Damaged sector count : 0

Track 03
Filename : /Users/edwardsharp/Downloads/Entourage - Ceremony Of Dreams : Studio Sessions & Outtakes, 1972-1977 (2018)/03 - Tears.flac

Track gain : -3.63 dB
Peak : 0.965485
CRC32 hash (test run) : D67CF426
CRC32 hash : D67CF426
CRC32 hash (skip zero) : 52F9292E
AccurateRip v1 signature : 9B9B89E0
AccurateRip v2 signature : A71C8F47
->Track not present in AccurateRip database.
Statistics
Read error : 0
Jitter error (maybe fixed) : 0
Retry sector count : 0
Damaged sector count : 0

Track 04
Filename : /Users/edwardsharp/Downloads/Entourage - Ceremony Of Dreams : Studio Sessions & Outtakes, 1972-1977 (2018)/04 - The Shores Of God (Full Version).flac

Track gain : -3.52 dB
Peak : 0.949249
CRC32 hash (test run) : 8114237B
CRC32 hash : 8114237B
CRC32 hash (skip zero) : FC061E5A
AccurateRip v1 signature : 1392CC8F
AccurateRip v2 signature : 240BDEF6
->Track not present in AccurateRip database.
Statistics
Read error : 0
Jitter error (maybe fixed) : 0
Retry sector count : 0
Damaged sector count : 0

Track 05
Filename : /Users/edwardsharp/Downloads/Entourage - Ceremony Of Dreams : Studio Sessions & Outtakes, 1972-1977 (2018)/05 - The Shores Of God (Bass And Horn).flac

Track gain : -2.59 dB
Peak : 0.979004
CRC32 hash (test run) : 65665937
CRC32 hash : 65665937
CRC32 hash (skip zero) : 6BE2A484
AccurateRip v1 signature : 7C4A41E4
AccurateRip v2 signature : 924E35E3
->Track not present in AccurateRip database.
Statistics
Read error : 0
Jitter error (maybe fixed) : 0
Retry sector count : 0
Damaged sector count : 0

Track 06
Filename : /Users/edwardsharp/Downloads/Entourage - Ceremony Of Dreams : Studio Sessions & Outtakes, 1972-1977 (2018)/06 - The Shores Of God (Piano).flac

Track gain : -0.46 dB
Peak : 0.764801
CRC32 hash (test run) : E555C903
CRC32 hash : E555C903
CRC32 hash (skip zero) : 241BA032
AccurateRip v1 signature : 73C4F90E
AccurateRip v2 signature : 775ACC8D
->Track not present in AccurateRip database.
Statistics
Read error : 0
Jitter error (maybe fixed) : 0
Retry sector count : 0
Damaged sector count : 0

Track 07
Filename : /Users/edwardsharp/Downloads/Entourage - Ceremony Of Dreams : Studio Sessions & Outtakes, 1972-1977 (2018)/07 - Necrophelia.flac

Track gain : -2.52 dB
Peak : 0.796967
CRC32 hash (test run) : C2C3EBA3
CRC32 hash : C2C3EBA3
CRC32 hash (skip zero) : E951DA83
AccurateRip v1 signature : 3A9B8EDE
AccurateRip v2 signature : 3AAF7EDE
->Track not present in AccurateRip database.
Statistics
Read error : 0
Jitter error (maybe fixed) : 0
Retry sector count : 0
Damaged sector count : 0

Track 08
Filename : /Users/edwardsharp/Downloads/Entourage - Ceremony Of Dreams : Studio Sessions & Outtakes, 1972-1977 (2018)/08 - Sleazy Sue (Love Duet 1 From Cleopatra).flac

Track gain : -3.01 dB
Peak : 0.902374
CRC32 hash (test run) : 816E0104
CRC32 hash : 816E0104
CRC32 hash (skip zero) : 136DBD18
AccurateRip v1 signature : D6C6D114
AccurateRip v2 signature : 978D2326
->Track not present in AccurateRip database.
Statistics
Read error : 0
Jitter error (maybe fixed) : 0
Retry sector count : 0
Damaged sector count : 0

Track 09
Filename : /Users/edwardsharp/Downloads/Entourage - Ceremony Of Dreams : Studio Sessions & Outtakes, 1972-1977 (2018)/09 - Outer Tiger (Street Scene From Cleopatra).flac

Track gain : -4.45 dB
Peak : 0.800690
CRC32 hash (test run) : CD64825B
CRC32 hash : CD64825B
CRC32 hash (skip zero) : CE49F5D8
AccurateRip v1 signature : 6947FC11
AccurateRip v2 signature : 5D7521B9
->Track not present in AccurateRip database.
Statistics
Read error : 0
Jitter error (maybe fixed) : 0
Retry sector count : 0
Damaged sector count : 0

Track 10
Filename : /Users/edwardsharp/Downloads/Entourage - Ceremony Of Dreams : Studio Sessions & Outtakes, 1972-1977 (2018)/10 - Young Girls' Dance (From Cleopatra).flac

Track gain : -1.33 dB
Peak : 0.993378
CRC32 hash (test run) : 6BD4CE9F
CRC32 hash : 6BD4CE9F
CRC32 hash (skip zero) : 3568A238
AccurateRip v1 signature : 3E69162F
AccurateRip v2 signature : 2F04CB66
->Track not present in AccurateRip database.
Statistics
Read error : 0
Jitter error (maybe fixed) : 0
Retry sector count : 0
Damaged sector count : 0

No errors occurred

End of status report

––-BEGIN XLD SIGNATURE––-
cc35vPeIJyOwY5ePfkSuEnWQ_iahmPcrP.EusHws0WqX.NxVlog.YX4CRyh4CkvAeFKm4drVNRELFrk_r8SAeB1PdaKU5NBAQMRvhJq
––-END XLD SIGNATURE––-

X Lossless Decoder version 20170729 (150.3)

XLD extraction logfile from 2018-06-08 16:09:40 +0100

Entourage / Ceremony Of Dreams : Studio Sessions & Outtakes, 1972-1977

Used drive : MATSHITA DVD-R UJ-8A8 (revision HA13)
Media type : Pressed CD

Ripper mode : XLD Secure Ripper
Disable audio cache : OK for the drive with a cache less than 1375KiB
Make use of C2 pointers : NO
Read offset correction : 102
Max retry count : 50
Gap status : Analyzed, Appended

TOC of the extracted CD
Track | Start | Length | Start sector | End sector
––––––––––––––––––––––––––––-
1 | 00:00:00 | 02:32:13 | 0 | 11412
2 | 02:32:13 | 01:41:29 | 11413 | 19016
3 | 04:13:42 | 07:00:37 | 19017 | 50553
4 | 11:14:04 | 08:04:48 | 50554 | 86901
5 | 19:18:52 | 05:28:10 | 86902 | 111511
6 | 24:46:62 | 04:56:21 | 111512 | 133732
7 | 29:43:08 | 02:29:12 | 133733 | 144919
8 | 32:12:20 | 01:14:73 | 144920 | 150542
9 | 33:27:18 | 03:04:61 | 150543 | 164403
10 | 36:32:04 | 04:09:54 | 164404 | 183132

AccurateRip Summary
Disc not found in AccurateRip DB.

All Tracks
Album gain : -3.42 dB
Peak : 0.981689
Statistics
Read error : 0
Jitter error (maybe fixed) : 0
Retry sector count : 0
Damaged sector count : 0

Track 01
Filename : /Users/edwardsharp/Downloads/Entourage - Ceremony Of Dreams : Studio Sessions & Outtakes, 1972-1977 (2018)/01 - Journey By Water.flac
Pre-gap length : 00:02:00

Track gain : -4.05 dB
Peak : 0.929443
CRC32 hash (test run) : 576AC2A8
CRC32 hash : 576AC2A8
CRC32 hash (skip zero) : ABC8B405
AccurateRip v1 signature : FF376CC1
AccurateRip v2 signature : 58F5A788
->Track not present in AccurateRip database.
Statistics
Read error : 0
Jitter error (maybe fixed) : 0
Retry sector count : 0
Damaged sector count : 0

Track 02
Filename : /Users/edwardsharp/Downloads/Entourage - Ceremony Of Dreams : Studio Sessions & Outtakes, 1972-1977 (2018)/02 - Temple Of Whales.flac

Track gain : -3.36 dB
Peak : 0.878937
CRC32 hash (test run) : 68FAFE8C
CRC32 hash : 68FAFE8C
CRC32 hash (skip zero) : CE0A3BE2
AccurateRip v1 signature : 981A28AD
AccurateRip v2 signature : 2AC3CB7A
->Track not present in AccurateRip database.
Statistics
Read error : 0
Jitter error (maybe fixed) : 0
Retry sector count : 0
Damaged sector count : 0

Track 03
Filename : /Users/edwardsharp/Downloads/Entourage - Ceremony Of Dreams : Studio Sessions & Outtakes, 1972-1977 (2018)/03 - Tears.flac

Track gain : -2.64 dB
Peak : 0.779877
CRC32 hash (test run) : E157A333
CRC32 hash : E157A333
CRC32 hash (skip zero) : A2080EFD
AccurateRip v1 signature : A149136E
AccurateRip v2 signature : E881D677
->Track not present in AccurateRip database.
Statistics
Read error : 0
Jitter error (maybe fixed) : 0
Retry sector count : 0
Damaged sector count : 0

Track 04
Filename : /Users/edwardsharp/Downloads/Entourage - Ceremony Of Dreams : Studio Sessions & Outtakes, 1972-1977 (2018)/04 - The Shores Of God (Full Version).flac

Track gain : -4.99 dB
Peak : 0.977905
CRC32 hash (test run) : 28D8202D
CRC32 hash : 28D8202D
CRC32 hash (skip zero) : B5C809DD
AccurateRip v1 signature : AFC4179F
AccurateRip v2 signature : 8571D506
->Track not present in AccurateRip database.
Statistics
Read error : 0
Jitter error (maybe fixed) : 0
Retry sector count : 0
Damaged sector count : 0

Track 05
Filename : /Users/edwardsharp/Downloads/Entourage - Ceremony Of Dreams : Studio Sessions & Outtakes, 1972-1977 (2018)/05 - The Shores Of God (Bass And Horn).flac

Track gain : 1.15 dB
Peak : 0.905457
CRC32 hash (test run) : 89C8CA6C
CRC32 hash : 89C8CA6C
CRC32 hash (skip zero) : DE54FF8F
AccurateRip v1 signature : 8D6F0D19
AccurateRip v2 signature : 4FDCF835
->Track not present in AccurateRip database.
Statistics
Read error : 0
Jitter error (maybe fixed) : 0
Retry sector count : 0
Damaged sector count : 0

Track 06
Filename : /Users/edwardsharp/Downloads/Entourage - Ceremony Of Dreams : Studio Sessions & Outtakes, 1972-1977 (2018)/06 - The Shores Of God (Piano).flac

Track gain : -2.87 dB
Peak : 0.981689
CRC32 hash (test run) : 970DDC11
CRC32 hash : 970DDC11
CRC32 hash (skip zero) : E99DCB83
AccurateRip v1 signature : D37362F4
AccurateRip v2 signature : 9ECE92D5
->Track not present in AccurateRip database.
Statistics
Read error : 0
Jitter error (maybe fixed) : 0
Retry sector count : 0
Damaged sector count : 0

Track 07
Filename : /Users/edwardsharp/Downloads/Entourage - Ceremony Of Dreams : Studio Sessions & Outtakes, 1972-1977 (2018)/07 - Necrophelia.flac

Track gain : -3.03 dB
Peak : 0.978210
CRC32 hash (test run) : A7235C4C
CRC32 hash : A7235C4C
CRC32 hash (skip zero) : A225D244
AccurateRip v1 signature : 811D8410
AccurateRip v2 signature : 85006614
->Track not present in AccurateRip database.
Statistics
Read error : 0
Jitter error (maybe fixed) : 0
Retry sector count : 0
Damaged sector count : 0

Track 08
Filename : /Users/edwardsharp/Downloads/Entourage - Ceremony Of Dreams : Studio Sessions & Outtakes, 1972-1977 (2018)/08 - Sleazy Sue (Love Duet 1 From Cleopatra).flac

Track gain : -2.15 dB
Peak : 0.806458
CRC32 hash (test run) : 166D0DD7
CRC32 hash : 166D0DD7
CRC32 hash (skip zero) : 81048151
AccurateRip v1 signature : D912AC0A
AccurateRip v2 signature : 59A386ED
->Track not present in AccurateRip database.
Statistics
Read error : 0
Jitter error (maybe fixed) : 0
Retry sector count : 0
Damaged sector count : 0

Track 09
Filename : /Users/edwardsharp/Downloads/Entourage - Ceremony Of Dreams : Studio Sessions & Outtakes, 1972-1977 (2018)/09 - Outer Tiger (Street Scene From Cleopatra).flac

Track gain : -4.23 dB
Peak : 0.920685
CRC32 hash (test run) : 678F0375
CRC32 hash : 678F0375
CRC32 hash (skip zero) : B7D2FAA9
AccurateRip v1 signature : F99BEECC
AccurateRip v2 signature : 40208FE6
->Track not present in AccurateRip database.
Statistics
Read error : 0
Jitter error (maybe fixed) : 0
Retry sector count : 0
Damaged sector count : 0

Track 10
Filename : /Users/edwardsharp/Downloads/Entourage - Ceremony Of Dreams : Studio Sessions & Outtakes, 1972-1977 (2018)/10 - Young Girls' Dance (From Cleopatra).flac

Track gain : 0.01 dB
Peak : 0.955444
CRC32 hash (test run) : F4E83530
CRC32 hash : F4E83530
CRC32 hash (skip zero) : 92DF9E73
AccurateRip v1 signature : 600FDB11
AccurateRip v2 signature : 5AA99594
->Track not present in AccurateRip database.
Statistics
Read error : 0
Jitter error (maybe fixed) : 0
Retry sector count : 0
Damaged sector count : 0

No errors occurred

End of status report

––-BEGIN XLD SIGNATURE––-
UoGKX7.eTe.PjqKWEYLrxYfPXviqGKs1gpQf7k8rDp0XZh3ycdNbZh3zVYN56oTeTPQpr7zN3QqMPRRGML9OTXq2RYx0pq0Kny3posS
––-END XLD SIGNATURE––-

Thanks to the Original ripper jplaguna !