Subcategories

Eric Burdon & Brian Auger Band – Access All Areas Live (1993) (2-CD)

Posted By: janwal46
Eric Burdon & Brian Auger Band – Access All Areas Live (1993) (2-CD)

Eric Burdon & Brian Auger Band – Access All Areas Live (1993) (2-CD)

Eric Burdon & Brian Auger Band – Access All Areas Live (1993) (2-CD)
SPV Records | 1993 | Rock Blues R&B | EAC RIP | FLAC+CUE+LOG+HQ-Covers (400Dpi) | 522Mb+454Mb+13Mb

1993 release from SPV, a double live album featuring 20 tracks recorded live at the Belly Up Tavern at Solana Beach in California, on May 10th, 1993. Includes many of Burdon's hits with War & the Animals. Burdon's vocals are gutty, raw and funky as you can get. He's tremendous!! Brian flat gets down with some great solos. Fantastic guitar work. I rank it with Edgar Winter's Roadwork and Bob Seger's 'Live Bullit' albums for kick-butt energy and showmanship. Sure it's mainly old Animal songs but they were never performed like this before. WOW!!!

Personnel:

Eric Burdon - vocals
Brian Auger - keyboards
Dave Meros - bass, vocals
Larry Wilkins - guitar, vocals
Karma Auger - drums
Richard Regueira – percussion

Tracklists:

CD 1:

01. Introduction
02. Don't Bring Me Down
03. Misunderstood Intro
04. Don't Let Me Be Misunderstood
05. Monterey
06. We Gotta Get Out Of This Place
07. I Just Want To Make Love To You
08. Roadhouse Blues
09. When I Was Young
10. It's My Life
11. Spill The Wine

CD 2:

01. River Deep Mountain High
02. Bring It On Home To Me
03. No More Elmore James
04. Band Intro For Eric
05. Tobacco Road
06. Sky Pilot
07. Rising Sun Gitar Intro
08. House Of The Rising Sun
09. Sixteen Tons


Produced by Brian Auger
Mixed June-July 1993 at Track Record, N.Hollywood, CA, Studio 56, Hollywood, CA, Kingsound Studios, N.Hollywood, CA
Mastered by Wally Traugott at Capitol Records Tower Mastering, Hollywood, CA

Recorded Live at the "Belly Up Tavern", Solana Beach, CA, May 10th 1993

Sound Quality: 9

Exact Audio Copy V0.99 prebeta 5 from 4. May 2009

EAC extraction logfile from 16. January 2010, 23:59

Eric Burdon Brian Auger Band / Access All Areas/Live (CD 1)

Used drive : Optiarc DVD RW AD-7173A Adapter: 1 ID: 0

Read mode : Secure
Utilize accurate stream : Yes
Defeat audio cache : Yes
Make use of C2 pointers : No

Read offset correction : 48
Overread into Lead-In and Lead-Out : No
Fill up missing offset samples with silence : Yes
Delete leading and trailing silent blocks : No
Null samples used in CRC calculations : Yes
Used interface : Native Win32 interface for Win NT & 2000

Used output format : Internal WAV Routines
Sample format : 44.100 Hz; 16 Bit; Stereo


TOC of the extracted CD

Track | Start | Length | Start sector | End sector
––––––––––––––––––––––––––––-
1 | 0:00.33 | 0:12.17 | 33 | 949
2 | 0:12.50 | 4:10.48 | 950 | 19747
3 | 4:23.23 | 1:53.60 | 19748 | 28282
4 | 6:17.08 | 7:22.70 | 28283 | 61502
5 | 13:40.03 | 6:34.52 | 61503 | 91104
6 | 20:14.55 | 13:10.58 | 91105 | 150412
7 | 33:25.38 | 11:34.72 | 150413 | 202534
8 | 45:00.35 | 8:43.15 | 202535 | 241774
9 | 53:43.50 | 5:20.60 | 241775 | 265834
10 | 59:04.35 | 3:56.28 | 265835 | 283562
11 | 63:00.63 | 10:38.45 | 283563 | 331457


Range status and errors

Selected range

Filename F:\AVAXHOME\Eric Burdon & Brian Auger Band - Access All Areas Live 2-CD (1993)\Eric Burdon Brian Auger Band - Access All Areas Live (CD 1).wav

Peak level 97.7 %
Range quality 99.9 %
Copy CRC E4931E2A
Copy OK

No errors occurred


AccurateRip summary

Track 1 accurately ripped (confidence 10) [F2EA69D5]
Track 2 accurately ripped (confidence 10) [CD261F1C]
Track 3 accurately ripped (confidence 10) [504492AD]
Track 4 accurately ripped (confidence 10) [B646270A]
Track 5 accurately ripped (confidence 10) [B0C15E3A]
Track 6 accurately ripped (confidence 10) [EBBF7150]
Track 7 accurately ripped (confidence 10) [8729173C]
Track 8 accurately ripped (confidence 10) [FF382FD5]
Track 9 accurately ripped (confidence 10) [76431C4B]
Track 10 accurately ripped (confidence 10) [33BD17AC]
Track 11 accurately ripped (confidence 10) [F76A843A]

All tracks accurately ripped

End of status report

RIPPED BY JANWAL46

Exact Audio Copy V0.99 prebeta 5 from 4. May 2009

EAC extraction logfile from 17. January 2010, 00:10

Eric Burdon Brian Auger Band / Access All Areas/Live (CD 2)

Used drive : Optiarc DVD RW AD-7173A Adapter: 1 ID: 0

Read mode : Secure
Utilize accurate stream : Yes
Defeat audio cache : Yes
Make use of C2 pointers : No

Read offset correction : 48
Overread into Lead-In and Lead-Out : No
Fill up missing offset samples with silence : Yes
Delete leading and trailing silent blocks : No
Null samples used in CRC calculations : Yes
Used interface : Native Win32 interface for Win NT & 2000

Used output format : Internal WAV Routines
Sample format : 44.100 Hz; 16 Bit; Stereo


TOC of the extracted CD

Track | Start | Length | Start sector | End sector
––––––––––––––––––––––––––––-
1 | 0:00.33 | 7:07.55 | 33 | 32112
2 | 7:08.13 | 8:32.55 | 32113 | 70567
3 | 15:40.68 | 12:05.57 | 70568 | 124999
4 | 27:46.50 | 1:24.25 | 125000 | 131324
5 | 29:11.00 | 12:00.00 | 131325 | 185324
6 | 41:11.00 | 9:24.63 | 185325 | 227687
7 | 50:35.63 | 2:21.10 | 227688 | 238272
8 | 52:56.73 | 8:45.47 | 238273 | 277694
9 | 61:42.45 | 3:35.50 | 277695 | 293869


Range status and errors

Selected range

Filename F:\AVAXHOME\Eric Burdon & Brian Auger Band - Access All Areas Live 2-CD (1993)\Eric Burdon Brian Auger Band - Access All Areas Live (CD 2).wav

Peak level 100.0 %
Range quality 100.0 %
Copy CRC 7B6BA701
Copy OK

No errors occurred


AccurateRip summary

Track 1 accurately ripped (confidence 10) [0E606B03]
Track 2 accurately ripped (confidence 10) [CC3FA491]
Track 3 accurately ripped (confidence 10) [6BAF4393]
Track 4 accurately ripped (confidence 10) [EA372B17]
Track 5 accurately ripped (confidence 10) [9749D486]
Track 6 accurately ripped (confidence 10) [7FE2D11E]
Track 7 accurately ripped (confidence 10) [C807E2DD]
Track 8 accurately ripped (confidence 10) [354F4BE2]
Track 9 accurately ripped (confidence 10) [F6AB756F]

All tracks accurately ripped

End of status report

RIPPED BY JANWAL46

RS Links:

CD 1:


CD 2:



In case you encounter dead links in any of my posts, please send me a private message !!!!


Password: janwal46

Say thanks, but please, no mirrors and/or direct links in your comments !!!!