Subcategories

Eric Clapton & The Yardbirds - Diamonds Are Forever (2018)

Posted By: delpotro
Eric Clapton & The Yardbirds - Diamonds Are Forever (2018)

Eric Clapton & The Yardbirds - Diamonds Are Forever (2018)
EAC Rip | FLAC (tracks+log+.cue) - 683 Mb | MP3 CBR 320 kbps - 289 Mb | 02:04:12
Blues Rock, Classic Rock | Label: Store For Music

The Historic Classic Recordings are from the early years of The Yardbirds. The double CD features studio and live recordings from the London Marquee Club and the Crawdaddy Club in Richmond, Surrey. Not only Eric Clapton, but also the legendary Sonny Boy Williamson, with whom the band toured in December 1963, were involved in the fantastic recordings. Also, the contributions of Jimmy Page in some pieces are unmistakable. With For Your Love, Good Morning Little Schoolgirl, Shapes Of Things, Draggin 'My Tail (with Jimmy Page), Evil Hearted You, I Is not Got You, A Certain Girl, Got To Hurry, Too Much Monkey Business, Mr. You're a Better Man Than I, Choker (with Jimmy Page), Honey In Your Hips, West Coast Idea, I Wish You Would, Freight Loader (with Jimmy Page), Snake Drive, Jeff's Blues and others, a total of 36 titles.
Tracklist:
CD 1
01. For Your Love
02. Good Morning Little Schoolgirl
03. Shapes Of Things
04. Draggin' My Tail
05. Evil Hearted You
06. I Ain't Got You
07. A Certain Girl
08. Got To Hurry
09. Too Much Monkey Business [Live @ Marquee Club]
10. Got Love If You Want It [Live @ Marquee Club]
11. Smokestack Lightning [Live @ Marquee Club]
12. Louise [Live @ Marquee Club]
13. Good Morning Little Schoolgirl [Live @ Marquee Club]
14. Five Long Years [Live @ Marquee Club]
15. Here 'tis [Live @ Marquee Club]
16. Pretty Girl [Live @ Marquee Club]
17. I'm A Man [Live @ Marquee Club]
18. She's So Respectable [Live @ Marquee Club]

CD 2
01. Baby What's Wrong
02. Mr. You're A Better Man Than I
03. Choker
04. Honey In Your Hips
05. West Coast Idea
06. I Wish You Would
07. Freight Loader
08. Snake Drive
09. Jeff's Blues
10. Smokestack Lightning [Live @ Crawdaddy Club]
11. Bye Bye Bird [Live @ Crawdaddy Club]
12. Take It Easy Baby [Live @ Crawdaddy Club]
13. Out On The Water Coast [Live @ Crawdaddy Club]
14. Pontiac Blues [Live @ Crawdaddy Club]
15. Twenty-Three Hours Too Long [Live @ Crawdaddy Club]
16. Do The Weston [Live @ Crawdaddy Club]
17. The River Rhine [Live @ Crawdaddy Club]
18. Mister Downchild [Live @ Crawdaddy Club]

Exact Audio Copy V1.3 from 2. September 2016

EAC extraction logfile from 23. June 2019, 15:40

Eric Clapton & The Yardbirds / Historic Classic Recordings

Used drive : PLEXTOR PX-891SAF Adapter: 1 ID: 0

Read mode : Secure
Utilize accurate stream : Yes
Defeat audio cache : Yes
Make use of C2 pointers : No

Read offset correction : 6
Overread into Lead-In and Lead-Out : No
Fill up missing offset samples with silence : Yes
Delete leading and trailing silent blocks : No
Null samples used in CRC calculations : Yes
Used interface : Native Win32 interface for Win NT & 2000
Gap handling : Appended to previous track

Used output format : User Defined Encoder
Selected bitrate : 1024 kBit/s
Quality : High
Add ID3 tag : No
Command line compressor : C:\Program Files (x86)\Exact Audio Copy\Flac\flac.exe
Additional command line options : -8 -V -T "ARTIST=%artist%" -T "TITLE=%title%" -T "ALBUM=%albumtitle%" -T "DATE=%year%" -T "TRACKNUMBER=%tracknr%" -T "GENRE=%genre%" -T "PERFORMER=%albuminterpret%" -T "COMPOSER=%composer%" %haslyrics%–tag-from-file=LYRICS="%lyricsfile%"%haslyrics% -T "ALBUMARTIST=%albumartist%" -T "DISCNUMBER=%cdnumber%" -T "TOTALDISCS=%totalcds%" -T "TOTALTRACKS=%numtracks%" -T "COMMENT=%comment%" %source% -o %dest%


TOC of the extracted CD

Track | Start | Length | Start sector | End sector
––––––––––––––––––––––––––––-
1 | 0:00.00 | 2:29.19 | 0 | 11193
2 | 2:29.19 | 2:45.73 | 11194 | 23641
3 | 5:15.17 | 2:25.22 | 23642 | 34538
4 | 7:40.39 | 3:07.62 | 34539 | 48625
5 | 10:48.26 | 2:22.17 | 48626 | 59292
6 | 13:10.43 | 2:00.03 | 59293 | 68295
7 | 15:10.46 | 2:17.44 | 68296 | 78614
8 | 17:28.15 | 2:32.40 | 78615 | 90054
9 | 20:00.55 | 3:51.36 | 90055 | 107415
10 | 23:52.16 | 2:40.43 | 107416 | 119458
11 | 26:32.59 | 5:33.13 | 119459 | 144446
12 | 32:05.72 | 3:40.36 | 144447 | 160982
13 | 35:46.33 | 2:40.24 | 160983 | 173006
14 | 38:26.57 | 5:07.40 | 173007 | 196071
15 | 43:34.22 | 4:54.04 | 196072 | 218125
16 | 48:28.26 | 3:00.41 | 218126 | 231666
17 | 51:28.67 | 4:33.37 | 231667 | 252178
18 | 56:02.29 | 5:34.16 | 252179 | 277244


Track 1

Filename D:\#New wav + flac\Eric Clapton & The Yardbirds - Historic Classic Recordings\cd 1\01. Eric Clapton & The Yardbirds - For Your Love.wav

Pre-gap length 0:00:02.00

Peak level 77.6 %
Extraction speed 4.7 X
Track quality 100.0 %
Test CRC 3CD8D3FC
Copy CRC 3CD8D3FC
Accurately ripped (confidence 1) [2180EBE9] (AR v2)
Copy OK

Track 2

Filename D:\#New wav + flac\Eric Clapton & The Yardbirds - Historic Classic Recordings\cd 1\02. Eric Clapton & The Yardbirds - Good Morning Little Schoolgirl.wav

Peak level 89.4 %
Extraction speed 4.1 X
Track quality 99.9 %
Test CRC E2D49B0B
Copy CRC E2D49B0B
Accurately ripped (confidence 1) [8755829A] (AR v2)
Copy OK

Track 3

Filename D:\#New wav + flac\Eric Clapton & The Yardbirds - Historic Classic Recordings\cd 1\03. Eric Clapton & The Yardbirds - Shapes of Things.wav

Peak level 97.4 %
Extraction speed 5.3 X
Track quality 100.0 %
Test CRC 108972B1
Copy CRC 108972B1
Accurately ripped (confidence 1) [40F0D72F] (AR v2)
Copy OK

Track 4

Filename D:\#New wav + flac\Eric Clapton & The Yardbirds - Historic Classic Recordings\cd 1\04. Eric Clapton & The Yardbirds - Draggin' My Tail (With Jimmy Page).wav

Peak level 88.0 %
Extraction speed 5.9 X
Track quality 100.0 %
Test CRC 4C314691
Copy CRC 4C314691
Accurately ripped (confidence 1) [46079AD8] (AR v2)
Copy OK

Track 5

Filename D:\#New wav + flac\Eric Clapton & The Yardbirds - Historic Classic Recordings\cd 1\05. Eric Clapton & The Yardbirds - Evil Hearted You.wav

Peak level 96.6 %
Extraction speed 5.9 X
Track quality 100.0 %
Test CRC 3AE1FB85
Copy CRC 3AE1FB85
Accurately ripped (confidence 1) [CB7C7D7B] (AR v2)
Copy OK

Track 6

Filename D:\#New wav + flac\Eric Clapton & The Yardbirds - Historic Classic Recordings\cd 1\06. Eric Clapton & The Yardbirds - I Ain't Got You.wav

Peak level 92.6 %
Extraction speed 5.8 X
Track quality 100.0 %
Test CRC 13AE925E
Copy CRC 13AE925E
Accurately ripped (confidence 1) [2F46369C] (AR v2)
Copy OK

Track 7

Filename D:\#New wav + flac\Eric Clapton & The Yardbirds - Historic Classic Recordings\cd 1\07. Eric Clapton & The Yardbirds - A Certain Girl.wav

Peak level 73.7 %
Extraction speed 6.2 X
Track quality 100.0 %
Test CRC 7B663D4A
Copy CRC 7B663D4A
Accurately ripped (confidence 1) [A34F87D2] (AR v2)
Copy OK

Track 8

Filename D:\#New wav + flac\Eric Clapton & The Yardbirds - Historic Classic Recordings\cd 1\08. Eric Clapton & The Yardbirds - Got to Hurry.wav

Peak level 65.5 %
Extraction speed 6.6 X
Track quality 100.0 %
Test CRC DBE536C6
Copy CRC DBE536C6
Accurately ripped (confidence 1) [2DF2756C] (AR v2)
Copy OK

Track 9

Filename D:\#New wav + flac\Eric Clapton & The Yardbirds - Historic Classic Recordings\cd 1\09. Eric Clapton & The Yardbirds - Too Much Monkey Business [Live @ Marquee Club].wav

Pre-gap length 0:00:01.25

Peak level 95.4 %
Extraction speed 7.4 X
Track quality 100.0 %
Test CRC 5AD67695
Copy CRC 5AD67695
Accurately ripped (confidence 1) [D062773C] (AR v2)
Copy OK

Track 10

Filename D:\#New wav + flac\Eric Clapton & The Yardbirds - Historic Classic Recordings\cd 1\10. Eric Clapton & The Yardbirds - Got Love If You Want It [Live @ Marquee Club].wav

Peak level 87.1 %
Extraction speed 7.2 X
Track quality 100.0 %
Test CRC E3274B68
Copy CRC E3274B68
Accurately ripped (confidence 1) [3F91AF4C] (AR v2)
Copy OK

Track 11

Filename D:\#New wav + flac\Eric Clapton & The Yardbirds - Historic Classic Recordings\cd 1\11. Eric Clapton & The Yardbirds - Smokestack Lightning [Live @ Marquee Club].wav

Peak level 90.9 %
Extraction speed 8.4 X
Track quality 100.0 %
Test CRC 3C542A97
Copy CRC 3C542A97
Accurately ripped (confidence 1) [0F82754B] (AR v2)
Copy OK

Track 12

Filename D:\#New wav + flac\Eric Clapton & The Yardbirds - Historic Classic Recordings\cd 1\12. Eric Clapton & The Yardbirds - Louise [Live @ Marquee Club].wav

Peak level 86.1 %
Extraction speed 8.4 X
Track quality 100.0 %
Test CRC 8D1B3887
Copy CRC 8D1B3887
Accurately ripped (confidence 1) [181FE38F] (AR v2)
Copy OK

Track 13

Filename D:\#New wav + flac\Eric Clapton & The Yardbirds - Historic Classic Recordings\cd 1\13. Eric Clapton & The Yardbirds - Good Morning Little Schoolgirl [Live @ Marquee Club].wav

Peak level 95.4 %
Extraction speed 6.4 X
Track quality 99.9 %
Test CRC A4FDCA7D
Copy CRC A4FDCA7D
Accurately ripped (confidence 1) [FA89D9A6] (AR v2)
Copy OK

Track 14

Filename D:\#New wav + flac\Eric Clapton & The Yardbirds - Historic Classic Recordings\cd 1\14. Eric Clapton & The Yardbirds - Five Long Years [Live @ Marquee Club].wav

Peak level 97.0 %
Extraction speed 9.2 X
Track quality 100.0 %
Test CRC 6D7A3463
Copy CRC 6D7A3463
Accurately ripped (confidence 1) [71B4B5CB] (AR v2)
Copy OK

Track 15

Filename D:\#New wav + flac\Eric Clapton & The Yardbirds - Historic Classic Recordings\cd 1\15. Eric Clapton & The Yardbirds - Here 'Tis [Live @ Marquee Club].wav

Peak level 86.4 %
Extraction speed 9.7 X
Track quality 100.0 %
Test CRC A0F38F3A
Copy CRC A0F38F3A
Accurately ripped (confidence 1) [85368A97] (AR v2)
Copy OK

Track 16

Filename D:\#New wav + flac\Eric Clapton & The Yardbirds - Historic Classic Recordings\cd 1\16. Eric Clapton & The Yardbirds - Pretty Girl [Live @ Marquee Club].wav

Peak level 100.0 %
Extraction speed 9.4 X
Track quality 100.0 %
Test CRC B2DB3E34
Copy CRC B2DB3E34
Accurately ripped (confidence 1) [E5AB7463] (AR v2)
Copy OK

Track 17

Filename D:\#New wav + flac\Eric Clapton & The Yardbirds - Historic Classic Recordings\cd 1\17. Eric Clapton & The Yardbirds - I'm a Man [Live @ Marquee Club].wav

Peak level 76.7 %
Extraction speed 10.3 X
Track quality 100.0 %
Test CRC 1AB55295
Copy CRC 1AB55295
Cannot be verified as accurate (confidence 1) [3368365C], AccurateRip returned [A19BDC7B] (AR v2)
Copy OK

Track 18

Filename D:\#New wav + flac\Eric Clapton & The Yardbirds - Historic Classic Recordings\cd 1\18. Eric Clapton & The Yardbirds - She's so Respectable [Live @ Marquee Club].wav

Peak level 96.4 %
Extraction speed 10.7 X
Track quality 100.0 %
Test CRC 922D0836
Copy CRC 922D0836
Accurately ripped (confidence 1) [3B65C9B0] (AR v2)
Copy OK


17 track(s) accurately ripped
1 track(s) could not be verified as accurate

Some tracks could not be verified as accurate

No errors occurred

End of status report

–– CUETools DB Plugin V2.1.6

[CTDB TOCID: QXZbG9ieIgV6vMHAJTnWUPPYsDQ-] disk not present in database
Submit result: QXZbG9ieIgV6vMHAJTnWUPPYsDQ- has been uploaded


==== Log checksum 2CBAC094E696DA172B00CB73E7C05B4D77DF36F17695F8339AC8F8AF9578B57B ====

––––––––––––––––––––––––––––––

Exact Audio Copy V1.3 from 2. September 2016

EAC extraction logfile from 23. June 2019, 15:40

Eric Clapton & The Yardbirds / Historic Classic Recordings

Used drive : PLEXTOR PX-891SAF Adapter: 1 ID: 0

Read mode : Secure
Utilize accurate stream : Yes
Defeat audio cache : Yes
Make use of C2 pointers : No

Read offset correction : 6
Overread into Lead-In and Lead-Out : No
Fill up missing offset samples with silence : Yes
Delete leading and trailing silent blocks : No
Null samples used in CRC calculations : Yes
Used interface : Native Win32 interface for Win NT & 2000
Gap handling : Appended to previous track

Used output format : User Defined Encoder
Selected bitrate : 1024 kBit/s
Quality : High
Add ID3 tag : No
Command line compressor : C:\Program Files (x86)\Exact Audio Copy\Flac\flac.exe
Additional command line options : -8 -V -T "ARTIST=%artist%" -T "TITLE=%title%" -T "ALBUM=%albumtitle%" -T "DATE=%year%" -T "TRACKNUMBER=%tracknr%" -T "GENRE=%genre%" -T "PERFORMER=%albuminterpret%" -T "COMPOSER=%composer%" %haslyrics%–tag-from-file=LYRICS="%lyricsfile%"%haslyrics% -T "ALBUMARTIST=%albumartist%" -T "DISCNUMBER=%cdnumber%" -T "TOTALDISCS=%totalcds%" -T "TOTALTRACKS=%numtracks%" -T "COMMENT=%comment%" %source% -o %dest%


TOC of the extracted CD

Track | Start | Length | Start sector | End sector
––––––––––––––––––––––––––––-
1 | 0:00.00 | 2:29.19 | 0 | 11193
2 | 2:29.19 | 2:45.73 | 11194 | 23641
3 | 5:15.17 | 2:25.22 | 23642 | 34538
4 | 7:40.39 | 3:07.62 | 34539 | 48625
5 | 10:48.26 | 2:22.17 | 48626 | 59292
6 | 13:10.43 | 2:00.03 | 59293 | 68295
7 | 15:10.46 | 2:17.44 | 68296 | 78614
8 | 17:28.15 | 2:32.40 | 78615 | 90054
9 | 20:00.55 | 3:51.36 | 90055 | 107415
10 | 23:52.16 | 2:40.43 | 107416 | 119458
11 | 26:32.59 | 5:33.13 | 119459 | 144446
12 | 32:05.72 | 3:40.36 | 144447 | 160982
13 | 35:46.33 | 2:40.24 | 160983 | 173006
14 | 38:26.57 | 5:07.40 | 173007 | 196071
15 | 43:34.22 | 4:54.04 | 196072 | 218125
16 | 48:28.26 | 3:00.41 | 218126 | 231666
17 | 51:28.67 | 4:33.37 | 231667 | 252178
18 | 56:02.29 | 5:34.16 | 252179 | 277244


Track 1

Filename D:\#New wav + flac\Eric Clapton & The Yardbirds - Historic Classic Recordings\cd 1\01. Eric Clapton & The Yardbirds - For Your Love.wav

Pre-gap length 0:00:02.00

Peak level 77.6 %
Extraction speed 4.7 X
Track quality 100.0 %
Test CRC 3CD8D3FC
Copy CRC 3CD8D3FC
Accurately ripped (confidence 1) [2180EBE9] (AR v2)
Copy OK

Track 2

Filename D:\#New wav + flac\Eric Clapton & The Yardbirds - Historic Classic Recordings\cd 1\02. Eric Clapton & The Yardbirds - Good Morning Little Schoolgirl.wav

Peak level 89.4 %
Extraction speed 4.1 X
Track quality 99.9 %
Test CRC E2D49B0B
Copy CRC E2D49B0B
Accurately ripped (confidence 1) [8755829A] (AR v2)
Copy OK

Track 3

Filename D:\#New wav + flac\Eric Clapton & The Yardbirds - Historic Classic Recordings\cd 1\03. Eric Clapton & The Yardbirds - Shapes of Things.wav

Peak level 97.4 %
Extraction speed 5.3 X
Track quality 100.0 %
Test CRC 108972B1
Copy CRC 108972B1
Accurately ripped (confidence 1) [40F0D72F] (AR v2)
Copy OK

Track 4

Filename D:\#New wav + flac\Eric Clapton & The Yardbirds - Historic Classic Recordings\cd 1\04. Eric Clapton & The Yardbirds - Draggin' My Tail (With Jimmy Page).wav

Peak level 88.0 %
Extraction speed 5.9 X
Track quality 100.0 %
Test CRC 4C314691
Copy CRC 4C314691
Accurately ripped (confidence 1) [46079AD8] (AR v2)
Copy OK

Track 5

Filename D:\#New wav + flac\Eric Clapton & The Yardbirds - Historic Classic Recordings\cd 1\05. Eric Clapton & The Yardbirds - Evil Hearted You.wav

Peak level 96.6 %
Extraction speed 5.9 X
Track quality 100.0 %
Test CRC 3AE1FB85
Copy CRC 3AE1FB85
Accurately ripped (confidence 1) [CB7C7D7B] (AR v2)
Copy OK

Track 6

Filename D:\#New wav + flac\Eric Clapton & The Yardbirds - Historic Classic Recordings\cd 1\06. Eric Clapton & The Yardbirds - I Ain't Got You.wav

Peak level 92.6 %
Extraction speed 5.8 X
Track quality 100.0 %
Test CRC 13AE925E
Copy CRC 13AE925E
Accurately ripped (confidence 1) [2F46369C] (AR v2)
Copy OK

Track 7

Filename D:\#New wav + flac\Eric Clapton & The Yardbirds - Historic Classic Recordings\cd 1\07. Eric Clapton & The Yardbirds - A Certain Girl.wav

Peak level 73.7 %
Extraction speed 6.2 X
Track quality 100.0 %
Test CRC 7B663D4A
Copy CRC 7B663D4A
Accurately ripped (confidence 1) [A34F87D2] (AR v2)
Copy OK

Track 8

Filename D:\#New wav + flac\Eric Clapton & The Yardbirds - Historic Classic Recordings\cd 1\08. Eric Clapton & The Yardbirds - Got to Hurry.wav

Peak level 65.5 %
Extraction speed 6.6 X
Track quality 100.0 %
Test CRC DBE536C6
Copy CRC DBE536C6
Accurately ripped (confidence 1) [2DF2756C] (AR v2)
Copy OK

Track 9

Filename D:\#New wav + flac\Eric Clapton & The Yardbirds - Historic Classic Recordings\cd 1\09. Eric Clapton & The Yardbirds - Too Much Monkey Business [Live @ Marquee Club].wav

Pre-gap length 0:00:01.25

Peak level 95.4 %
Extraction speed 7.4 X
Track quality 100.0 %
Test CRC 5AD67695
Copy CRC 5AD67695
Accurately ripped (confidence 1) [D062773C] (AR v2)
Copy OK

Track 10

Filename D:\#New wav + flac\Eric Clapton & The Yardbirds - Historic Classic Recordings\cd 1\10. Eric Clapton & The Yardbirds - Got Love If You Want It [Live @ Marquee Club].wav

Peak level 87.1 %
Extraction speed 7.2 X
Track quality 100.0 %
Test CRC E3274B68
Copy CRC E3274B68
Accurately ripped (confidence 1) [3F91AF4C] (AR v2)
Copy OK

Track 11

Filename D:\#New wav + flac\Eric Clapton & The Yardbirds - Historic Classic Recordings\cd 1\11. Eric Clapton & The Yardbirds - Smokestack Lightning [Live @ Marquee Club].wav

Peak level 90.9 %
Extraction speed 8.4 X
Track quality 100.0 %
Test CRC 3C542A97
Copy CRC 3C542A97
Accurately ripped (confidence 1) [0F82754B] (AR v2)
Copy OK

Track 12

Filename D:\#New wav + flac\Eric Clapton & The Yardbirds - Historic Classic Recordings\cd 1\12. Eric Clapton & The Yardbirds - Louise [Live @ Marquee Club].wav

Peak level 86.1 %
Extraction speed 8.4 X
Track quality 100.0 %
Test CRC 8D1B3887
Copy CRC 8D1B3887
Accurately ripped (confidence 1) [181FE38F] (AR v2)
Copy OK

Track 13

Filename D:\#New wav + flac\Eric Clapton & The Yardbirds - Historic Classic Recordings\cd 1\13. Eric Clapton & The Yardbirds - Good Morning Little Schoolgirl [Live @ Marquee Club].wav

Peak level 95.4 %
Extraction speed 6.4 X
Track quality 99.9 %
Test CRC A4FDCA7D
Copy CRC A4FDCA7D
Accurately ripped (confidence 1) [FA89D9A6] (AR v2)
Copy OK

Track 14

Filename D:\#New wav + flac\Eric Clapton & The Yardbirds - Historic Classic Recordings\cd 1\14. Eric Clapton & The Yardbirds - Five Long Years [Live @ Marquee Club].wav

Peak level 97.0 %
Extraction speed 9.2 X
Track quality 100.0 %
Test CRC 6D7A3463
Copy CRC 6D7A3463
Accurately ripped (confidence 1) [71B4B5CB] (AR v2)
Copy OK

Track 15

Filename D:\#New wav + flac\Eric Clapton & The Yardbirds - Historic Classic Recordings\cd 1\15. Eric Clapton & The Yardbirds - Here 'Tis [Live @ Marquee Club].wav

Peak level 86.4 %
Extraction speed 9.7 X
Track quality 100.0 %
Test CRC A0F38F3A
Copy CRC A0F38F3A
Accurately ripped (confidence 1) [85368A97] (AR v2)
Copy OK

Track 16

Filename D:\#New wav + flac\Eric Clapton & The Yardbirds - Historic Classic Recordings\cd 1\16. Eric Clapton & The Yardbirds - Pretty Girl [Live @ Marquee Club].wav

Peak level 100.0 %
Extraction speed 9.4 X
Track quality 100.0 %
Test CRC B2DB3E34
Copy CRC B2DB3E34
Accurately ripped (confidence 1) [E5AB7463] (AR v2)
Copy OK

Track 17

Filename D:\#New wav + flac\Eric Clapton & The Yardbirds - Historic Classic Recordings\cd 1\17. Eric Clapton & The Yardbirds - I'm a Man [Live @ Marquee Club].wav

Peak level 76.7 %
Extraction speed 10.3 X
Track quality 100.0 %
Test CRC 1AB55295
Copy CRC 1AB55295
Cannot be verified as accurate (confidence 1) [3368365C], AccurateRip returned [A19BDC7B] (AR v2)
Copy OK

Track 18

Filename D:\#New wav + flac\Eric Clapton & The Yardbirds - Historic Classic Recordings\cd 1\18. Eric Clapton & The Yardbirds - She's so Respectable [Live @ Marquee Club].wav

Peak level 96.4 %
Extraction speed 10.7 X
Track quality 100.0 %
Test CRC 922D0836
Copy CRC 922D0836
Accurately ripped (confidence 1) [3B65C9B0] (AR v2)
Copy OK


17 track(s) accurately ripped
1 track(s) could not be verified as accurate

Some tracks could not be verified as accurate

No errors occurred

End of status report

–– CUETools DB Plugin V2.1.6

[CTDB TOCID: QXZbG9ieIgV6vMHAJTnWUPPYsDQ-] disk not present in database
Submit result: QXZbG9ieIgV6vMHAJTnWUPPYsDQ- has been uploaded


==== Log checksum 2CBAC094E696DA172B00CB73E7C05B4D77DF36F17695F8339AC8F8AF9578B57B ====
Exact Audio Copy V1.3 from 2. September 2016

EAC extraction logfile from 23. June 2019, 16:00

Eric Clapton & The Yardbirds / Historic Classic Recordings

Used drive : PLEXTOR PX-891SAF Adapter: 1 ID: 0

Read mode : Secure
Utilize accurate stream : Yes
Defeat audio cache : Yes
Make use of C2 pointers : No

Read offset correction : 6
Overread into Lead-In and Lead-Out : No
Fill up missing offset samples with silence : Yes
Delete leading and trailing silent blocks : No
Null samples used in CRC calculations : Yes
Used interface : Native Win32 interface for Win NT & 2000
Gap handling : Appended to previous track

Used output format : User Defined Encoder
Selected bitrate : 1024 kBit/s
Quality : High
Add ID3 tag : No
Command line compressor : C:\Program Files (x86)\Exact Audio Copy\Flac\flac.exe
Additional command line options : -8 -V -T "ARTIST=%artist%" -T "TITLE=%title%" -T "ALBUM=%albumtitle%" -T "DATE=%year%" -T "TRACKNUMBER=%tracknr%" -T "GENRE=%genre%" -T "PERFORMER=%albuminterpret%" -T "COMPOSER=%composer%" %haslyrics%–tag-from-file=LYRICS="%lyricsfile%"%haslyrics% -T "ALBUMARTIST=%albumartist%" -T "DISCNUMBER=%cdnumber%" -T "TOTALDISCS=%totalcds%" -T "TOTALTRACKS=%numtracks%" -T "COMMENT=%comment%" %source% -o %dest%


TOC of the extracted CD

Track | Start | Length | Start sector | End sector
––––––––––––––––––––––––––––-
1 | 0:00.00 | 2:40.59 | 0 | 12058
2 | 2:40.59 | 3:56.27 | 12059 | 29785
3 | 6:37.11 | 1:24.29 | 29786 | 36114
4 | 8:01.40 | 2:18.15 | 36115 | 46479
5 | 10:19.55 | 2:18.65 | 46480 | 56894
6 | 12:38.45 | 2:18.10 | 56895 | 67254
7 | 14:56.55 | 2:48.32 | 67255 | 79886
8 | 17:45.12 | 2:29.43 | 79887 | 91104
9 | 20:14.55 | 3:04.51 | 91105 | 104955
10 | 23:19.31 | 6:48.35 | 104956 | 135590
11 | 30:07.66 | 2:31.63 | 135591 | 146978
12 | 32:39.54 | 4:11.02 | 146979 | 165805
13 | 36:50.56 | 3:07.49 | 165806 | 179879
14 | 39:58.30 | 3:49.20 | 179880 | 197074
15 | 43:47.50 | 5:09.04 | 197075 | 220253
16 | 48:56.54 | 4:13.69 | 220254 | 239297
17 | 53:10.48 | 5:18.32 | 239298 | 263179
18 | 58:29.05 | 4:06.66 | 263180 | 281695


Track 1

Filename D:\#New wav + flac\Eric Clapton & The Yardbirds - Historic Classic Recordings\cd 2\01. Eric Clapton & The Yardbirds - Baby What's Wrong.wav

Pre-gap length 0:00:02.00

Peak level 100.0 %
Extraction speed 4.8 X
Track quality 100.0 %
Test CRC C574A551
Copy CRC C574A551
Track not present in AccurateRip database
Copy OK

Track 2

Filename D:\#New wav + flac\Eric Clapton & The Yardbirds - Historic Classic Recordings\cd 2\02. Eric Clapton & The Yardbirds - Mr. You're a Better Man Than I.wav

Peak level 86.4 %
Extraction speed 4.6 X
Track quality 99.9 %
Test CRC 86A23784
Copy CRC 86A23784
Track not present in AccurateRip database
Copy OK

Track 3

Filename D:\#New wav + flac\Eric Clapton & The Yardbirds - Historic Classic Recordings\cd 2\03. Eric Clapton & The Yardbirds & Jimmy Page - Choker.wav

Peak level 78.2 %
Extraction speed 4.7 X
Track quality 100.0 %
Test CRC 40784745
Copy CRC 40784745
Track not present in AccurateRip database
Copy OK

Track 4

Filename D:\#New wav + flac\Eric Clapton & The Yardbirds - Historic Classic Recordings\cd 2\04. Eric Clapton & The Yardbirds - Honey in Your Hips.wav

Peak level 97.1 %
Extraction speed 5.6 X
Track quality 100.0 %
Test CRC E740DA67
Copy CRC E740DA67
Track not present in AccurateRip database
Copy OK

Track 5

Filename D:\#New wav + flac\Eric Clapton & The Yardbirds - Historic Classic Recordings\cd 2\05. Eric Clapton & The Yardbirds - West Coast Idea.wav

Peak level 71.5 %
Extraction speed 5.8 X
Track quality 100.0 %
Test CRC 78B09A77
Copy CRC 78B09A77
Track not present in AccurateRip database
Copy OK

Track 6

Filename D:\#New wav + flac\Eric Clapton & The Yardbirds - Historic Classic Recordings\cd 2\06. Eric Clapton & The Yardbirds - I Wish You Would.wav

Peak level 73.3 %
Extraction speed 4.5 X
Track quality 99.9 %
Test CRC 2F08D6B1
Copy CRC 2F08D6B1
Track not present in AccurateRip database
Copy OK

Track 7

Filename D:\#New wav + flac\Eric Clapton & The Yardbirds - Historic Classic Recordings\cd 2\07. Eric Clapton & The Yardbirds & Jimmy Page - Freight Loader.wav

Peak level 87.9 %
Extraction speed 6.5 X
Track quality 100.0 %
Test CRC 716E38FA
Copy CRC 716E38FA
Track not present in AccurateRip database
Copy OK

Track 8

Filename D:\#New wav + flac\Eric Clapton & The Yardbirds - Historic Classic Recordings\cd 2\08. Eric Clapton & The Yardbirds - Snake Drive.wav

Peak level 100.0 %
Extraction speed 6.6 X
Track quality 100.0 %
Test CRC 713F35E9
Copy CRC 713F35E9
Track not present in AccurateRip database
Copy OK

Track 9

Filename D:\#New wav + flac\Eric Clapton & The Yardbirds - Historic Classic Recordings\cd 2\09. Eric Clapton & The Yardbirds - Jeff's Blues.wav

Peak level 93.0 %
Extraction speed 7.1 X
Track quality 100.0 %
Test CRC 8F08C2B1
Copy CRC 8F08C2B1
Track not present in AccurateRip database
Copy OK

Track 10

Filename D:\#New wav + flac\Eric Clapton & The Yardbirds - Historic Classic Recordings\cd 2\10. Eric Clapton & The Yardbirds - Smokestack Lightning [Live @ Crawdaddy Club].wav

Peak level 80.4 %
Extraction speed 8.3 X
Track quality 100.0 %
Test CRC 7CCA0B84
Copy CRC 7CCA0B84
Track not present in AccurateRip database
Copy OK

Track 11

Filename D:\#New wav + flac\Eric Clapton & The Yardbirds - Historic Classic Recordings\cd 2\11. Eric Clapton & The Yardbirds - Bye-Bye Bird [Live @ Crawdaddy Club].wav

Peak level 71.5 %
Extraction speed 7.6 X
Track quality 100.0 %
Test CRC DBD485C0
Copy CRC DBD485C0
Track not present in AccurateRip database
Copy OK

Track 12

Filename D:\#New wav + flac\Eric Clapton & The Yardbirds - Historic Classic Recordings\cd 2\12. Eric Clapton & The Yardbirds - Take It Easy Baby [Live @ Crawdaddy Club].wav

Peak level 97.2 %
Extraction speed 8.5 X
Track quality 100.0 %
Test CRC F0CD2C01
Copy CRC F0CD2C01
Track not present in AccurateRip database
Copy OK

Track 13

Filename D:\#New wav + flac\Eric Clapton & The Yardbirds - Historic Classic Recordings\cd 2\13. Eric Clapton & The Yardbirds - Out on the Water Coast [Live @ Crawdaddy Club].wav

Peak level 90.2 %
Extraction speed 8.6 X
Track quality 100.0 %
Test CRC B3F80546
Copy CRC B3F80546
Track not present in AccurateRip database
Copy OK

Track 14

Filename D:\#New wav + flac\Eric Clapton & The Yardbirds - Historic Classic Recordings\cd 2\14. Eric Clapton & The Yardbirds - Pontiac Blues [Live @ Crawdaddy Club].wav

Peak level 97.0 %
Extraction speed 9.0 X
Track quality 100.0 %
Test CRC 6C4BE1EE
Copy CRC 6C4BE1EE
Track not present in AccurateRip database
Copy OK

Track 15

Filename D:\#New wav + flac\Eric Clapton & The Yardbirds - Historic Classic Recordings\cd 2\15. Eric Clapton & The Yardbirds - Twenty-Three Hours Too Long [Live @ Crawdaddy Club].wav

Peak level 90.8 %
Extraction speed 8.2 X
Track quality 99.9 %
Test CRC 17AB3325
Copy CRC 17AB3325
Track not present in AccurateRip database
Copy OK

Track 16

Filename D:\#New wav + flac\Eric Clapton & The Yardbirds - Historic Classic Recordings\cd 2\16. Eric Clapton & The Yardbirds - Do the Weston [Live @ Crawdaddy Club].wav

Peak level 67.4 %
Extraction speed 9.7 X
Track quality 100.0 %
Test CRC 57F84A37
Copy CRC 57F84A37
Track not present in AccurateRip database
Copy OK

Track 17

Filename D:\#New wav + flac\Eric Clapton & The Yardbirds - Historic Classic Recordings\cd 2\17. Eric Clapton & The Yardbirds - The River Rhine [Live @ Crawdaddy Club].wav

Peak level 97.5 %
Extraction speed 10.3 X
Track quality 100.0 %
Test CRC 3CC9711C
Copy CRC 3CC9711C
Track not present in AccurateRip database
Copy OK

Track 18

Filename D:\#New wav + flac\Eric Clapton & The Yardbirds - Historic Classic Recordings\cd 2\18. Eric Clapton & The Yardbirds - Mister Downchild [Live @ Crawdaddy Club].wav

Peak level 66.0 %
Extraction speed 10.2 X
Track quality 100.0 %
Test CRC 988D001E
Copy CRC 988D001E
Track not present in AccurateRip database
Copy OK


None of the tracks are present in the AccurateRip database

No errors occurred

End of status report

–– CUETools DB Plugin V2.1.6

[CTDB TOCID: ienjgiAfqEDofEH_Yuo4my0MAUA-] disk not present in database
Submit result: ienjgiAfqEDofEH_Yuo4my0MAUA- has been uploaded


==== Log checksum E88596C41E3FA88272448F0656F5C73487A445620DD9E2943F89E1BB1DD49EDA ====

––––––––––––––––––––––––––––––

Exact Audio Copy V1.3 from 2. September 2016

EAC extraction logfile from 23. June 2019, 16:00

Eric Clapton & The Yardbirds / Historic Classic Recordings

Used drive : PLEXTOR PX-891SAF Adapter: 1 ID: 0

Read mode : Secure
Utilize accurate stream : Yes
Defeat audio cache : Yes
Make use of C2 pointers : No

Read offset correction : 6
Overread into Lead-In and Lead-Out : No
Fill up missing offset samples with silence : Yes
Delete leading and trailing silent blocks : No
Null samples used in CRC calculations : Yes
Used interface : Native Win32 interface for Win NT & 2000
Gap handling : Appended to previous track

Used output format : User Defined Encoder
Selected bitrate : 1024 kBit/s
Quality : High
Add ID3 tag : No
Command line compressor : C:\Program Files (x86)\Exact Audio Copy\Flac\flac.exe
Additional command line options : -8 -V -T "ARTIST=%artist%" -T "TITLE=%title%" -T "ALBUM=%albumtitle%" -T "DATE=%year%" -T "TRACKNUMBER=%tracknr%" -T "GENRE=%genre%" -T "PERFORMER=%albuminterpret%" -T "COMPOSER=%composer%" %haslyrics%–tag-from-file=LYRICS="%lyricsfile%"%haslyrics% -T "ALBUMARTIST=%albumartist%" -T "DISCNUMBER=%cdnumber%" -T "TOTALDISCS=%totalcds%" -T "TOTALTRACKS=%numtracks%" -T "COMMENT=%comment%" %source% -o %dest%


TOC of the extracted CD

Track | Start | Length | Start sector | End sector
––––––––––––––––––––––––––––-
1 | 0:00.00 | 2:40.59 | 0 | 12058
2 | 2:40.59 | 3:56.27 | 12059 | 29785
3 | 6:37.11 | 1:24.29 | 29786 | 36114
4 | 8:01.40 | 2:18.15 | 36115 | 46479
5 | 10:19.55 | 2:18.65 | 46480 | 56894
6 | 12:38.45 | 2:18.10 | 56895 | 67254
7 | 14:56.55 | 2:48.32 | 67255 | 79886
8 | 17:45.12 | 2:29.43 | 79887 | 91104
9 | 20:14.55 | 3:04.51 | 91105 | 104955
10 | 23:19.31 | 6:48.35 | 104956 | 135590
11 | 30:07.66 | 2:31.63 | 135591 | 146978
12 | 32:39.54 | 4:11.02 | 146979 | 165805
13 | 36:50.56 | 3:07.49 | 165806 | 179879
14 | 39:58.30 | 3:49.20 | 179880 | 197074
15 | 43:47.50 | 5:09.04 | 197075 | 220253
16 | 48:56.54 | 4:13.69 | 220254 | 239297
17 | 53:10.48 | 5:18.32 | 239298 | 263179
18 | 58:29.05 | 4:06.66 | 263180 | 281695


Track 1

Filename D:\#New wav + flac\Eric Clapton & The Yardbirds - Historic Classic Recordings\cd 2\01. Eric Clapton & The Yardbirds - Baby What's Wrong.wav

Pre-gap length 0:00:02.00

Peak level 100.0 %
Extraction speed 4.8 X
Track quality 100.0 %
Test CRC C574A551
Copy CRC C574A551
Track not present in AccurateRip database
Copy OK

Track 2

Filename D:\#New wav + flac\Eric Clapton & The Yardbirds - Historic Classic Recordings\cd 2\02. Eric Clapton & The Yardbirds - Mr. You're a Better Man Than I.wav

Peak level 86.4 %
Extraction speed 4.6 X
Track quality 99.9 %
Test CRC 86A23784
Copy CRC 86A23784
Track not present in AccurateRip database
Copy OK

Track 3

Filename D:\#New wav + flac\Eric Clapton & The Yardbirds - Historic Classic Recordings\cd 2\03. Eric Clapton & The Yardbirds & Jimmy Page - Choker.wav

Peak level 78.2 %
Extraction speed 4.7 X
Track quality 100.0 %
Test CRC 40784745
Copy CRC 40784745
Track not present in AccurateRip database
Copy OK

Track 4

Filename D:\#New wav + flac\Eric Clapton & The Yardbirds - Historic Classic Recordings\cd 2\04. Eric Clapton & The Yardbirds - Honey in Your Hips.wav

Peak level 97.1 %
Extraction speed 5.6 X
Track quality 100.0 %
Test CRC E740DA67
Copy CRC E740DA67
Track not present in AccurateRip database
Copy OK

Track 5

Filename D:\#New wav + flac\Eric Clapton & The Yardbirds - Historic Classic Recordings\cd 2\05. Eric Clapton & The Yardbirds - West Coast Idea.wav

Peak level 71.5 %
Extraction speed 5.8 X
Track quality 100.0 %
Test CRC 78B09A77
Copy CRC 78B09A77
Track not present in AccurateRip database
Copy OK

Track 6

Filename D:\#New wav + flac\Eric Clapton & The Yardbirds - Historic Classic Recordings\cd 2\06. Eric Clapton & The Yardbirds - I Wish You Would.wav

Peak level 73.3 %
Extraction speed 4.5 X
Track quality 99.9 %
Test CRC 2F08D6B1
Copy CRC 2F08D6B1
Track not present in AccurateRip database
Copy OK

Track 7

Filename D:\#New wav + flac\Eric Clapton & The Yardbirds - Historic Classic Recordings\cd 2\07. Eric Clapton & The Yardbirds & Jimmy Page - Freight Loader.wav

Peak level 87.9 %
Extraction speed 6.5 X
Track quality 100.0 %
Test CRC 716E38FA
Copy CRC 716E38FA
Track not present in AccurateRip database
Copy OK

Track 8

Filename D:\#New wav + flac\Eric Clapton & The Yardbirds - Historic Classic Recordings\cd 2\08. Eric Clapton & The Yardbirds - Snake Drive.wav

Peak level 100.0 %
Extraction speed 6.6 X
Track quality 100.0 %
Test CRC 713F35E9
Copy CRC 713F35E9
Track not present in AccurateRip database
Copy OK

Track 9

Filename D:\#New wav + flac\Eric Clapton & The Yardbirds - Historic Classic Recordings\cd 2\09. Eric Clapton & The Yardbirds - Jeff's Blues.wav

Peak level 93.0 %
Extraction speed 7.1 X
Track quality 100.0 %
Test CRC 8F08C2B1
Copy CRC 8F08C2B1
Track not present in AccurateRip database
Copy OK

Track 10

Filename D:\#New wav + flac\Eric Clapton & The Yardbirds - Historic Classic Recordings\cd 2\10. Eric Clapton & The Yardbirds - Smokestack Lightning [Live @ Crawdaddy Club].wav

Peak level 80.4 %
Extraction speed 8.3 X
Track quality 100.0 %
Test CRC 7CCA0B84
Copy CRC 7CCA0B84
Track not present in AccurateRip database
Copy OK

Track 11

Filename D:\#New wav + flac\Eric Clapton & The Yardbirds - Historic Classic Recordings\cd 2\11. Eric Clapton & The Yardbirds - Bye-Bye Bird [Live @ Crawdaddy Club].wav

Peak level 71.5 %
Extraction speed 7.6 X
Track quality 100.0 %
Test CRC DBD485C0
Copy CRC DBD485C0
Track not present in AccurateRip database
Copy OK

Track 12

Filename D:\#New wav + flac\Eric Clapton & The Yardbirds - Historic Classic Recordings\cd 2\12. Eric Clapton & The Yardbirds - Take It Easy Baby [Live @ Crawdaddy Club].wav

Peak level 97.2 %
Extraction speed 8.5 X
Track quality 100.0 %
Test CRC F0CD2C01
Copy CRC F0CD2C01
Track not present in AccurateRip database
Copy OK

Track 13

Filename D:\#New wav + flac\Eric Clapton & The Yardbirds - Historic Classic Recordings\cd 2\13. Eric Clapton & The Yardbirds - Out on the Water Coast [Live @ Crawdaddy Club].wav

Peak level 90.2 %
Extraction speed 8.6 X
Track quality 100.0 %
Test CRC B3F80546
Copy CRC B3F80546
Track not present in AccurateRip database
Copy OK

Track 14

Filename D:\#New wav + flac\Eric Clapton & The Yardbirds - Historic Classic Recordings\cd 2\14. Eric Clapton & The Yardbirds - Pontiac Blues [Live @ Crawdaddy Club].wav

Peak level 97.0 %
Extraction speed 9.0 X
Track quality 100.0 %
Test CRC 6C4BE1EE
Copy CRC 6C4BE1EE
Track not present in AccurateRip database
Copy OK

Track 15

Filename D:\#New wav + flac\Eric Clapton & The Yardbirds - Historic Classic Recordings\cd 2\15. Eric Clapton & The Yardbirds - Twenty-Three Hours Too Long [Live @ Crawdaddy Club].wav

Peak level 90.8 %
Extraction speed 8.2 X
Track quality 99.9 %
Test CRC 17AB3325
Copy CRC 17AB3325
Track not present in AccurateRip database
Copy OK

Track 16

Filename D:\#New wav + flac\Eric Clapton & The Yardbirds - Historic Classic Recordings\cd 2\16. Eric Clapton & The Yardbirds - Do the Weston [Live @ Crawdaddy Club].wav

Peak level 67.4 %
Extraction speed 9.7 X
Track quality 100.0 %
Test CRC 57F84A37
Copy CRC 57F84A37
Track not present in AccurateRip database
Copy OK

Track 17

Filename D:\#New wav + flac\Eric Clapton & The Yardbirds - Historic Classic Recordings\cd 2\17. Eric Clapton & The Yardbirds - The River Rhine [Live @ Crawdaddy Club].wav

Peak level 97.5 %
Extraction speed 10.3 X
Track quality 100.0 %
Test CRC 3CC9711C
Copy CRC 3CC9711C
Track not present in AccurateRip database
Copy OK

Track 18

Filename D:\#New wav + flac\Eric Clapton & The Yardbirds - Historic Classic Recordings\cd 2\18. Eric Clapton & The Yardbirds - Mister Downchild [Live @ Crawdaddy Club].wav

Peak level 66.0 %
Extraction speed 10.2 X
Track quality 100.0 %
Test CRC 988D001E
Copy CRC 988D001E
Track not present in AccurateRip database
Copy OK


None of the tracks are present in the AccurateRip database

No errors occurred

End of status report

–– CUETools DB Plugin V2.1.6

[CTDB TOCID: ienjgiAfqEDofEH_Yuo4my0MAUA-] disk not present in database
Submit result: ienjgiAfqEDofEH_Yuo4my0MAUA- has been uploaded


==== Log checksum E88596C41E3FA88272448F0656F5C73487A445620DD9E2943F89E1BB1DD49EDA ====

Thanks to the Original ripper !