Subcategories

Booker Ervin, Pony Poindexter, Larry Young - Gumbo! (1963) {Prestige PRCD-24229-2 rel 1999}

Posted By: ruskaval
Booker Ervin, Pony Poindexter, Larry Young - Gumbo! (1963) {Prestige PRCD-24229-2 rel 1999}

Booker Ervin, Pony Poindexter, Larry Young - Gumbo! (1963) {Prestige PRCD-24229-2 rel 1999}
EAC rip (secure mode) | FLAC (tracks)+CUE+LOG -> 462 Mb | MP3 @320 -> 175 Mb
Full Artwork @ 600 dpi (jpg) -> 30 Mb | 5% repair rar
© 1963,1999 Prestige / Fantasy | PRCD-24229-2
Jazz / Bop / Saxophone / Organ

Tenor saxophonist Booker Ervin joined alto and soprano saxophonist Pony Poindexter in 1963 on Gumbo, based around the sights and sounds of Poindexter's birthplace, the Crescent City. Poindexter penned the majority of these compositions, providing them with evocative titles of the city: "Creole Girl," "French Market," and "Gumbo Filet." Gumbo finds Ervin playing more straight-ahead than on his exploratory "Book" sessions, which he had begun recording under his name by this time.

The rhythm section on the first 12 cuts include Gildo Mahones on piano, George Tucker on bass, and Jimmie Smith on drums, with trombonist Al Grey making an appearance on four tracks. The remaining four tunes tacked on the CD's conclusion were recorded in January and February 1963, featuring the trio of Ervin, Jerry Thomas on drums, and Larry Young's distinctive Hammond organ virtuosity. "You Don't Know What Love Is" (two takes), "Autumn Leaves," and "Old Folks" had remained unreleased until the appearance of this CD in 1999.

Personnel:
Pony Poindexter - alto saxophone, soprano saxophone
Booker Ervin - tenor saxophone
Al Grey - trombone
Gildo Mahones - piano
Larry Young - organ
George Tucker - bass
Jimmie Smith - drums
Jerry Thomas - drums

tracklist:
01 - Front O'Town
02 - Happy Strut
03 - Creole Girl (aka Melphamiene)
04 - 4-11-44
05 - Back O'Town
06 - Muddy Dust
07 - French Market
08 - Gumbo Filet
09 - Moody's Mood For Love
10 - Blue And Sentimental
11 - Wade In The Water
12 - Absotively Posalutely
13 - You Don't Know What Love Is
14 - You Don't Know What Love Is (alternate)
15 - Autumn Leaves
16 - Old Folks

Exact Audio Copy V1.1 from 23. June 2015

EAC extraction logfile from 30. April 2016, 10:34

Booker Ervin, Pony Poindexter, Larry Young / Gumbo!

Used drive : TSSTcorpCDDVDW SE-208DB Adapter: 1 ID: 0

Read mode : Secure
Utilize accurate stream : Yes
Defeat audio cache : Yes
Make use of C2 pointers : No

Read offset correction : 6
Overread into Lead-In and Lead-Out : No
Fill up missing offset samples with silence : Yes
Delete leading and trailing silent blocks : No
Null samples used in CRC calculations : Yes
Used interface : Native Win32 interface for Win NT & 2000
Gap handling : Appended to previous track

Used output format : User Defined Encoder
Selected bitrate : 1024 kBit/s
Quality : High
Add ID3 tag : No
Command line compressor : C:\Program Files (x86)\FLAC Frontend\tools\flac.exe
Additional command line options : -8 -V -T "ARTIST=%artist%" -T "TITLE=%title%" -T "ALBUM=%albumtitle%" -T "DATE=%year%" -T "TRACKNUMBER=%tracknr%" -T "TOTALTRACKS=%numtracks%" -T "GENRE=%genre%" -T "ALBUMARTIST=%albumartist%" -T "ALBUM ARTIST=%albumartist%" -T "COMMENT=EAC Secure Mode, Test & Copy, AccurateRip, FLAC -8" %source%


TOC of the extracted CD

Track | Start | Length | Start sector | End sector
––––––––––––––––––––––––––––-
1 | 0:00.00 | 5:08.32 | 0 | 23131
2 | 5:08.32 | 2:57.63 | 23132 | 36469
3 | 8:06.20 | 4:07.40 | 36470 | 55034
4 | 12:13.60 | 2:59.65 | 55035 | 68524
5 | 15:13.50 | 4:12.17 | 68525 | 87441
6 | 19:25.67 | 4:32.43 | 87442 | 107884
7 | 23:58.35 | 4:48.50 | 107885 | 129534
8 | 28:47.10 | 3:19.65 | 129535 | 144524
9 | 32:07.00 | 5:16.65 | 144525 | 168289
10 | 37:23.65 | 2:55.47 | 168290 | 181461
11 | 40:19.37 | 3:47.70 | 181462 | 198556
12 | 44:07.32 | 6:41.10 | 198557 | 228641
13 | 50:48.42 | 6:03.03 | 228642 | 255869
14 | 56:51.45 | 6:05.65 | 255870 | 283309
15 | 62:57.35 | 4:19.37 | 283310 | 302771
16 | 67:16.72 | 8:21.05 | 302772 | 340351


Track 1

Filename D:\_EAC\Booker Ervin, Pony Poindexter, Larry Young - Gumbo! (1963) [FLAC] {Prestige PRCD-24229-2 rel 1999}\01 - Front O'Town.wav

Pre-gap length 0:00:02.00

Peak level 80.7 %
Extraction speed 1.2 X
Track quality 99.9 %
Test CRC CDFC7630
Copy CRC CDFC7630
Accurately ripped (confidence 2) [9FC870AB] (AR v2)
Copy OK

Track 2

Filename D:\_EAC\Booker Ervin, Pony Poindexter, Larry Young - Gumbo! (1963) [FLAC] {Prestige PRCD-24229-2 rel 1999}\02 - Happy Strut.wav

Peak level 100.0 %
Extraction speed 1.3 X
Track quality 100.0 %
Test CRC D3254199
Copy CRC D3254199
Accurately ripped (confidence 2) [FBC8D267] (AR v2)
Copy OK

Track 3

Filename D:\_EAC\Booker Ervin, Pony Poindexter, Larry Young - Gumbo! (1963) [FLAC] {Prestige PRCD-24229-2 rel 1999}\03 - Creole Girl (aka Melphamiene).wav

Peak level 100.0 %
Extraction speed 1.5 X
Track quality 100.0 %
Test CRC 3E9DE332
Copy CRC 3E9DE332
Accurately ripped (confidence 2) [B4010853] (AR v2)
Copy OK

Track 4

Filename D:\_EAC\Booker Ervin, Pony Poindexter, Larry Young - Gumbo! (1963) [FLAC] {Prestige PRCD-24229-2 rel 1999}\04 - 4-11-44.wav

Peak level 100.0 %
Extraction speed 1.5 X
Track quality 100.0 %
Test CRC F1F9001B
Copy CRC F1F9001B
Accurately ripped (confidence 2) [0B853D24] (AR v2)
Copy OK

Track 5

Filename D:\_EAC\Booker Ervin, Pony Poindexter, Larry Young - Gumbo! (1963) [FLAC] {Prestige PRCD-24229-2 rel 1999}\05 - Back O'Town.wav

Peak level 88.7 %
Extraction speed 1.7 X
Track quality 100.0 %
Test CRC 5B777562
Copy CRC 5B777562
Accurately ripped (confidence 2) [6761CE09] (AR v2)
Copy OK

Track 6

Filename D:\_EAC\Booker Ervin, Pony Poindexter, Larry Young - Gumbo! (1963) [FLAC] {Prestige PRCD-24229-2 rel 1999}\06 - Muddy Dust.wav

Peak level 93.5 %
Extraction speed 1.6 X
Track quality 99.9 %
Test CRC 49BCA07E
Copy CRC 49BCA07E
Accurately ripped (confidence 2) [91249786] (AR v2)
Copy OK

Track 7

Filename D:\_EAC\Booker Ervin, Pony Poindexter, Larry Young - Gumbo! (1963) [FLAC] {Prestige PRCD-24229-2 rel 1999}\07 - French Market.wav

Peak level 80.4 %
Extraction speed 1.9 X
Track quality 100.0 %
Test CRC 3A912384
Copy CRC 3A912384
Accurately ripped (confidence 2) [10418B9A] (AR v2)
Copy OK

Track 8

Filename D:\_EAC\Booker Ervin, Pony Poindexter, Larry Young - Gumbo! (1963) [FLAC] {Prestige PRCD-24229-2 rel 1999}\08 - Gumbo Filet.wav

Peak level 100.0 %
Extraction speed 1.6 X
Track quality 99.9 %
Test CRC 29638FC9
Copy CRC 29638FC9
Accurately ripped (confidence 2) [474A8B56] (AR v2)
Copy OK

Track 9

Filename D:\_EAC\Booker Ervin, Pony Poindexter, Larry Young - Gumbo! (1963) [FLAC] {Prestige PRCD-24229-2 rel 1999}\09 - Moody's Mood For Love.wav

Peak level 100.0 %
Extraction speed 2.1 X
Track quality 100.0 %
Test CRC 0B9DE5AD
Copy CRC 0B9DE5AD
Accurately ripped (confidence 2) [053C95BA] (AR v2)
Copy OK

Track 10

Filename D:\_EAC\Booker Ervin, Pony Poindexter, Larry Young - Gumbo! (1963) [FLAC] {Prestige PRCD-24229-2 rel 1999}\10 - Blue And Sentimental.wav

Peak level 78.0 %
Extraction speed 1.7 X
Track quality 99.9 %
Test CRC 0D6E074A
Copy CRC 0D6E074A
Accurately ripped (confidence 2) [D68D5A06] (AR v2)
Copy OK

Track 11

Filename D:\_EAC\Booker Ervin, Pony Poindexter, Larry Young - Gumbo! (1963) [FLAC] {Prestige PRCD-24229-2 rel 1999}\11 - Wade In The Water.wav

Peak level 100.0 %
Extraction speed 2.1 X
Track quality 100.0 %
Test CRC E2582AAE
Copy CRC E2582AAE
Accurately ripped (confidence 2) [D8436DF1] (AR v2)
Copy OK

Track 12

Filename D:\_EAC\Booker Ervin, Pony Poindexter, Larry Young - Gumbo! (1963) [FLAC] {Prestige PRCD-24229-2 rel 1999}\12 - Absotively Posalutely.wav

Peak level 87.0 %
Extraction speed 2.4 X
Track quality 100.0 %
Test CRC FC63666D
Copy CRC FC63666D
Accurately ripped (confidence 2) [64D5ADB6] (AR v2)
Copy OK

Track 13

Filename D:\_EAC\Booker Ervin, Pony Poindexter, Larry Young - Gumbo! (1963) [FLAC] {Prestige PRCD-24229-2 rel 1999}\13 - You Don't Know What Love Is.wav

Peak level 81.6 %
Extraction speed 2.5 X
Track quality 100.0 %
Test CRC B2AC121D
Copy CRC B2AC121D
Accurately ripped (confidence 2) [DD7A6B54] (AR v2)
Copy OK

Track 14

Filename D:\_EAC\Booker Ervin, Pony Poindexter, Larry Young - Gumbo! (1963) [FLAC] {Prestige PRCD-24229-2 rel 1999}\14 - You Don't Know What Love Is (alternate).wav

Peak level 72.2 %
Extraction speed 2.3 X
Track quality 99.9 %
Test CRC B6670DF9
Copy CRC B6670DF9
Accurately ripped (confidence 2) [354D1E2D] (AR v2)
Copy OK

Track 15

Filename D:\_EAC\Booker Ervin, Pony Poindexter, Larry Young - Gumbo! (1963) [FLAC] {Prestige PRCD-24229-2 rel 1999}\15 - Autumn Leaves.wav

Peak level 80.2 %
Extraction speed 2.5 X
Track quality 100.0 %
Test CRC D2209B63
Copy CRC D2209B63
Accurately ripped (confidence 2) [A52379B3] (AR v2)
Copy OK

Track 16

Filename D:\_EAC\Booker Ervin, Pony Poindexter, Larry Young - Gumbo! (1963) [FLAC] {Prestige PRCD-24229-2 rel 1999}\16 - Old Folks.wav

Peak level 92.4 %
Extraction speed 2.8 X
Track quality 100.0 %
Test CRC 79AB5BDE
Copy CRC 79AB5BDE
Accurately ripped (confidence 2) [5A79D59F] (AR v2)
Copy OK


All tracks accurately ripped

No errors occurred

End of status report

==== Log checksum 17D95A5913D72449FEC96753F9D051445825F5CE97DA14D6AF607FF160CDE718 ====


Booker Ervin, Pony Poindexter, Larry Young - Gumbo! (1963) {Prestige PRCD-24229-2 rel 1999}

Booker Ervin, Pony Poindexter, Larry Young - Gumbo! (1963) {Prestige PRCD-24229-2 rel 1999}


thanks to next_door for the subject…