Subcategories

ESP 2.0 - 22 Layers Of Sunlight (2018)

Posted By: Domestos
ESP 2.0 - 22 Layers Of Sunlight (2018)

ESP 2.0 - 22 Layers Of Sunlight (2018)
EAC Rip | FLAC (tracks+.cue, log) ~ 409.21 Mb + 61.26 Mb (Scans) | MP3 CBR 320kbps ~ 138.08 Mb | 01:00:04
Crossover Progressive Rock | Country: UK | Label: Sunn Creative - SUNNC1801

‘22 Layers Of Sunlight’ – Album Line-Up is the new collaboration between Tony Lowe (Cross & Fripp / Simon Townshend / Bram Stoker) Peter Coyle (ex-Lotus Eaters) and Mark Brzezicki (Procol Harum / The Cult / Phil Collins). 4/5**** "ESP 2.0 have done it again with another album full of intriguing and enjoyable music. ’22 Layers Of Sunlight’ will certainly propel them further into the upper echelons of progressive music." Jason Ritchie - Get Ready to Rock

"Having heard the whole album, I can only say, it's a cracker! I thought the first album was great, but this has surpassed that one, well done!" Campbell Stewart

“…it’s good to see Lowe and Coyle with their own agenda and what they do on their own terms…and on their own terms comes a grand concept…the album presents a lush listen…what stands out are the congenial and extended song arrangements…all controlled and contained in a warm and rich decoration.” POWERPLAY Issue 207

Coming after the successful debut of their first album ‘Invisible Din’, the 2016 release which earned over 14 top reviews by the music industry; this incarnation features Peter Coyle, formerly of The Lotus Eaters, joining forces with renowned composer/producer Tony Lowe to write these deeply evocative and stunningly original songs, merging passionate vocals and intricate soundscapes. Sometimes using complex rhythmic structures – supplied by ace session drummer Mark Brzezicki, overlaid with modern progressive rock elements and orchestral movements, the music creates an intense, dramatic but ultimately uplifting experience. 60+ minutes

Track List:
01. God Of Denial - The Code 08:03
02. Algorithm 04:06
03. 22 Layers Of Sunlight 06:24
04. Ride Through Reality 03:56
05. Smiling Forever 06:36
06. Butterfly Suite 09:04
07. Sensual Earth 07:44
08. Gunshot Lips 07:28
09. The Ballad Of Broken Hearts 06:40

Line-Up:
Peter Coyle - Vocals
Tony Lowe - Guitars, Keyboards
Pete Clark - Bass
Richard Smith - Keyboards
Mark Brzezicki - Drums

ESP 2.0 - 22 Layers Of Sunlight (2018)

Exact Audio Copy V1.3 from 2. September 2016

EAC extraction logfile from 19. April 2018, 17:18

ESP 2.0 / 22 Layers of Sunlight

Used drive : ATAPI iHAS122 F Adapter: 1 ID: 0

Read mode : Secure
Utilize accurate stream : Yes
Defeat audio cache : Yes
Make use of C2 pointers : No

Read offset correction : 6
Overread into Lead-In and Lead-Out : No
Fill up missing offset samples with silence : Yes
Delete leading and trailing silent blocks : No
Null samples used in CRC calculations : Yes
Used interface : Native Win32 interface for Win NT & 2000
Gap handling : Appended to previous track

Used output format : User Defined Encoder
Selected bitrate : 1024 kBit/s
Quality : High
Add ID3 tag : Yes
Command line compressor : C:\Program Files (x86)\Exact Audio Copy\Flac\flac.exe
Additional command line options : -6 -V -T "ARTIST=%artist%" -T "TITLE=%title%" -T "ALBUM=%albumtitle%" -T "DATE=%year%" -T "TRACKNUMBER=%tracknr%" -T "GENRE=%genre%" -T "COMMENT=%comment%" %hascover%–picture="%coverfile%"%hascover% %source% -o %dest%

TOC of the extracted CD

Track | Start | Length | Start sector | End sector
––––––––––––––––––––––––––––-
1 | 0:00.00 | 8:03.39 | 0 | 36263
2 | 8:03.39 | 4:06.59 | 36264 | 54772
3 | 12:10.23 | 6:24.48 | 54773 | 83620
4 | 18:34.71 | 3:56.11 | 83621 | 101331
5 | 22:31.07 | 6:35.74 | 101332 | 131030
6 | 29:07.06 | 9:04.02 | 131031 | 171832
7 | 38:11.08 | 7:44.61 | 171833 | 206693
8 | 45:55.69 | 7:28.11 | 206694 | 240304
9 | 53:24.05 | 6:40.01 | 240305 | 270305

Track 1

Filename E:\Music\olaf_alien\ESP 2.0 - 22 Layers of Sunlight (2018, sunn creative)\01 - God of Denial - the Code.wav

Pre-gap length 0:00:02.00

Peak level 94.5 %
Extraction speed 5.6 X
Track quality 100.0 %
Test CRC 92E7ACE6
Copy CRC 92E7ACE6
Track not present in AccurateRip database
Copy OK

Track 2

Filename E:\Music\olaf_alien\ESP 2.0 - 22 Layers of Sunlight (2018, sunn creative)\02 - Algorithm.wav

Peak level 94.5 %
Extraction speed 6.0 X
Track quality 100.0 %
Test CRC B42E1D9D
Copy CRC B42E1D9D
Track not present in AccurateRip database
Copy OK

Track 3

Filename E:\Music\olaf_alien\ESP 2.0 - 22 Layers of Sunlight (2018, sunn creative)\03 - 22 Layers of Sunlight.wav

Peak level 94.5 %
Extraction speed 6.9 X
Track quality 100.0 %
Test CRC 3A434F29
Copy CRC 3A434F29
Track not present in AccurateRip database
Copy OK

Track 4

Filename E:\Music\olaf_alien\ESP 2.0 - 22 Layers of Sunlight (2018, sunn creative)\04 - Ride Through Reality.wav

Pre-gap length 0:00:00.36

Peak level 94.5 %
Extraction speed 7.1 X
Track quality 100.0 %
Test CRC D18B01AB
Copy CRC D18B01AB
Track not present in AccurateRip database
Copy OK

Track 5

Filename E:\Music\olaf_alien\ESP 2.0 - 22 Layers of Sunlight (2018, sunn creative)\05 - Smiling Forever.wav

Pre-gap length 0:00:00.10

Peak level 94.5 %
Extraction speed 7.9 X
Track quality 100.0 %
Test CRC 66E5262B
Copy CRC 66E5262B
Track not present in AccurateRip database
Copy OK

Track 6

Filename E:\Music\olaf_alien\ESP 2.0 - 22 Layers of Sunlight (2018, sunn creative)\06 - Butterfly Suite.wav

Pre-gap length 0:00:00.41

Peak level 94.5 %
Extraction speed 8.8 X
Track quality 100.0 %
Test CRC FBD5AFFC
Copy CRC FBD5AFFC
Track not present in AccurateRip database
Copy OK

Track 7

Filename E:\Music\olaf_alien\ESP 2.0 - 22 Layers of Sunlight (2018, sunn creative)\07 - Sensual Earth.wav

Pre-gap length 0:00:00.39

Peak level 95.6 %
Extraction speed 8.4 X
Track quality 99.9 %
Test CRC E040F374
Copy CRC E040F374
Track not present in AccurateRip database
Copy OK

Track 8

Filename E:\Music\olaf_alien\ESP 2.0 - 22 Layers of Sunlight (2018, sunn creative)\08 - Gunshot Lips.wav

Pre-gap length 0:00:00.74

Peak level 94.5 %
Extraction speed 9.9 X
Track quality 100.0 %
Test CRC D2226082
Copy CRC D2226082
Track not present in AccurateRip database
Copy OK

Track 9

Filename E:\Music\olaf_alien\ESP 2.0 - 22 Layers of Sunlight (2018, sunn creative)\09 - The Ballad of Broken Hearts.wav

Pre-gap length 0:00:00.65

Peak level 94.5 %
Extraction speed 10.2 X
Track quality 100.0 %
Test CRC 78EF6ADC
Copy CRC 78EF6ADC
Track not present in AccurateRip database
Copy OK

None of the tracks are present in the AccurateRip database

No errors occurred

End of status report

–– CUETools DB Plugin V2.1.6

[CTDB TOCID: KZZyZknLplD4mmSvqz2RmPimhi8-] disk not present in database
Submit result: KZZyZknLplD4mmSvqz2RmPimhi8- has been uploaded

==== Log checksum 40A7DE02C22B9AE7E124CF530A0EBEB58A7967393BCD3B5C8D45E9E8C3CE3E4C ====

All thanks go to the Olaf_alien

More Music in My Blog
Follow My RSS Channel