Subcategories

Esbjorn Svensson Trio (E.S.T.) - Live In Hamburg (2007) [2CD] {ACT Music} [repost]

Posted By: ruskaval
Esbjorn Svensson Trio (E.S.T.) - Live In Hamburg (2007) [2CD] {ACT Music} [repost]

Esbjorn Svensson Trio (E.S.T.) - Live In Hamburg (2007) [2CD] {ACT Music}
EAC rip (secure mode) | FLAC (tracks)+CUE+LOG -> 750 Mb | MP3 @320 -> 283 Mb
Full Artwork @ 300 dpi (jpg) -> 26 Mb | 5% repair rar
© 2007 ACT Music | 6002-2
Jazz / Progressive Jazz / Electronic / Piano

In a word: wow. Since their 1993 debut album, the Esbjörn Svensson Trio, or E.S.T., as it is usually called, have taken the jazz world by storm, winning numerous awards, playing sold-out world tours, topping the charts, and generally enjoying a popularity that's exceeded that of almost any other jazz group in years. The trio was also the first European jazz group to grace the cover of Down Beat magazine, which led to long discussions about the heritage of jazz and the validity of European jazz; and, naturally, it caused some listeners to perceive an artificial hype and discredit the band for simply not being as brilliant as everyone says they are.

Well, do yourself a favor and do not listen to the detractors – listen to E.S.T.'s music instead, and this two-hour concert recorded on November 22, 2006 in Hamburg, Germany, is an excellent place to start, since it shows the superb musicianship of pianist Esbjörn Svensson, bassist Dan Berglund, and drummer Magnus Öström minus any studio trickery; it shows their exquisite communication with each other, their daring improvisations, their effortless flow – and most of all, it shows their unique brand of music, where a jazz trio can easily incorporate heavy metal distortion during a song ("Definition of a Dog"), then play a sparse, lovely ballad ("The Goldhearter Miner"), and where funk, classical, and avant-garde music elements are incorporated into a sound that never feels academic or difficult to listen to. The band plays everything with the energy of a rock group (Jim Rakete's liner photography even makes them look like one), and the music is often edgy, but the hypnotic repetitions and the building intensity of many tracks often have an almost trance-like quality. The question whether E.S.T. play jazz or pop or rock is completely beside the point: yes, this is jazz, as jazz has always evolved and incorporated new ideas (and almost all of the important developments in jazz have been derided by critics as not being "true jazz" in their time). Yes, this is pop, as it's accessible and, well, popular. And yes, this is rock, with its energy and recklessness. But essentially, it's just unique and exciting music.

Personnel:
Dan Berglund - double base, percussion
Esbjorn Svensson - grand piano, keyboards, percussion
Magnus Ostrom - drums, percussion

tracklist:
CD1

01. Tuesday Wonderland
02. The Rube Thing
03. Where We Used To Live
04. Eighthundred Streets by Feet
05. Definition of a Dog

CD2
01. The Goldhearted Miner
02. Dolores in a Shoestand
03. Siping on the Solid Ground
04. Goldwrap
05 .Behind the Yashmak

Esbjorn Svensson Trio (E.S.T.) - Live In Hamburg (2007) [2CD] {ACT Music} [repost]

Esbjorn Svensson Trio (E.S.T.) - Live In Hamburg (2007) [2CD] {ACT Music} [repost]

EAC extraction logfile from 8. January 2008, 4:21 for CD
E.S.T. / Live In Hamburg

Used drive : HL-DT-STDVDRAM GSA-H10N Adapter: 0 ID: 0
Read mode : Secure with NO C2, accurate stream, disable cache
Read offset correction : 667
Overread into Lead-In and Lead-Out : No

Used output format : C:\Program Files\FLAC\flac.exe (User Defined Encoder)
128 kBit/s
Additional command line options : -8 -V -T "ARTIST=%a" -T "TITLE=%t" -T "ALBUM=%g" -T "DATE=%y" -T "TRACKNUMBER=%n" -T "GENRE=%m" -T "COMMENT=EAC FLAC -8" %s

Other options :
Fill up missing offset samples with silence : Yes
Delete leading and trailing silent blocks : No
Native Win32 interface for Win NT & 2000


Track 1
Filename D:\Torrents\E.S.T. Live in Hamburg (2007)\01 - , Tuesday Wonderland.wav

Pre-gap length 0:00:02.00

Peak level 98.9 %
Track quality 100.0 %
Test CRC C6A7D5E7
Copy CRC C6A7D5E7
Copy OK

Track 2
Filename D:\Torrents\E.S.T. Live in Hamburg (2007)\02 - , The Rube Thing.wav

Peak level 98.9 %
Track quality 100.0 %
Test CRC 8E64465A
Copy CRC 8E64465A
Copy OK

Track 3
Filename D:\Torrents\E.S.T. Live in Hamburg (2007)\03 - , Where We Used To Live.wav

Peak level 98.9 %
Track quality 100.0 %
Test CRC CD849079
Copy CRC CD849079
Copy OK

Track 4
Filename D:\Torrents\E.S.T. Live in Hamburg (2007)\04 - , 800 Streets By Feet.wav

Peak level 98.9 %
Track quality 100.0 %
Test CRC 5BC8F674
Copy CRC 5BC8F674
Copy OK

Track 5
Filename D:\Torrents\E.S.T. Live in Hamburg (2007)\05 - , Definition Of A Dog.wav

Peak level 98.9 %
Track quality 100.0 %
Test CRC FC6F6346
Copy CRC FC6F6346
Copy OK

No errors occured


End of status report

––––––––––––––––––––––––––––––

EAC extraction logfile from 8. January 2008, 4:21 for CD
E.S.T. / Live In Hamburg

Used drive : HL-DT-STDVDRAM GSA-H10N Adapter: 0 ID: 0
Read mode : Secure with NO C2, accurate stream, disable cache
Read offset correction : 667
Overread into Lead-In and Lead-Out : No

Used output format : C:\Program Files\FLAC\flac.exe (User Defined Encoder)
128 kBit/s
Additional command line options : -8 -V -T "ARTIST=%a" -T "TITLE=%t" -T "ALBUM=%g" -T "DATE=%y" -T "TRACKNUMBER=%n" -T "GENRE=%m" -T "COMMENT=EAC FLAC -8" %s

Other options :
Fill up missing offset samples with silence : Yes
Delete leading and trailing silent blocks : No
Native Win32 interface for Win NT & 2000


Track 1
Filename D:\Torrents\E.S.T. Live in Hamburg (2007)\01 - , Tuesday Wonderland.wav

Pre-gap length 0:00:02.00

Peak level 98.9 %
Track quality 100.0 %
Test CRC C6A7D5E7
Copy CRC C6A7D5E7
Copy OK

Track 2
Filename D:\Torrents\E.S.T. Live in Hamburg (2007)\02 - , The Rube Thing.wav

Peak level 98.9 %
Track quality 100.0 %
Test CRC 8E64465A
Copy CRC 8E64465A
Copy OK

Track 3
Filename D:\Torrents\E.S.T. Live in Hamburg (2007)\03 - , Where We Used To Live.wav

Peak level 98.9 %
Track quality 100.0 %
Test CRC CD849079
Copy CRC CD849079
Copy OK

Track 4
Filename D:\Torrents\E.S.T. Live in Hamburg (2007)\04 - , 800 Streets By Feet.wav

Peak level 98.9 %
Track quality 100.0 %
Test CRC 5BC8F674
Copy CRC 5BC8F674
Copy OK

Track 5
Filename D:\Torrents\E.S.T. Live in Hamburg (2007)\05 - , Definition Of A Dog.wav

Peak level 98.9 %
Track quality 100.0 %
Test CRC FC6F6346
Copy CRC FC6F6346
Copy OK

No errors occured


End of status report

EAC extraction logfile from 8. January 2008, 12:59 for CD
E.S.T. / Live In Hamburg

Used drive : HL-DT-STDVDRAM GSA-H10N Adapter: 0 ID: 0
Read mode : Secure with NO C2, accurate stream, disable cache
Read offset correction : 667
Overread into Lead-In and Lead-Out : No

Used output format : C:\Program Files\FLAC\flac.exe (User Defined Encoder)
128 kBit/s
Additional command line options : -8 -V -T "ARTIST=%a" -T "TITLE=%t" -T "ALBUM=%g" -T "DATE=%y" -T "TRACKNUMBER=%n" -T "GENRE=%m" -T "COMMENT=EAC FLAC -8" %s

Other options :
Fill up missing offset samples with silence : Yes
Delete leading and trailing silent blocks : No
Native Win32 interface for Win NT & 2000


Track 1
Filename D:\Torrents\E.S.T. - live in Hamburg disc 2\01 - , The Goldhearted Miner.wav

Pre-gap length 0:00:02.00

Peak level 97.9 %
Track quality 100.0 %
Test CRC 1D74F388
Copy CRC 1D74F388
Copy OK

Track 2
Filename D:\Torrents\E.S.T. - live in Hamburg disc 2\02 - , Dolores In A Shoestand.wav

Peak level 98.9 %
Track quality 100.0 %
Test CRC EDFAF35E
Copy CRC EDFAF35E
Copy OK

Track 3
Filename D:\Torrents\E.S.T. - live in Hamburg disc 2\03 - , Sipping On The Solid Ground.wav

Peak level 97.8 %
Track quality 99.9 %
Test CRC BEA68305
Copy CRC BEA68305
Copy OK

Track 4
Filename D:\Torrents\E.S.T. - live in Hamburg disc 2\04 - , Goldwrap.wav

Peak level 98.9 %
Track quality 100.0 %
Test CRC B893A908
Copy CRC B893A908
Copy OK

Track 5
Filename D:\Torrents\E.S.T. - live in Hamburg disc 2\05 - , Behind The Yashmak.wav

Peak level 98.9 %
Track quality 100.0 %
Test CRC 11303C37
Copy CRC 11303C37
Copy OK

No errors occured


End of status report

––––––––––––––––––––––––––––––

EAC extraction logfile from 8. January 2008, 12:59 for CD
E.S.T. / Live In Hamburg

Used drive : HL-DT-STDVDRAM GSA-H10N Adapter: 0 ID: 0
Read mode : Secure with NO C2, accurate stream, disable cache
Read offset correction : 667
Overread into Lead-In and Lead-Out : No

Used output format : C:\Program Files\FLAC\flac.exe (User Defined Encoder)
128 kBit/s
Additional command line options : -8 -V -T "ARTIST=%a" -T "TITLE=%t" -T "ALBUM=%g" -T "DATE=%y" -T "TRACKNUMBER=%n" -T "GENRE=%m" -T "COMMENT=EAC FLAC -8" %s

Other options :
Fill up missing offset samples with silence : Yes
Delete leading and trailing silent blocks : No
Native Win32 interface for Win NT & 2000


Track 1
Filename D:\Torrents\E.S.T. - live in Hamburg disc 2\01 - , The Goldhearted Miner.wav

Pre-gap length 0:00:02.00

Peak level 97.9 %
Track quality 100.0 %
Test CRC 1D74F388
Copy CRC 1D74F388
Copy OK

Track 2
Filename D:\Torrents\E.S.T. - live in Hamburg disc 2\02 - , Dolores In A Shoestand.wav

Peak level 98.9 %
Track quality 100.0 %
Test CRC EDFAF35E
Copy CRC EDFAF35E
Copy OK

Track 3
Filename D:\Torrents\E.S.T. - live in Hamburg disc 2\03 - , Sipping On The Solid Ground.wav

Peak level 97.8 %
Track quality 99.9 %
Test CRC BEA68305
Copy CRC BEA68305
Copy OK

Track 4
Filename D:\Torrents\E.S.T. - live in Hamburg disc 2\04 - , Goldwrap.wav

Peak level 98.9 %
Track quality 100.0 %
Test CRC B893A908
Copy CRC B893A908
Copy OK

Track 5
Filename D:\Torrents\E.S.T. - live in Hamburg disc 2\05 - , Behind The Yashmak.wav

Peak level 98.9 %
Track quality 100.0 %
Test CRC 11303C37
Copy CRC 11303C37
Copy OK

No errors occured


End of status report



All thanks goes to the original releaser!