Subcategories

Esbjorn Svensson Trio (e.s.t.) - Live In Hamburg (2007) {2CD ACT Music ACT 6002-2}

Posted By: ruskaval
Esbjorn Svensson Trio (e.s.t.) - Live In Hamburg (2007) {2CD ACT Music ACT 6002-2}

Esbjorn Svensson Trio (e.s.t.) - Live In Hamburg (2007) {2CD ACT Music ACT 6002-2}
EAC rip (secure mode) | FLAC (tracks)+CUE+LOG -> 750 Mb | MP3 @320 -> 277 Mb
Full Artwork @ 300 dpi (jpg) -> 25 Mb | 5% repair rar
© 2007 ACT Music | ACT 6002-2
Jazz / Modern Jazz / Post Bop / Progressive Jazz / Piano Trio

The “Jazz album of the decade 2000 – 2010” (London Times). In a word: wow. Since their 1993 debut album, the Esbjörn Svensson Trio, or E.S.T., as it is usually called, have taken the jazz world by storm, winning numerous awards, playing sold-out world tours, topping the charts, and generally enjoying a popularity that's exceeded that of almost any other jazz group in years. The trio was also the first European jazz group to grace the cover of Down Beat magazine, which led to long discussions about the heritage of jazz and the validity of European jazz; and, naturally, it caused some listeners to perceive an artificial hype and discredit the band for simply not being as brilliant as everyone says they are.
Esbjorn Svensson Trio (e.s.t.) - Live In Hamburg (2007) {2CD ACT Music ACT 6002-2}

Well, do yourself a favor and do not listen to the detractors – listen to E.S.T.'s music instead, and this two-hour concert recorded on November 22, 2006 in Hamburg, Germany, is an excellent place to start, since it shows the superb musicianship of pianist Esbjörn Svensson, bassist Dan Berglund, and drummer Magnus Öström minus any studio trickery; it shows their exquisite communication with each other, their daring improvisations, their effortless flow – and most of all, it shows their unique brand of music, where a jazz trio can easily incorporate heavy metal distortion during a song ("Definition of a Dog"), then play a sparse, lovely ballad ("The Goldhearter Miner"), and where funk, classical, and avant-garde music elements are incorporated into a sound that never feels academic or difficult to listen to. The band plays everything with the energy of a rock group (Jim Rakete's liner photography even makes them look like one), and the music is often edgy, but the hypnotic repetitions and the building intensity of many tracks often have an almost trance-like quality. The question whether E.S.T. play jazz or pop or rock is completely beside the point: yes, this is jazz, as jazz has always evolved and incorporated new ideas (and almost all of the important developments in jazz have been derided by critics as not being "true jazz" in their time). Yes, this is pop, as it's accessible and, well, popular. And yes, this is rock, with its energy and recklessness. But essentially, it's just unique and exciting music.
Esbjorn Svensson Trio (e.s.t.) - Live In Hamburg (2007) {2CD ACT Music ACT 6002-2}


ACT Music INFO
AAJ INFO


Personnel:
Esbjörn Svensson – piano
Dan Berglund – bass
Magnus Öström - drums

tracklist:
CD1

01 - Tuesday Wonderland
02 - The Rube Thing
03 - Where We Used To Live
04 - 800 Streets By Feet
05 - Definition Of A Dog

Esbjorn Svensson Trio (e.s.t.) - Live In Hamburg (2007) {2CD ACT Music ACT 6002-2}


CD2
01 - The Goldhearted Miner
02 - Dolores In A Shoestand
03 - Sipping On The Solid Ground
04 - Goldwrap
05 - Behind The Yashmak

Esbjorn Svensson Trio (e.s.t.) - Live In Hamburg (2007) {2CD ACT Music ACT 6002-2}


Exact Audio Copy V0.99 prebeta 4 from 23. January 2008

EAC extraction logfile from 23. June 2009, 14:29

E.S.T. / Live In Hamburg (CD1)

Used drive : Optiarc DVD RW AD-5170A Adapter: 0 ID: 0

Read mode : Secure
Utilize accurate stream : Yes
Defeat audio cache : Yes
Make use of C2 pointers : No

Read offset correction : 48
Overread into Lead-In and Lead-Out : No
Fill up missing offset samples with silence : Yes
Delete leading and trailing silent blocks : No
Null samples used in CRC calculations : Yes
Used interface : Native Win32 interface for Win NT & 2000
Gap handling : Appended to previous track

Used output format : User Defined Encoder
Selected bitrate : 320 kBit/s
Quality : High
Add ID3 tag : No
Command line compressor : C:\Program Files\Exact Audio Copy\FLAC\FLAC.EXE
Additional command line options : -V -8 -T "artist=%a" -T "title=%t" -T "album=%g" -T "date=%y" -T "tracknumber=%n" -T "genre=%m" %s


TOC of the extracted CD

Track | Start | Length | Start sector | End sector
––––––––––––––––––––––––––––-
1 | 0:00.00 | 13:12.43 | 0 | 59442
2 | 13:12.43 | 14:23.37 | 59443 | 124204
3 | 27:36.05 | 8:33.43 | 124205 | 162722
4 | 36:09.48 | 9:35.47 | 162723 | 205894
5 | 45:45.20 | 18:36.72 | 205895 | 289666


Track 1

Filename K:\[ Torrents ]\E.S.T\E.S.T. - Live In Hamburg (CD1) (2007) [flac]\01 - , Tuesday Wonderland.wav

Pre-gap length 0:00:02.00

Peak level 98.9 %
Track quality 99.9 %
Test CRC C6A7D5E7
Copy CRC C6A7D5E7
Accurately ripped (confidence 53) [C6A0D666]
Copy OK

Track 2

Filename K:\[ Torrents ]\E.S.T\E.S.T. - Live In Hamburg (CD1) (2007) [flac]\02 - , The Rube Thing.wav

Peak level 98.9 %
Track quality 99.9 %
Test CRC 8E64465A
Copy CRC 8E64465A
Accurately ripped (confidence 53) [38AF09B7]
Copy OK

Track 3

Filename K:\[ Torrents ]\E.S.T\E.S.T. - Live In Hamburg (CD1) (2007) [flac]\03 - , Where We Used To Live.wav

Peak level 98.9 %
Track quality 99.9 %
Test CRC CD849079
Copy CRC CD849079
Accurately ripped (confidence 53) [96A9EFF3]
Copy OK

Track 4

Filename K:\[ Torrents ]\E.S.T\E.S.T. - Live In Hamburg (CD1) (2007) [flac]\04 - , 800 Streets By Feet.wav

Peak level 98.9 %
Track quality 99.2 %
Test CRC 5BC8F674
Copy CRC 5BC8F674
Accurately ripped (confidence 54) [109BBE4C]
Copy OK

Track 5

Filename K:\[ Torrents ]\E.S.T\E.S.T. - Live In Hamburg (CD1) (2007) [flac]\05 - , Definition Of A Dog.wav

Peak level 98.9 %
Track quality 99.8 %
Test CRC 37C3298A
Copy CRC 37C3298A
Accurately ripped (confidence 50) [02C49F8A]
Copy OK


All tracks accurately ripped

No errors occurred

End of status report

Exact Audio Copy V0.99 prebeta 4 from 23. January 2008

EAC extraction logfile from 23. June 2009, 15:35

E.S.T. / Live In Hamburg (CD2)

Used drive : Optiarc DVD RW AD-5170A Adapter: 0 ID: 0

Read mode : Secure
Utilize accurate stream : Yes
Defeat audio cache : Yes
Make use of C2 pointers : No

Read offset correction : 48
Overread into Lead-In and Lead-Out : No
Fill up missing offset samples with silence : Yes
Delete leading and trailing silent blocks : No
Null samples used in CRC calculations : Yes
Used interface : Native Win32 interface for Win NT & 2000
Gap handling : Appended to previous track

Used output format : User Defined Encoder
Selected bitrate : 320 kBit/s
Quality : High
Add ID3 tag : No
Command line compressor : C:\Program Files\Exact Audio Copy\FLAC\FLAC.EXE
Additional command line options : -V -8 -T "artist=%a" -T "title=%t" -T "album=%g" -T "date=%y" -T "tracknumber=%n" -T "genre=%m" %s


TOC of the extracted CD

Track | Start | Length | Start sector | End sector
––––––––––––––––––––––––––––-
1 | 0:00.00 | 7:03.37 | 0 | 31761
2 | 7:03.37 | 17:39.18 | 31762 | 111204
3 | 24:42.55 | 7:58.62 | 111205 | 147116
4 | 32:41.42 | 6:14.72 | 147117 | 175238
5 | 38:56.39 | 15:32.06 | 175239 | 245144


Track 1

Filename K:\[ Torrents ]\E.S.T\E.S.T. - Live In Hamburg (CD2) (2007) [flac]\01 - , The Goldhearted Miner.wav

Pre-gap length 0:00:02.00

Peak level 97.9 %
Track quality 99.9 %
Test CRC 1D74F388
Copy CRC 1D74F388
Accurately ripped (confidence 58) [AF57BBD1]
Copy OK

Track 2

Filename K:\[ Torrents ]\E.S.T\E.S.T. - Live In Hamburg (CD2) (2007) [flac]\02 - , Dolores In A Shoestand.wav

Peak level 98.9 %
Track quality 99.8 %
Test CRC EDFAF35E
Copy CRC EDFAF35E
Accurately ripped (confidence 65) [328C2CF7]
Copy OK

Track 3

Filename K:\[ Torrents ]\E.S.T\E.S.T. - Live In Hamburg (CD2) (2007) [flac]\03 - , Sipping On The Solid Ground.wav

Peak level 97.8 %
Track quality 99.8 %
Test CRC BEA68305
Copy CRC BEA68305
Accurately ripped (confidence 65) [828255C8]
Copy OK

Track 4

Filename K:\[ Torrents ]\E.S.T\E.S.T. - Live In Hamburg (CD2) (2007) [flac]\04 - , Goldwrap.wav

Peak level 98.9 %
Track quality 100.0 %
Test CRC B893A908
Copy CRC B893A908
Accurately ripped (confidence 67) [FFD9051F]
Copy OK

Track 5

Filename K:\[ Torrents ]\E.S.T\E.S.T. - Live In Hamburg (CD2) (2007) [flac]\05 - , Behind The Yashmak.wav

Peak level 98.9 %
Track quality 99.8 %
Test CRC 79315629
Copy CRC 79315629
Accurately ripped (confidence 64) [06506E1B]
Copy OK


All tracks accurately ripped

No errors occurred

End of status report


Esbjorn Svensson Trio (e.s.t.) - Live In Hamburg (2007) {2CD ACT Music ACT 6002-2}




NEXT -> More E.S.T. on the way…