Subcategories

Joseph Leopold Eybler - Symphonies 1 & 2

Posted By: Kushami
Joseph Leopold Eybler - Symphonies 1 & 2

Joseph Leopold Eybler - Symphonies 1 & 2
EAC RIP | WAVPACK + CUE + LOG | HQ Scans
CPO | Recorded: 2004 | Released: 2005
L’Orchestre de Chambre de Genève - Michael Hofstetter

CPO presents a disc of orchestral works by Joseph Eybler, who was considered by one of his teachers, Johann Georg Albrechtsberger, to be ‘the greatest musical genius in Vienna, second only to Mozart’. Mozart himself also wrote of Eybler in 1790 ‘A young musician and composer of a quality that is only too rarely found’.

Eybler’s excellent reputation was founded mostly on his church music, which has already been well documented in three CPO releases. However, few people that he also wrote two symphonies in the late 1790s, which deserve to be heard.

The Orchestre de Chambre de Genève conducted by Michael Hofstetter deliver lively interpretations of the two works for orchestra whose orchestration primarily concentrates on the string section.

CPO Hybrid SACD 7771042
–––––––––––––––––––––-
“I,
the undersigned, attest herewith that I have found the bearer of this, Herr
Joseph Eybler, to be a worthy pupil of his famous master
Albrechtsberger, a well-grounded composer, equally skilled at chamber
music and the church style, fully experienced in the art of the song,
also an accomplished organ and clavier player; in short a young musician
such, one can only regret, as so seldom has his equal.”


Wolfgang Amade’ Mozart

- Symphony No. 1

- Symphony No. 2

- Overture


L’Orchestre de Chambre de Genève
Michael Hofstetter


Exact Audio Copy V0.99 prebeta 5 from 4. May 2009

EAC extraction logfile from 6. September 2009, 15:31

Joseph Leopold Eybler / Symphonies 1 & 2, Overture

Used drive : HL-DT-STDVD-ROM GDR-H30N Adapter: 0 ID: 0

Read mode : Secure
Utilize accurate stream : Yes
Defeat audio cache : No
Make use of C2 pointers : No

Read offset correction : 6
Overread into Lead-In and Lead-Out : No
Fill up missing offset samples with silence : Yes
Delete leading and trailing silent blocks : No
Null samples used in CRC calculations : Yes
Used interface : Installed external ASPI interface

Used output format : Internal WAV Routines
Sample format : 44.100 Hz; 16 Bit; Stereo


TOC of the extracted CD

Track | Start | Length | Start sector | End sector
––––––––––––––––––––––––––––-
1 | 0:00.00 | 6:56.00 | 0 | 31199
2 | 6:56.00 | 9:00.00 | 31200 | 71699
3 | 15:56.00 | 3:20.00 | 71700 | 86699
4 | 19:16.00 | 4:20.00 | 86700 | 106199
5 | 23:36.00 | 7:36.00 | 106200 | 140399
6 | 31:12.00 | 2:25.00 | 140400 | 151274
7 | 33:37.00 | 7:14.00 | 151275 | 183824
8 | 40:51.00 | 3:10.00 | 183825 | 198074
9 | 44:01.00 | 6:42.00 | 198075 | 228224
10 | 50:43.00 | 7:04.00 | 228225 | 260024


Range status and errors

Selected range

Filename D:\Eybler - Symphonies 1 & 2\Joseph Leopold Eybler - Symphonies 1 & 2, Overture.wav

Peak level 98.3 %
Range quality 100.0 %
Test CRC 5737D945
Copy CRC 5737D945
Copy OK

No errors occurred


AccurateRip summary

Track 1 accurately ripped (confidence 3) [141EC4F9]
Track 2 accurately ripped (confidence 3) [0AF04384]
Track 3 accurately ripped (confidence 3) [1C1ECBB7]
Track 4 accurately ripped (confidence 3) [7B72E210]
Track 5 accurately ripped (confidence 3) [12A8BCD8]
Track 6 accurately ripped (confidence 3) [650D53F5]
Track 7 accurately ripped (confidence 3) [7AA55FC2]
Track 8 accurately ripped (confidence 3) [FB7399E7]
Track 9 accurately ripped (confidence 3) [1FE5E280]
Track 10 accurately ripped (confidence 3) [8393DABD]

All tracks accurately ripped

End of status report