Subcategories

Eyvind Kang – Grass (2012)

Posted By: d'Avignon
Eyvind Kang – Grass (2012)

Eyvind Kang – Grass (2012)
Avant-garde/Modern Creative/21st Century | FLAC lossless | cuesheets+log | covers+booklet | 39m56s | 165mb
Label: Tzadik | cat. no. TZ 8089


Music for solo piano, string quintet and more take the unique sonic environments of Morton Feldman to an entirely new place via the metaphors of agricultural poetry, Chinese medicine, sweatlodge, and Ikat weaving

Tracks:

01. Grass I [0:02:56.49]
02. Grass II [0:02:29.37]
03. Grass III [0:02:21.49]
04. True Ashes [0:07:19.21]
05. Wintercount - river manifold [0:04:51.72]
06. Wintercount - avalika svara [0:05:25.77]
07. Wintercount - wintermoon [0:04:35.98]
08. Gringsing [0:10:00.66]

Performers:

Adrienne Varner – piano
Steve Moore – electric piano
Taina Karr – English horn
Mary Riles – cello
Janel Leppin – cello
Moriah Neils – double bass
Timba Harris - violin
Eyvind Kang – viola, piano

Exact Audio Copy V1.0 beta 3 from 29. August 2011

EAC extraction logfile from 12. January 2013, 19:04

Eyvind Kang / Grass

Used drive : TSSTcorpCDDVDW SH-216AB Adapter: 1 ID: 0

Read mode : Secure
Utilize accurate stream : Yes
Defeat audio cache : Yes
Make use of C2 pointers : No

Read offset correction : 6
Overread into Lead-In and Lead-Out : No
Fill up missing offset samples with silence : Yes
Delete leading and trailing silent blocks : No
Null samples used in CRC calculations : Yes
Used interface : Native Win32 interface for Win NT & 2000

Used output format : User Defined Encoder
Selected bitrate : 768 kBit/s
Quality : High
Add ID3 tag : No
Command line compressor : C:\Program Files (x86)\Exact Audio Copy\FLAC\FLAC.EXE
Additional command line options : -6 -V -T "ARTIST=%artist%" -T "TITLE=%title%" -T "ALBUM=%albumtitle%" -T "DATE=%year%" -T "TRACKNUMBER=%tracknr%" -T "GENRE=%genre%" -T "COMMENT=%comment%" -T "BAND=%albuminterpret%" -T "ALBUMARTIST=%albuminterpret%" -T "COMPOSER=%composer%" %haslyrics%–tag-from-file=LYRICS="%lyricsfile%"%haslyrics% -T "DISCNUMBER=%cdnumber%" -T "TOTALDISCS=%totalcds%" -T "TOTALTRACKS=%numtracks%" %hascover%–picture="%coverfile%"%hascover% %source% -o %dest%


TOC of the extracted CD

Track | Start | Length | Start sector | End sector
––––––––––––––––––––––––––––-
1 | 0:00.00 | 2:56.37 | 0 | 13236
2 | 2:56.37 | 2:29.28 | 13237 | 24439
3 | 5:25.65 | 2:21.37 | 24440 | 35051
4 | 7:47.27 | 7:19.16 | 35052 | 67992
5 | 15:06.43 | 4:51.54 | 67993 | 89871
6 | 19:58.22 | 5:25.58 | 89872 | 114304
7 | 25:24.05 | 4:35.74 | 114305 | 135003
8 | 30:00.04 | 10:00.50 | 135004 | 180053


Range status and errors

Selected range

Filename C:\Users\astarte\03. POST\Kang, Eyvind - Grass\Eyvind Kang - Grass.wav

Peak level 95.4 %
Extraction speed 6.7 X
Range quality 99.9 %
Copy CRC FA22B763
Copy OK

No errors occurred


AccurateRip summary

Track 1 not present in database
Track 2 not present in database
Track 3 not present in database
Track 4 not present in database
Track 5 not present in database
Track 6 not present in database
Track 7 not present in database
Track 8 not present in database

None of the tracks are present in the AccurateRip database

End of status report

==== Log checksum 6EAAFDCDE9EBEBEC2208925C0FED711B2D05169DA8F92CFB184B040FD20B7BB2 ====