Subcategories

Fabrizio De Andre - In concerto Vol1 & Vol2 (2CD, 1979-80) [Repost]

Posted By: Speedyclick
Fabrizio De Andre - In concerto Vol1 & Vol2 (2CD, 1979-80) [Repost]

Fabrizio De Andre - In concerto Vol1 & Vol2 (2CD, 1979-80)
EAC Rip | FLAC (tracks & cue & log) & mp3 @ 320 kbps | tracks: 18 | Scans | 1:15:13 | ~ 519 Mb & 210 Mb
Label: BMG | 5% recovery record | Canzone, pop, live

The famous italian songwriter and singer Fabrizio De Andre, gave very few live concerts during his brilliant career. So, his 4-day tour in January 1979 at Bologna and Firenze was very eagerly awaited, because De Andre had asked the popular Italian rock band PFM to be his supporting band, and to work out new arrangements for his popular hits. The collaboration was a great success. PFM's re-arrangement added synthesizer counter-melodies taking the place of the orchestral arrangements, drums emphasizing the rhythmic patterns, and many electric guitar solos. These two live albums became best-sellers with more than 60 weeks on the charts. Enjoy a rare live gem.

Fabrizio De Andre - In concerto Vol1 & Vol2 (2CD, 1979-80) [Repost]

Fabrizio De Andre - In concerto Vol1 (1979)
EAC Rip | FLAC (tracks & cue & log) & mp3 @ 320 kbps | tracks: 10 | Scans | 36:46 | ~ 294 Mb & 117 Mb
Label: BMG | 5% recovery record | Canzone, pop, live


Fabrizio De Andre - In concerto Vol1 & Vol2 (2CD, 1979-80) [Repost]

TRACKLIST
01. Bocca di Rosa
02. Andrea
03. Giugno '73
04. Un Giudice
05. La guerra di Piero
06. Il pescatore
07. Zirichiltaggia
08. La canzone di marinella
09. Volta la carta
10. Amico fragile
Fabrizio De Andre - In concerto Vol1 & Vol2 (2CD, 1979-80) [Repost]

Fabrizio De Andre - In concerto Vol2 (1980)
EAC Rip | FLAC (tracks & cue & log) & mp3 @ 320 kbps | tracks: 8 | Scans | 38:27 | ~ 225 Mb & 93 Mb
Label: BMG | 5% recovery record | Canzone, pop, live


Fabrizio De Andre - In concerto Vol1 & Vol2 (2CD, 1979-80) [Repost]

TRACKLIST
01. Aventura a Durango
02. Presentazione
03. Sally
04. Verranno a chiederti del nostro amore
05. Rimini
06. Via del campo
07. Maria nella bottega del falegname
08. Il testamento di tito

Exact Audio Copy V1.0 beta 3 from 29. August 2011

EAC extraction logfile from 22. June 2012, 17:25

Fabrizio De Andrè / Fabrizio De André In Concerto (Arrangiamenti PFM)

Used drive : ASUS DRW-24B3LT Adapter: 4 ID: 0

Read mode : Secure
Utilize accurate stream : Yes
Defeat audio cache : Yes
Make use of C2 pointers : No

Read offset correction : 6
Overread into Lead-In and Lead-Out : No
Fill up missing offset samples with silence : Yes
Delete leading and trailing silent blocks : No
Null samples used in CRC calculations : Yes
Used interface : Installed external ASPI interface
Gap handling : Appended to previous track

Used output format : User Defined Encoder
Selected bitrate : 1024 kBit/s
Quality : High
Add ID3 tag : No
Command line compressor : C:\Program Files\Exact Audio Copy\FLAC\FLAC.EXE
Additional command line options : -6 -V -T "ARTIST=%artist%" -T "TITLE=%title%" -T "ALBUM=%albumtitle%" -T "DATE=%year%" -T "TRACKNUMBER=%tracknr%" -T "GENRE=%genre%" -T "COMMENT=%comment%" -T "BAND=%albuminterpret%" -T "ALBUMARTIST=%albuminterpret%" -T "COMPOSER=%composer%" %haslyrics%–tag-from-file=LYRICS="%lyricsfile%"%haslyrics% -T "DISCNUMBER=%cdnumber%" -T "TOTALDISCS=%totalcds%" -T "TOTALTRACKS=%numtracks%" %hascover%–picture="%coverfile%"%hascover% %source% -o %dest%


TOC of the extracted CD

Track | Start | Length | Start sector | End sector
––––––––––––––––––––––––––––-
1 | 0:00.33 | 4:39.42 | 33 | 20999
2 | 4:40.00 | 5:29.55 | 21000 | 45729
3 | 10:09.55 | 4:31.63 | 45730 | 66117
4 | 14:41.43 | 3:36.42 | 66118 | 82359
5 | 18:18.10 | 3:30.13 | 82360 | 98122
6 | 21:48.23 | 4:16.05 | 98123 | 117327
7 | 26:04.28 | 2:36.02 | 117328 | 129029
8 | 28:40.30 | 4:03.63 | 129030 | 147317
9 | 32:44.18 | 4:02.67 | 147318 | 165534
10 | 36:47.10 | 9:27.23 | 165535 | 208082


Track 1

Filename C:\Users\giancar\EAC\01. Bocca di Rosa - Fabrizio De Andrè.wav

Pre-gap length 0:00:02.33

Peak level 99.4 %
Extraction speed 3.4 X
Track quality 100.0 %
Test CRC 4DAF9AAF
Copy CRC 4DAF9AAF
Accurately ripped (confidence 3) [D66FA70E] (AR v1)
Copy OK

Track 2

Filename C:\Users\giancar\EAC\02. Andrea - Fabrizio De Andrè.wav

Peak level 94.6 %
Extraction speed 4.1 X
Track quality 100.0 %
Test CRC 0EB5EC6E
Copy CRC 0EB5EC6E
Accurately ripped (confidence 3) [01C37A01] (AR v1)
Copy OK

Track 3

Filename C:\Users\giancar\EAC\03. Giugno '73 - Fabrizio De Andrè.wav

Peak level 85.0 %
Extraction speed 4.4 X
Track quality 100.0 %
Test CRC 9217E8A8
Copy CRC 9217E8A8
Accurately ripped (confidence 3) [607A07DC] (AR v1)
Copy OK

Track 4

Filename C:\Users\giancar\EAC\04. Un Giudice - Fabrizio De Andrè.wav

Peak level 100.0 %
Extraction speed 4.5 X
Track quality 100.0 %
Test CRC 00580BF9
Copy CRC 00580BF9
Accurately ripped (confidence 3) [B52DC276] (AR v1)
Copy OK

Track 5

Filename C:\Users\giancar\EAC\05. La guerra di Piero - Fabrizio De Andrè.wav

Peak level 92.6 %
Extraction speed 3.7 X
Track quality 99.9 %
Test CRC 5DA2A66F
Copy CRC 5DA2A66F
Accurately ripped (confidence 3) [710B8976] (AR v1)
Copy OK

Track 6

Filename C:\Users\giancar\EAC\06. Il pescatore - Fabrizio De Andrè.wav

Peak level 95.7 %
Extraction speed 5.1 X
Track quality 100.0 %
Test CRC B38D80CC
Copy CRC B38D80CC
Accurately ripped (confidence 3) [4FAAC695] (AR v1)
Copy OK

Track 7

Filename C:\Users\giancar\EAC\07. Zirichiltaggia - Fabrizio De Andrè.wav

Peak level 91.3 %
Extraction speed 3.6 X
Track quality 99.9 %
Test CRC F47D2159
Copy CRC F47D2159
Accurately ripped (confidence 3) [E2E891AD] (AR v1)
Copy OK

Track 8

Filename C:\Users\giancar\EAC\08. La canzone di marinella - Fabrizio De Andrè.wav

Peak level 93.3 %
Extraction speed 5.5 X
Track quality 100.0 %
Test CRC 8C03B587
Copy CRC 8C03B587
Accurately ripped (confidence 3) [29568791] (AR v1)
Copy OK

Track 9

Filename C:\Users\giancar\EAC\09. Volta la carta - Fabrizio De Andrè.wav

Peak level 93.8 %
Extraction speed 5.7 X
Track quality 100.0 %
Test CRC 5535CA8E
Copy CRC 5535CA8E
Accurately ripped (confidence 3) [358E706D] (AR v1)
Copy OK

Track 10

Filename C:\Users\giancar\EAC\10. Amico fragile - Fabrizio De Andrè.wav

Peak level 94.6 %
Extraction speed 6.6 X
Track quality 100.0 %
Test CRC 11E41A96
Copy CRC 11E41A96
Accurately ripped (confidence 3) [67086D11] (AR v1)
Copy OK


All tracks accurately ripped

No errors occurred

End of status report

==== Log checksum 9DCB7001B42F2E2B88E8E226710A3065199F5FA2F2E9A83206499BB077CCC62C ====

Exact Audio Copy V1.0 beta 3 from 29. August 2011

EAC extraction logfile from 22. June 2012, 17:54

Fabrizio de Andrè / Fabrizio De André In Concerto (Arrangiamenti PFM) Vol. 2

Used drive : ASUS DRW-24B3LT Adapter: 4 ID: 0

Read mode : Secure
Utilize accurate stream : Yes
Defeat audio cache : Yes
Make use of C2 pointers : No

Read offset correction : 6
Overread into Lead-In and Lead-Out : No
Fill up missing offset samples with silence : Yes
Delete leading and trailing silent blocks : No
Null samples used in CRC calculations : Yes
Used interface : Installed external ASPI interface
Gap handling : Appended to previous track

Used output format : User Defined Encoder
Selected bitrate : 1024 kBit/s
Quality : High
Add ID3 tag : No
Command line compressor : C:\Program Files\Exact Audio Copy\FLAC\FLAC.EXE
Additional command line options : -6 -V -T "ARTIST=%artist%" -T "TITLE=%title%" -T "ALBUM=%albumtitle%" -T "DATE=%year%" -T "TRACKNUMBER=%tracknr%" -T "GENRE=%genre%" -T "COMMENT=%comment%" -T "BAND=%albuminterpret%" -T "ALBUMARTIST=%albuminterpret%" -T "COMPOSER=%composer%" %haslyrics%–tag-from-file=LYRICS="%lyricsfile%"%haslyrics% -T "DISCNUMBER=%cdnumber%" -T "TOTALDISCS=%totalcds%" -T "TOTALTRACKS=%numtracks%" %hascover%–picture="%coverfile%"%hascover% %source% -o %dest%


TOC of the extracted CD

Track | Start | Length | Start sector | End sector
––––––––––––––––––––––––––––-
1 | 0:00.32 | 5:30.45 | 32 | 24826
2 | 5:31.02 | 3:33.58 | 24827 | 40859
3 | 9:04.60 | 5:06.65 | 40860 | 63874
4 | 14:11.50 | 5:06.07 | 63875 | 86831
5 | 19:17.57 | 5:14.23 | 86832 | 110404
6 | 24:32.05 | 2:46.15 | 110405 | 122869
7 | 27:18.20 | 4:09.05 | 122870 | 141549
8 | 31:27.25 | 7:01.07 | 141550 | 173131


Track 1

Filename C:\Users\giancar\EAC\01. Avventura a Durango - Fabrizio de Andrè.wav

Pre-gap length 0:00:02.32

Peak level 95.0 %
Extraction speed 3.6 X
Track quality 100.0 %
Test CRC 9F7A9C09
Copy CRC 9F7A9C09
Accurately ripped (confidence 2) [01D0B34A] (AR v1)
Copy OK

Track 2

Filename C:\Users\giancar\EAC\02. Presentazione - Fabrizio de Andrè.wav

Peak level 79.9 %
Extraction speed 3.0 X
Track quality 99.9 %
Test CRC C7EA1AF4
Copy CRC C7EA1AF4
Accurately ripped (confidence 3) [1B33F4E5] (AR v1)
Copy OK

Track 3

Filename C:\Users\giancar\EAC\03. Sally - Fabrizio de Andrè.wav

Peak level 97.6 %
Extraction speed 4.4 X
Track quality 100.0 %
Test CRC FAD244F5
Copy CRC FAD244F5
Accurately ripped (confidence 3) [EB31B16C] (AR v1)
Copy OK

Track 4

Filename C:\Users\giancar\EAC\04. Verranno a chiederti del nostro amore - Fabrizio de Andrè.wav

Peak level 98.4 %
Extraction speed 4.0 X
Track quality 99.9 %
Test CRC 121273D6
Copy CRC 121273D6
Accurately ripped (confidence 3) [61CBC77C] (AR v1)
Copy OK

Track 5

Filename C:\Users\giancar\EAC\05. Rimini - Fabrizio de Andrè.wav

Peak level 97.1 %
Extraction speed 5.1 X
Track quality 100.0 %
Test CRC 376247FF
Copy CRC 376247FF
Accurately ripped (confidence 3) [63327E33] (AR v1)
Copy OK

Track 6

Filename C:\Users\giancar\EAC\06. Via del campo - Fabrizio de Andrè.wav

Peak level 91.0 %
Extraction speed 4.9 X
Track quality 100.0 %
Test CRC 267BD32C
Copy CRC 267BD32C
Accurately ripped (confidence 3) [161F48FF] (AR v1)
Copy OK

Track 7

Filename C:\Users\giancar\EAC\07. Maria nella bottega del falegname - Fabrizio de Andrè.wav

Peak level 95.2 %
Extraction speed 5.4 X
Track quality 100.0 %
Test CRC FA0F7227
Copy CRC FA0F7227
Accurately ripped (confidence 3) [6028651C] (AR v1)
Copy OK

Track 8

Filename C:\Users\giancar\EAC\08. Il testamento di tito - Fabrizio de Andrè.wav

Peak level 90.7 %
Extraction speed 6.1 X
Track quality 100.0 %
Test CRC B41AFB43
Copy CRC B41AFB43
Accurately ripped (confidence 3) [072F3FDA] (AR v1)
Copy OK


All tracks accurately ripped

No errors occurred

End of status report

==== Log checksum C62BF6BE1C61489304355AC9EFE63B50AF526CFB487FB55923BCFC4DAA7368CC ====

Credits to the original uploader
Quality lossless (Flac)
Download FilePost: Vol1 | Vol2
Download Uploaded: Vol1 | Vol2
Download CloudZer: Vol1 | Vol2
Download JunoCloud: Vol1 | Vol2
Download FileFactory: Vol1 | Vol2

Quality lossy (mp3 @ 320 kbps)
Download FilePost: Vol1 | Vol2
Download Uploaded: Vol1 | Vol2
Download CloudZer: Vol1 | Vol2
Download JunoCloud: Vol1 | Vol2
Download FileFactory: Vol1 | Vol2