Subcategories

Falsobordone - Figs, Fiddles and fine play - a musical taste of the 14th century (2005) {Acantha ACACD 0043}

Posted By: ruskaval
Falsobordone - Figs, Fiddles and fine play - a musical taste of the 14th century (2005) {Acantha ACACD 0043}

Falsobordone - Figs, Fiddles and fine play - a musical taste of the 14th century (2005) {Acantha ACACD 0043}
EAC rip (secure mode) | FLAC (tracks)+CUE+LOG -> 295 Mb | MP3 @320 -> 117 Mb
Full Artwork @ 300 dpi (jpg) -> 22 Mb | 5% repair rar
© 2005 Falsobordone / Acantha | ACACD 0043
Classical / Medieval / Early Music

Falsobordone is one of Sweden's foremost medieval ensembles. This record with music from France, Italy and Galicia (performed on bagpipes, hurdy-gurdy, harp, rebec, medieval lute, percussion, organetto - and vocals) was first released back in 2003 and has since become a classic. The two core members of Falsbordone, Anna Rynefors and Erik Ask-Upmark, invited many friends to join them and the result is an invigorating and entrancing recording that has received rave reviews from all over the world.

Some reviews:
"Falsobordone epitomise medieval music at its best." (Cursor Mundi)
"A highly effective anthology… …with considerable attention to the melodic and rhythmic structures of the repertoire." (Early Music)
"Skilfully played and highly authentic, yet an engrossing pleasure to listen to. A must for anyone who relishes medieval food and music!" (Medieval History Magazine)
"A very well-made album both in its design, concept, recording and playing. It's medieval music at its best, it is the precursor to all and an album you want in your collection!" (The Bagpipe Society)

Reviews from earlier customers at CDBaby:

"This album I would recommend to anyone. The music has authenticity, clarity and precision without being sterile, and it has inspiration, warmth and energy without being sloppy. That makes it a rare achievement among early music recordings, and a choice album to own. The recipes are an unexpected bonus. Simply one of the best medieval recordings I have ever heard!"
(C. Olson)
"A fantastic CD and definitely a candidate for "desert island discs". Don't hesitate to buy this CD, you won't find anything better!" (Gareth Knight)
"The most relaxing, invigorating and inspiring pieces I've heard in a long time. Simply the best medieval CD I have found." (R. Gaskin)
Falsobordone - Figs, Fiddles and fine play - a musical taste of the 14th century (2005) {Acantha ACACD 0043}


musicweb-international.com INFO

Track Listing
Alfonso X (Cantiga 203): Quen polo amor
Alfonso X (Cantiga 209): Muito faz grand'ero
Anon: Sia laudato san Francesco
Anon: Istampitta Ghaetta
Alfonso X (Cantiga 23): Como Deus fez
Alfonso X (Cantiga 8): A Virgen
Machaut: Je vivroie liement
Machaut: Liement me deport
Machaut: Dame, a vous sans retollier
Anon: Dansse real
Landini: Ne la più cara parte
Landini: Questa fanciulla amor
Anon: Laudar vollio per amore
Alfonso X (Cantiga 106): Prijon forte
Alfonso X (Cantiga 5-Fiestas): Tan beeyta
Alfonso X (Cantiga 155): Ali u a pedença
Alfonso X (Cantiga 331): En a que Deus

Intérpretes:
Erik Ask-Upmark (harps, bagpipes, organetto, voice), Anna Rynefors (harp, bagpipe, rebec, percussion, voice), Göran Hallmarken (hurdy-gurdy, percussion), Sven Jansson (percussion), Karin Strinnholm Lagergren (voice), Stefan Wikström (trombone), Anders Ådin (lute, hurdy-gurdy)

Exact Audio Copy V1.3 from 2. September 2016

EAC extraction logfile from 20. June 2019, 0:42

Falsobordone / Figs, fiddles and fine play

Used drive : HL-DT-STDVDRAM GH22NS40 Adapter: 1 ID: 0

Read mode : Secure
Utilize accurate stream : Yes
Defeat audio cache : Yes
Make use of C2 pointers : No

Read offset correction : 667
Overread into Lead-In and Lead-Out : No
Fill up missing offset samples with silence : Yes
Delete leading and trailing silent blocks : No
Null samples used in CRC calculations : Yes
Used interface : Native Win32 interface for Win NT & 2000
Gap handling : Appended to previous track

Used output format : User Defined Encoder
Selected bitrate : 768 kBit/s
Quality : High
Add ID3 tag : No
Command line compressor : C:\Program Files\Exact Audio Copy\FLAC\FLAC.EXE
Additional command line options : -6 -V -T "ARTIST=%artist%" -T "TITLE=%title%" -T "ALBUM=%albumtitle%" -T "DATE=%year%" -T "TRACKNUMBER=%tracknr%" -T "GENRE=%genre%" -T "COMMENT=%comment%" -T "BAND=%albuminterpret%" -T "ALBUMARTIST=%albuminterpret%" -T "COMPOSER=%composer%" %haslyrics%–tag-from-file=LYRICS="%lyricsfile%"%haslyrics% -T "DISCNUMBER=%cdnumber%" -T "TOTALDISCS=%totalcds%" -T "TOTALTRACKS=%numtracks%" %hascover%–picture="%coverfile%"%hascover% %source% -o %dest%


TOC of the extracted CD

Track | Start | Length | Start sector | End sector
––––––––––––––––––––––––––––-
1 | 0:00.00 | 3:13.10 | 0 | 14484
2 | 3:13.10 | 2:56.01 | 14485 | 27685
3 | 6:09.11 | 4:11.33 | 27686 | 46543
4 | 10:20.44 | 4:25.07 | 46544 | 66425
5 | 14:45.51 | 3:59.24 | 66426 | 84374
6 | 18:45.00 | 3:30.40 | 84375 | 100164
7 | 22:15.40 | 2:12.24 | 100165 | 110088
8 | 24:27.64 | 3:53.67 | 110089 | 127630
9 | 28:21.56 | 2:02.68 | 127631 | 136848
10 | 30:24.49 | 2:48.41 | 136849 | 149489
11 | 33:13.15 | 5:54.20 | 149490 | 176059
12 | 39:07.35 | 2:38.25 | 176060 | 187934
13 | 41:45.60 | 4:07.62 | 187935 | 206521
14 | 45:53.47 | 3:01.08 | 206522 | 220104


Track 1

Filename C:\EXACT AUDIO COPY\01 Quen polo amor (CSM 203).wav

Pre-gap length 0:00:02.00

Peak level 99.8 %
Extraction speed 1.1 X
Track quality 100.0 %
Test CRC 51EACFEE
Copy CRC 51EACFEE
Accurately ripped (confidence 3) [435A9B90] (AR v2)
Copy OK

Track 2

Filename C:\EXACT AUDIO COPY\02 Muito faz grandero (CSM 209).wav

Peak level 99.8 %
Extraction speed 1.2 X
Track quality 100.0 %
Test CRC A9661399
Copy CRC A9661399
Accurately ripped (confidence 3) [D3338146] (AR v2)
Copy OK

Track 3

Filename C:\EXACT AUDIO COPY\03 Sia laudato san Fransesca (anon.).wav

Peak level 99.8 %
Extraction speed 1.4 X
Track quality 100.0 %
Test CRC A12C7215
Copy CRC A12C7215
Accurately ripped (confidence 3) [803B57FA] (AR v2)
Copy OK

Track 4

Filename C:\EXACT AUDIO COPY\04 Istampitta Ghaetta (anon.).wav

Peak level 83.6 %
Extraction speed 1.5 X
Track quality 100.0 %
Test CRC DFF0C953
Copy CRC DFF0C953
Accurately ripped (confidence 3) [F0736AA8] (AR v2)
Copy OK

Track 5

Filename C:\EXACT AUDIO COPY\05 Como deus fez - A virgen (CSM 23 - CSM 8).wav

Peak level 99.8 %
Extraction speed 1.5 X
Track quality 100.0 %
Test CRC 7976A2AF
Copy CRC 7976A2AF
Accurately ripped (confidence 3) [5A315BBD] (AR v2)
Copy OK

Track 6

Filename C:\EXACT AUDIO COPY\06 Je vivroie liement (Guillaume de Machaut).wav

Peak level 99.8 %
Extraction speed 1.6 X
Track quality 100.0 %
Test CRC 1AF7C3F8
Copy CRC 1AF7C3F8
Accurately ripped (confidence 3) [D962FFEE] (AR v2)
Copy OK

Track 7

Filename C:\EXACT AUDIO COPY\07 Liement me deport (Guillaume de Machaut).wav

Peak level 99.8 %
Extraction speed 1.5 X
Track quality 100.0 %
Test CRC 2951BB3F
Copy CRC 2951BB3F
Accurately ripped (confidence 3) [C0B1F47D] (AR v2)
Copy OK

Track 8

Filename C:\EXACT AUDIO COPY\08 Dame, a vouz sans retollier - Dansse real (Guillaume de Machaut - anon.).wav

Peak level 98.8 %
Extraction speed 1.7 X
Track quality 100.0 %
Test CRC F0F1E9DB
Copy CRC F0F1E9DB
Accurately ripped (confidence 3) [607F45A7] (AR v2)
Copy OK

Track 9

Filename C:\EXACT AUDIO COPY\09 Ne la piu cara parte (Francesco Landini).wav

Peak level 69.1 %
Extraction speed 1.6 X
Track quality 100.0 %
Test CRC 5E39A593
Copy CRC 5E39A593
Accurately ripped (confidence 3) [D7BBC302] (AR v2)
Copy OK

Track 10

Filename C:\EXACT AUDIO COPY\10 Questa fanciulla amor (Francesco Landini).wav

Peak level 99.8 %
Extraction speed 1.7 X
Track quality 100.0 %
Test CRC 4DA963CE
Copy CRC 4DA963CE
Accurately ripped (confidence 3) [DB6D2FD2] (AR v2)
Copy OK

Track 11

Filename C:\EXACT AUDIO COPY\11 Laudar vollio per amore (anon.).wav

Peak level 99.8 %
Extraction speed 2.0 X
Track quality 100.0 %
Test CRC A5957A62
Copy CRC A5957A62
Accurately ripped (confidence 3) [6DFDBEDB] (AR v2)
Copy OK

Track 12

Filename C:\EXACT AUDIO COPY\12 Prijon forte - Tan beeyta (CSM 106 - 5).wav

Peak level 87.4 %
Extraction speed 1.5 X
Track quality 99.9 %
Test CRC B72970FB
Copy CRC B72970FB
Accurately ripped (confidence 3) [8A3FA24C] (AR v2)
Copy OK

Track 13

Filename C:\EXACT AUDIO COPY\13 Ali u a pedenca (CSM 155).wav

Peak level 99.8 %
Extraction speed 2.1 X
Track quality 100.0 %
Test CRC 3CD7D447
Copy CRC 3CD7D447
Accurately ripped (confidence 3) [B3705E98] (AR v2)
Copy OK

Track 14

Filename C:\EXACT AUDIO COPY\14 En a que Deus (CSM 331).wav

Peak level 99.8 %
Extraction speed 2.0 X
Track quality 100.0 %
Test CRC 5640F070
Copy CRC 5640F070
Accurately ripped (confidence 3) [7A7C8BAD] (AR v2)
Copy OK


All tracks accurately ripped

No errors occurred

End of status report

–– CUETools DB Plugin V2.1.6

[CTDB TOCID: ZTw.x_I0H1yIxIQRMkwwlErsFs4-] found
Submit result: ZTw.x_I0H1yIxIQRMkwwlErsFs4- has been confirmed
Track | CTDB Status
1 | (5/5) Accurately ripped
2 | (5/5) Accurately ripped
3 | (5/5) Accurately ripped
4 | (5/5) Accurately ripped
5 | (5/5) Accurately ripped
6 | (5/5) Accurately ripped
7 | (5/5) Accurately ripped
8 | (5/5) Accurately ripped
9 | (5/5) Accurately ripped
10 | (5/5) Accurately ripped
11 | (5/5) Accurately ripped
12 | (5/5) Accurately ripped
13 | (5/5) Accurately ripped
14 | (5/5) Accurately ripped


==== Log checksum 8F982FA939BC07861747783426CDEEFDD5DA8BA732978501476E51EE4F3FAD4C ====


Falsobordone - Figs, Fiddles and fine play - a musical taste of the 14th century (2005) {Acantha ACACD 0043}

Falsobordone - Figs, Fiddles and fine play - a musical taste of the 14th century (2005) {Acantha ACACD 0043}



===