Subcategories

Fausto Romitelli – Anamorphosis (2013)

Posted By: d'Avignon
Fausto Romitelli – Anamorphosis (2013)

Fausto Romitelli – Anamorphosis (2013)
Classical/Contemporary | FLAC lossless | cuesheets+log | covers+booklet | 51m24s | 273mb
Label: Tzadik | cat. no. TZ 8087


Those who’ve heard of Romitelli know that he was one of the most original minds coming forward in recent modern classical history. Had he lived, he would have been considered one of the most important contemporary composers, without a doubt. Here are some works of his that I didn’t know yet.

Romitelli studied composition at the Conservatorio Giuseppe Verdi in Milan and subsequently took part in courses at the Accademia Chigiana di Siena with Franco Donatoni and at the Scuola Civica di Milano. He moved to Paris in 1991, where he became a student of Hugues Dufourt and Gérard Grisey. From 1993 to 1995 he was compositeur en recherche at IRCAM.
Romitelli achieved successes in numerous European competitions and his music has been performed at festivals such as the Festival d’Automne (Paris), Ultima Helsinki, Steirischen Herbst (Graz), Venice Biennale and the Darmstädter Ferienkurse. His visionary video opera An Index of Metals (2003) was awarded the Franco Abbiati Prize of Italian music critics in 2004.
He died aged 41 in 2004 following a long battle with cancer.

Tracks:

01. Amok Koma [0:10:08.76]
02. Domeniche alla Periferia dell'Imperio - Prima Domenica [0:05:28.77]
03. Domeniche alla Periferia dell'Imperio - Seconda Domenica [0:06:19.89]
04. La Sabbia del Tempo [0:12:56.45]
05. Nell'Alto dei Giorni Immobili [0:08:36.93]
06. Blood on the Floor, Painting [0:07:57.16]

Performers:

The Talea Ensemble are:

James Baker - conductor
Anna Lim - violin
Alex Woods – violin
Elizabeth Weisser – viola
Christopher Gross – cello
Oren Fader – electric guitar
Tara Helen O’Connor – flutes
Rane Moore – clarinets
Vasko Dukovski – bass clarinet
Steven Beck – synthesizer, piano
Anthony Cheung – synthesizer, piano
Alex Lipowski – percussion
Ryan Streber – electronics
David Adamcik – electronics

Exact Audio Copy V1.0 beta 3 from 29. August 2011

EAC extraction logfile from 25. January 2013, 23:14

Fausto Romitelli / Anamorphosis

Used drive : TSSTcorpCDDVDW SH-216AB Adapter: 1 ID: 0

Read mode : Secure
Utilize accurate stream : Yes
Defeat audio cache : Yes
Make use of C2 pointers : No

Read offset correction : 6
Overread into Lead-In and Lead-Out : No
Fill up missing offset samples with silence : Yes
Delete leading and trailing silent blocks : No
Null samples used in CRC calculations : Yes
Used interface : Native Win32 interface for Win NT & 2000

Used output format : User Defined Encoder
Selected bitrate : 768 kBit/s
Quality : High
Add ID3 tag : No
Command line compressor : C:\Program Files (x86)\Exact Audio Copy\FLAC\FLAC.EXE
Additional command line options : -6 -V -T "ARTIST=%artist%" -T "TITLE=%title%" -T "ALBUM=%albumtitle%" -T "DATE=%year%" -T "TRACKNUMBER=%tracknr%" -T "GENRE=%genre%" -T "COMMENT=%comment%" -T "BAND=%albuminterpret%" -T "ALBUMARTIST=%albuminterpret%" -T "COMPOSER=%composer%" %haslyrics%–tag-from-file=LYRICS="%lyricsfile%"%haslyrics% -T "DISCNUMBER=%cdnumber%" -T "TOTALDISCS=%totalcds%" -T "TOTALTRACKS=%numtracks%" %hascover%–picture="%coverfile%"%hascover% %source% -o %dest%


TOC of the extracted CD

Track | Start | Length | Start sector | End sector
––––––––––––––––––––––––––––-
1 | 0:00.00 | 10:08.57 | 0 | 45656
2 | 10:08.57 | 5:28.58 | 45657 | 70314
3 | 15:37.40 | 6:19.67 | 70315 | 98806
4 | 21:57.32 | 12:56.34 | 98807 | 157040
5 | 34:53.66 | 8:36.70 | 157041 | 195810
6 | 43:30.61 | 7:57.12 | 195811 | 231597


Range status and errors

Selected range

Filename C:\Users\astarte\03. POST\Fausto Romitelli\Fausto Romitelli - Anamorphosis.wav

Peak level 100.0 %
Extraction speed 7.2 X
Range quality 99.9 %
Copy CRC BB77D98D
Copy OK

No errors occurred


AccurateRip summary

Track 1 not present in database
Track 2 not present in database
Track 3 not present in database
Track 4 not present in database
Track 5 not present in database
Track 6 not present in database

None of the tracks are present in the AccurateRip database

End of status report

==== Log checksum C7B339D86823FA54511FF2A5C4B6A155A405231499D7F7BBB6BCC973224094C8 ====