Subcategories

Fernando Express - 10 Albums (1992-2008)

Posted By: Domestos
Fernando Express - 10 Albums (1992-2008)

Fernando Express - 10 Albums (1992-2008)
EAC Rip | FLAC (image+.cue, log) ~ 2,92 Gb | 06:51:01 | Covers
Pop, Schlager | Country: Germany

Fernando Express ist eine deutsche Schlagerband aus Baden-Württemberg. Die Gruppe wurde 1969 unter dem Namen Skippies von dem Speditionskaufmann Josef Eisenhut (verheiratet, zwei Kinder), dem Industriekaufmann Hans Olbert und Klaus Lorenz als Trio gegründet. Die Band trat im regionalen Kreis bei verschiedenen Festen auf. In der Folgezeit wurde die Gruppe um einige Musiker erweitert. Im Jahr 1982 erfolgte die Umbenennung in Fernando Express. Ende der 1980er Jahre gab es weitere Umbesetzungen. Schließlich engagierte das Trio 1990 die Leadsängerin Birgit Langer (* 5. April 1968 in Weingarten (Baden)), die in der Rudi-Carrell-Show als Mandy-Winter-Double aufgetreten war. Seither tritt Fernando Express als Quartett auf und hatte zunächst im süddeutschen Raum zahlreiche Erfolge.

1991 erreichte die Gruppe beim Deutschen Song-Festival mit ihrem Titel Flüsterndes Herz den 3. Platz und wurde so bundesweit bekannt. Ein weiterer größerer Erfolg gelang ihnen 1994 bei den Deutschen Schlager-Festspielen, als ihr Titel Copacabana Platz 9 erreichte.

Klaus Lorenz stieg 2009 aus gesundheitlichen Gründen aus und wurde durch Reiner Prinz ersetzt. Ende Januar 2010 gab Birgit Langer nach zwanzigjähriger Bandzugehörigkeit ebenfalls ihren Ausstieg bei Fernando Express bekannt, um eine Solokarriere zu beginnen. Ihre Nachfolgerin als Frontsängerin wurde Michaela Zondler; im Juni 2014 kam es aufgrund unüberwindlicher Differenzen zur Trennung. Man behalf sich dann zunächst mit zwei Ersatz-Sängerinnen, von denen stets nur eine bei Auftritten zum Einsatz kam. Seit 2015 ist Heidi Schütz neue Frontsängerin des Fernando Express.

Fernando Express ist bis heute Dauergast in den Rundfunk-Hitparaden, absolvierte aber auch zahlreiche Live-Veranstaltungen in Rundfunk und im Fernsehen. Produzenten der Gruppe waren unter anderem Adam Schairer (bis 1992) sowie Jean Frankfurter (1992 bis 2010). Derzeitige Produzenten sind Norbert Beyerlein und Werner Schüler.

Fernando Express - 10 Albums (1992-2008)

Fernando Express - Das Märchen der weissen Lagune (1992)
EAC Rip | FLAC (image+.cue, log) ~ 230.71 Mb | 34:08 | Covers
Pop, Schlager | Country: Germany | Label: Intercord (4 006758451879)

Track List:
1. Das Marchen der wei.en Lagune
2. Immer wenn der Wind von Suden kam
3. Jambo, Jambo
4. Marigot Bay
5. Kolumbus (Endlos war der Ozean bei Nacht)
6. Canzone di luna
7. Rio Bravo
8. Caribian Blues
9. Einmal im Leben wie Robinson sein
10. Da wo die Flamingos sind

Exact Audio Copy V1.0 beta 3 from 29. August 2011

EAC extraction logfile from 30. September 2017, 15:47

Fernando Express / Das Märchen der weißen Lagune

Used drive : HL-DT-STDVDRAM GSA-T20N Adapter: 2 ID: 0

Read mode : Secure
Utilize accurate stream : Yes
Defeat audio cache : Yes
Make use of C2 pointers : No

Read offset correction : 667
Overread into Lead-In and Lead-Out : No
Fill up missing offset samples with silence : Yes
Delete leading and trailing silent blocks : No
Null samples used in CRC calculations : Yes
Used interface : Native Win32 interface for Win NT & 2000

Used output format : User Defined Encoder
Selected bitrate : 128 kBit/s
Quality : High
Add ID3 tag : No
Command line compressor : C:\Program Files\Exact Audio Copy\Flac\flac.exe
Additional command line options : -V -8 %source%

TOC of the extracted CD

Track | Start | Length | Start sector | End sector
––––––––––––––––––––––––––––-
1 | 0:00.00 | 4:30.20 | 0 | 20269
2 | 4:30.20 | 3:44.65 | 20270 | 37134
3 | 8:15.10 | 2:50.05 | 37135 | 49889
4 | 11:05.15 | 3:39.22 | 49890 | 66336
5 | 14:44.37 | 3:21.38 | 66337 | 81449
6 | 18:06.00 | 2:56.47 | 81450 | 94696
7 | 21:02.47 | 3:11.65 | 94697 | 109086
8 | 24:14.37 | 3:25.48 | 109087 | 124509
9 | 27:40.10 | 3:28.02 | 124510 | 140111
10 | 31:08.12 | 3:00.15 | 140112 | 153626

Range status and errors

Selected range

Filename D:\Музыка\Fernando Express flac\1992 Das Marchen der weissen lagune\Fernando Express flac\Fernando Express - Das Märchen der weißen Lagune.wav

Peak level 85.4 %
Extraction speed 1.8 X
Range quality 100.0 %
Test CRC 8DF9A0C6
Copy CRC 8DF9A0C6
Copy OK

No errors occurred

AccurateRip summary

Track 1 accurately ripped (confidence 2) [26E3CC81] (AR v1)
Track 2 accurately ripped (confidence 2) [6E5081DF] (AR v1)
Track 3 accurately ripped (confidence 2) [251760EB] (AR v1)
Track 4 accurately ripped (confidence 2) [E16594FF] (AR v1)
Track 5 accurately ripped (confidence 2) [21A3999C] (AR v1)
Track 6 accurately ripped (confidence 2) [463463EB] (AR v1)
Track 7 accurately ripped (confidence 2) [16B816E2] (AR v1)
Track 8 accurately ripped (confidence 2) [F48AA5CE] (AR v1)
Track 9 accurately ripped (confidence 2) [8BB972EA] (AR v1)
Track 10 accurately ripped (confidence 2) [638BDB38] (AR v1)

All tracks accurately ripped

End of status report

==== Log checksum 17EAB53B1972FBC6E182D231B9775DEBF04D0DFD7021B9CDCF0F6EFC3187E680 ====


Fernando Express - 10 Albums (1992-2008)

Fernando Express - Alle Sehnsucht dieser Welt (1994)
EAC Rip | FLAC (image+.cue, log) ~ 235.98 Mb | 35:26 | Covers
Pop, Schlager | Country: Germany | Label: Intercord (4 006758451923)

Track List:
1. Alle Sehnsucht dieser Welt
2. Piano, Piano
3. Gestern ich, heute Du - Morgen wir
4. Capitano
5. Sommertranen
6. Sehnsucht nach San Francisco
7. Das Lied der Mariachis
8. Die Sterne von Santa Elena
9. Mama Mia
10. Go West

Exact Audio Copy V1.0 beta 3 from 29. August 2011

EAC extraction logfile from 4. June 2017, 13:00

Fernando Express / Alle Sehnsucht dieser Welt

Used drive : HL-DT-STDVDRAM GSA-T20N Adapter: 2 ID: 0

Read mode : Secure
Utilize accurate stream : Yes
Defeat audio cache : Yes
Make use of C2 pointers : No

Read offset correction : 667
Overread into Lead-In and Lead-Out : No
Fill up missing offset samples with silence : Yes
Delete leading and trailing silent blocks : No
Null samples used in CRC calculations : Yes
Used interface : Native Win32 interface for Win NT & 2000

Used output format : User Defined Encoder
Selected bitrate : 128 kBit/s
Quality : High
Add ID3 tag : No
Command line compressor : C:\Program Files\Exact Audio Copy\Flac\flac.exe
Additional command line options : -V -8 %source%

TOC of the extracted CD

Track | Start | Length | Start sector | End sector
––––––––––––––––––––––––––––-
1 | 0:00.38 | 3:24.72 | 38 | 15409
2 | 3:25.35 | 3:43.05 | 15410 | 32139
3 | 7:08.40 | 3:26.25 | 32140 | 47614
4 | 10:34.65 | 4:09.60 | 47615 | 66349
5 | 14:44.50 | 3:07.60 | 66350 | 80434
6 | 17:52.35 | 3:24.10 | 80435 | 95744
7 | 21:16.45 | 3:36.30 | 95745 | 111974
8 | 24:53.00 | 3:52.08 | 111975 | 129382
9 | 28:45.08 | 2:57.47 | 129383 | 142704
10 | 31:42.55 | 3:44.05 | 142705 | 159509

Range status and errors

Selected range

Filename D:\Музыка\Fernando Express flac\1994 Alle Sehnsucht dieser Welt\Fernando Express - Alle Sehnsucht dieser Welt.wav

Peak level 97.7 %
Extraction speed 3.6 X
Range quality 99.9 %
Test CRC A307536A
Copy CRC A307536A
Copy OK

No errors occurred

AccurateRip summary

Track 1 accurately ripped (confidence 2) [82A497AA] (AR v2)
Track 2 accurately ripped (confidence 2) [9FEEEAC4] (AR v2)
Track 3 accurately ripped (confidence 2) [B6B8E556] (AR v2)
Track 4 accurately ripped (confidence 2) [B3B09B7C] (AR v2)
Track 5 accurately ripped (confidence 2) [146DA11D] (AR v2)
Track 6 accurately ripped (confidence 2) [22E44CD1] (AR v2)
Track 7 accurately ripped (confidence 3) [706EE9E3] (AR v2)
Track 8 accurately ripped (confidence 3) [E2584B7B] (AR v2)
Track 9 accurately ripped (confidence 2) [3D023D31] (AR v2)
Track 10 accurately ripped (confidence 2) [6C768047] (AR v2)

All tracks accurately ripped

End of status report

==== Log checksum 191E01CF6BEBF00431B5932DF7362298CD03CDBB721DB778DAA0C43747F54891 ====


Fernando Express - 10 Albums (1992-2008)

Fernando Express - Sei Du meine Insel (1996)
EAC Rip | FLAC (image+.cue, log) ~ 302.74 Mb | 43:27 | Covers
Pop, Schlager | Country: Germany | Label: Intercord (7 24382 25632 8)

Track List:
1. Der Tag, an dem die Sonne wiederkam
2. Sei Du meine Insel
3. Fata Morgana
4. Silbervogel
5. La Barca
6. Leben in deinen Armen
7. Solo Tu
8. Vagabunden der Meere
9. Sierra Caliente
10. Eviva La Samba
11. Tausend und eine Nacht
12. Du bist der Wind in meinen Segeln

Exact Audio Copy V1.0 beta 3 from 29. August 2011

EAC extraction logfile from 11. April 2017, 18:57

Fernando Express / Sei Du meine Insel

Used drive : HL-DT-STDVDRAM GSA-T20N Adapter: 2 ID: 0

Read mode : Secure
Utilize accurate stream : Yes
Defeat audio cache : Yes
Make use of C2 pointers : No

Read offset correction : 667
Overread into Lead-In and Lead-Out : No
Fill up missing offset samples with silence : Yes
Delete leading and trailing silent blocks : No
Null samples used in CRC calculations : Yes
Used interface : Native Win32 interface for Win NT & 2000

Used output format : User Defined Encoder
Selected bitrate : 128 kBit/s
Quality : High
Add ID3 tag : No
Command line compressor : C:\Program Files\Exact Audio Copy\Flac\flac.exe
Additional command line options : -V -8 %source%

TOC of the extracted CD

Track | Start | Length | Start sector | End sector
––––––––––––––––––––––––––––-
1 | 0:00.00 | 3:56.25 | 0 | 17724
2 | 3:56.25 | 3:14.55 | 17725 | 32329
3 | 7:11.05 | 3:27.02 | 32330 | 47856
4 | 10:38.07 | 3:41.73 | 47857 | 64504
5 | 14:20.05 | 3:52.00 | 64505 | 81904
6 | 18:12.05 | 4:14.57 | 81905 | 101011
7 | 22:26.62 | 2:36.38 | 101012 | 112749
8 | 25:03.25 | 4:11.05 | 112750 | 131579
9 | 29:14.30 | 3:34.32 | 131580 | 147661
10 | 32:48.62 | 3:45.23 | 147662 | 164559
11 | 36:34.10 | 3:40.50 | 164560 | 181109
12 | 40:14.60 | 3:12.62 | 181110 | 195571

Range status and errors

Selected range

Filename D:\Музыка\Fernando Express flac\1996 Sei du meine Insel\Fernando Express - Sei Du meine Insel.wav

Peak level 100.0 %
Extraction speed 1.9 X
Range quality 100.0 %
Test CRC 309921EE
Copy CRC 309921EE
Copy OK

No errors occurred

AccurateRip summary

Track 1 accurately ripped (confidence 6) [CA8AB9A7] (AR v2)
Track 2 accurately ripped (confidence 6) [55C83D90] (AR v2)
Track 3 accurately ripped (confidence 6) [4474E0DE] (AR v2)
Track 4 accurately ripped (confidence 6) [2041F076] (AR v2)
Track 5 accurately ripped (confidence 6) [CB3AEDBF] (AR v2)
Track 6 accurately ripped (confidence 6) [4D684F5A] (AR v2)
Track 7 accurately ripped (confidence 6) [C0FC8464] (AR v2)
Track 8 accurately ripped (confidence 6) [5C743287] (AR v2)
Track 9 accurately ripped (confidence 6) [A76E18FD] (AR v2)
Track 10 accurately ripped (confidence 6) [7AE6FAC4] (AR v2)
Track 11 accurately ripped (confidence 6) [93BEA4A9] (AR v2)
Track 12 accurately ripped (confidence 6) [52CEDE8F] (AR v2)

All tracks accurately ripped

End of status report

==== Log checksum E709E7F45FC132C521E3B3E1D56969D70343F9E6AE8EE1048286A8960B67490F ====


Fernando Express - 10 Albums (1992-2008)

Fernando Express - Sonnentaucher (2000)
EAC Rip | FLAC (image+.cue, log) ~ 334.52 Mb | 44:16 | Covers
Pop, Schlager | Country: Germany | Label: KOCH Music (002723245851)

Track List:
1. Uber alle sieben Meere
2. Wenn du willst bleib ich fur immer
3. Sonnentaucher
4. Hallo Bonjour mon amour
5. Bacarole Romantica
6. Casanova
7. Die Zauberinsel
8. Bleib wie du bist
9. Bis ans Ende der Zeit
10. Sie wei.en Segel von Santa Monica
11. Fiesta Cubana
12. Wo der Himmel die Erde kusst

Exact Audio Copy V1.0 beta 3 from 29. August 2011

EAC extraction logfile from 1. April 2017, 13:29

Fernando Express / Sonnentaucher

Used drive : HL-DT-STDVDRAM GSA-T20N Adapter: 2 ID: 0

Read mode : Secure
Utilize accurate stream : Yes
Defeat audio cache : Yes
Make use of C2 pointers : No

Read offset correction : 667
Overread into Lead-In and Lead-Out : No
Fill up missing offset samples with silence : Yes
Delete leading and trailing silent blocks : No
Null samples used in CRC calculations : Yes
Used interface : Native Win32 interface for Win NT & 2000

Used output format : User Defined Encoder
Selected bitrate : 128 kBit/s
Quality : High
Add ID3 tag : No
Command line compressor : C:\Program Files\Exact Audio Copy\Flac\flac.exe
Additional command line options : -V -8 %source%

TOC of the extracted CD

Track | Start | Length | Start sector | End sector
––––––––––––––––––––––––––––-
1 | 0:00.00 | 3:31.55 | 0 | 15879
2 | 3:31.55 | 3:38.50 | 15880 | 32279
3 | 7:10.30 | 3:46.05 | 32280 | 49234
4 | 10:56.35 | 3:50.57 | 49235 | 66541
5 | 14:47.17 | 3:49.73 | 66542 | 83789
6 | 18:37.15 | 3:24.20 | 83790 | 99109
7 | 22:01.35 | 3:29.10 | 99110 | 114794
8 | 25:30.45 | 3:35.30 | 114795 | 130949
9 | 29:06.00 | 3:42.52 | 130950 | 147651
10 | 32:48.52 | 4:27.00 | 147652 | 167676
11 | 37:15.52 | 2:56.00 | 167677 | 180876
12 | 40:11.52 | 4:04.63 | 180877 | 199239

Range status and errors

Selected range

Filename D:\Музыка\Fernando Express flac\2000 Sonnentaucher\Fernando Express - Sonnentaucher.wav

Peak level 100.0 %
Extraction speed 3.6 X
Range quality 100.0 %
Test CRC 964C84F1
Copy CRC 964C84F1
Copy OK

No errors occurred

AccurateRip summary

Track 1 accurately ripped (confidence 2) [0C87B8DD] (AR v2)
Track 2 accurately ripped (confidence 2) [52687E20] (AR v2)
Track 3 accurately ripped (confidence 2) [8DEAEFF4] (AR v2)
Track 4 accurately ripped (confidence 2) [7D5A3FFD] (AR v2)
Track 5 accurately ripped (confidence 2) [D6AF0047] (AR v2)
Track 6 accurately ripped (confidence 2) [C57B4A08] (AR v2)
Track 7 accurately ripped (confidence 2) [4A7AA117] (AR v2)
Track 8 accurately ripped (confidence 2) [43513EF0] (AR v2)
Track 9 accurately ripped (confidence 2) [BB2B3656] (AR v2)
Track 10 accurately ripped (confidence 2) [BF7EF2B9] (AR v2)
Track 11 accurately ripped (confidence 2) [DFBC7111] (AR v2)
Track 12 accurately ripped (confidence 2) [0859F51A] (AR v2)

All tracks accurately ripped

End of status report

==== Log checksum A66A9A03C4BF1F04085D9D14CFF2F4E811D0EC69C00C1D841AF665DF440C9832 ====


Fernando Express - 10 Albums (1992-2008)

Fernando Express - Südlich der Sehnsucht (2002)
EAC Rip | FLAC (image+.cue, log) ~ 318.02 Mb | 42:08 | Covers
Pop, Schlager | Country: Germany | Label: KOCH Music (9 002723249736)

Track List:
1. Paradiso Paradiso
2. Santo Domingo, die Sterne und Du
3. Der letzte Flamenco
4. Im Cabrio nach irgendwo
5. Sudlich der Sehnsucht
6. El Gitano
7. Die Insel der verlorenen Traume
8. Wir tanzen heute Sirtaki
9. Den Traumen schlagt keine Stunde
10. Ich bleib viel langer als der Sommer
11. Bolero d'amore
12. Barca Bianca

Exact Audio Copy V1.0 beta 3 from 29. August 2011

EAC extraction logfile from 30. September 2017, 18:38

Fernando Express / Südlich der Sehnsucht

Used drive : HL-DT-STDVDRAM GSA-T20N Adapter: 2 ID: 0

Read mode : Secure
Utilize accurate stream : Yes
Defeat audio cache : Yes
Make use of C2 pointers : No

Read offset correction : 667
Overread into Lead-In and Lead-Out : No
Fill up missing offset samples with silence : Yes
Delete leading and trailing silent blocks : No
Null samples used in CRC calculations : Yes
Used interface : Native Win32 interface for Win NT & 2000

Used output format : User Defined Encoder
Selected bitrate : 128 kBit/s
Quality : High
Add ID3 tag : No
Command line compressor : C:\Program Files\Exact Audio Copy\Flac\flac.exe
Additional command line options : -V -8 %source%

TOC of the extracted CD

Track | Start | Length | Start sector | End sector
––––––––––––––––––––––––––––-
1 | 0:00.00 | 3:53.40 | 0 | 17514
2 | 3:53.40 | 3:32.30 | 17515 | 33444
3 | 7:25.70 | 3:23.57 | 33445 | 48726
4 | 10:49.52 | 3:17.20 | 48727 | 63521
5 | 14:06.72 | 3:26.65 | 63522 | 79036
6 | 17:33.62 | 3:01.08 | 79037 | 92619
7 | 20:34.70 | 3:30.47 | 92620 | 108416
8 | 24:05.42 | 3:31.45 | 108417 | 124286
9 | 27:37.12 | 3:48.73 | 124287 | 141459
10 | 31:26.10 | 3:21.15 | 141460 | 156549
11 | 34:47.25 | 3:28.50 | 156550 | 172199
12 | 38:16.00 | 3:52.05 | 172200 | 189604

Range status and errors

Selected range

Filename D:\Музыка\Fernando Express flac\2002 Sudlich der Sehnsucht\Fernando Express flac\Fernando Express - Südlich der Sehnsucht.wav

Peak level 100.0 %
Extraction speed 1.9 X
Range quality 100.0 %
Test CRC 771CA92A
Copy CRC 771CA92A
Copy OK

No errors occurred

AccurateRip summary

Track 1 accurately ripped (confidence 1) [8513A21C] (AR v2)
Track 2 accurately ripped (confidence 1) [EFA361AB] (AR v2)
Track 3 accurately ripped (confidence 1) [B1E80BEA] (AR v2)
Track 4 accurately ripped (confidence 1) [0442C31F] (AR v2)
Track 5 accurately ripped (confidence 1) [0BDFFE7A] (AR v2)
Track 6 accurately ripped (confidence 1) [B7A41D1C] (AR v2)
Track 7 accurately ripped (confidence 1) [911F1CC0] (AR v2)
Track 8 accurately ripped (confidence 1) [C9AD8CFC] (AR v2)
Track 9 accurately ripped (confidence 1) [C40E6829] (AR v2)
Track 10 accurately ripped (confidence 1) [D8E9349E] (AR v2)
Track 11 accurately ripped (confidence 1) [103B3C02] (AR v2)
Track 12 accurately ripped (confidence 1) [BE54A674] (AR v2)

All tracks accurately ripped

End of status report

==== Log checksum B27D722BD077956D3D9ABD401D121B02CC418339896B39C6F6705AECB2DEBEF3 ====


Fernando Express - 10 Albums (1992-2008)

Fernando Express - Unser Traum darf nicht sterben (2004)
EAC Rip | FLAC (image+.cue, log) ~ 311.48 Mb | 40:56 | Covers
Pop, Schlager | Country: Germany | Label: Koch Universal (0 602498661857)

Track List:
1. Lass mich dein Geheimnis sein
2. Die Zehn Gebote der Liebe
3. Vielleicht bis bald, vielleicht fur immer
4. Unser Traum darf nicht sterben
5. Tau das Eis in meiner Seele
6. Die Sonne von Capri
7. Laguna Blu
8. Ist das hier der Himmel
9. Ich seh das Meer in deinen Augen
10. Du bist mir tausend Sunden wert
11. Samoa Moonligh
12. Coconut und Calypso

Exact Audio Copy V1.0 beta 3 from 29. August 2011

EAC extraction logfile from 2. April 2017, 17:00

Fernando Express / Unser Traum darf nicht Sterben

Used drive : HL-DT-STDVDRAM GSA-T20N Adapter: 2 ID: 0

Read mode : Secure
Utilize accurate stream : Yes
Defeat audio cache : Yes
Make use of C2 pointers : No

Read offset correction : 667
Overread into Lead-In and Lead-Out : No
Fill up missing offset samples with silence : Yes
Delete leading and trailing silent blocks : No
Null samples used in CRC calculations : Yes
Used interface : Native Win32 interface for Win NT & 2000

Used output format : User Defined Encoder
Selected bitrate : 128 kBit/s
Quality : High
Add ID3 tag : No
Command line compressor : C:\Program Files\Exact Audio Copy\Flac\flac.exe
Additional command line options : -V -8 %source%

TOC of the extracted CD

Track | Start | Length | Start sector | End sector
––––––––––––––––––––––––––––-
1 | 0:00.00 | 3:31.50 | 0 | 15874
2 | 3:31.50 | 3:38.46 | 15875 | 32270
3 | 7:10.21 | 3:10.17 | 32271 | 46537
4 | 10:20.38 | 3:07.71 | 46538 | 60633
5 | 13:28.34 | 3:28.61 | 60634 | 76294
6 | 16:57.20 | 3:40.74 | 76295 | 92868
7 | 20:38.19 | 3:29.05 | 92869 | 108548
8 | 24:07.24 | 3:10.42 | 108549 | 122840
9 | 27:17.66 | 3:22.26 | 122841 | 138016
10 | 30:40.17 | 3:15.15 | 138017 | 152656
11 | 33:55.32 | 3:19.56 | 152657 | 167637
12 | 37:15.13 | 3:41.26 | 167638 | 184238

Range status and errors

Selected range

Filename D:\Музыка\Fernando Express flac\2004 Unser traumdarf nicht sterben\Fernando Express - Unser Traum darf nicht Sterben.wav

Peak level 93.8 %
Extraction speed 3.5 X
Range quality 99.9 %
Test CRC 720FA093
Copy CRC 720FA093
Copy OK

No errors occurred

AccurateRip summary

Track 1 accurately ripped (confidence 3) [4014CA1A] (AR v2)
Track 2 accurately ripped (confidence 3) [E4FF5835] (AR v2)
Track 3 accurately ripped (confidence 3) [BDB386A6] (AR v2)
Track 4 accurately ripped (confidence 3) [4BD59CEA] (AR v2)
Track 5 accurately ripped (confidence 3) [DD57CD69] (AR v2)
Track 6 accurately ripped (confidence 3) [3318E5DD] (AR v2)
Track 7 accurately ripped (confidence 3) [E879F852] (AR v2)
Track 8 accurately ripped (confidence 3) [24069A12] (AR v2)
Track 9 accurately ripped (confidence 3) [6CA42E82] (AR v2)
Track 10 accurately ripped (confidence 3) [9A6BEA3C] (AR v2)
Track 11 accurately ripped (confidence 3) [EA2F0D9B] (AR v2)
Track 12 accurately ripped (confidence 3) [C1866655] (AR v2)

All tracks accurately ripped

End of status report

==== Log checksum 08FEBBFEF1499E84BC1C04C503B40E6C7B19FA19768FB30877CE60432AF49623 ====


Fernando Express - 10 Albums (1992-2008)

Fernando Express - Urlaub für die Seele (2005)
EAC Rip | FLAC (image+.cue, log) ~ 311.48 Mb | 42:33 | Covers
Pop, Schlager | Country: Germany | Label: Koch Universal (0 602498718001)

Track List:
01. Barfu. bis ans Ende der Welt
02. Liebe gibt und Liebe nimmt
03. Urlaub fur die Seele
04. La Isla Felicita
05. Und ein Traum geht auf die Reise
06. Zeit fur starke Gefuhle
07. Wieviele Stunden hat die Ewigkeit
08. Das Lacheln des Sommers
09. Ein spanisches Marchen
10. Du bist mein schonstes Gefuhl
11. Vino in Portofino
12. Traumer konnen fliegen

Exact Audio Copy V1.0 beta 3 from 29. August 2011

EAC extraction logfile from 16. July 2016, 20:02

Fernando Express / Urlaub fur die Seele

Used drive : HL-DT-STDVDRAM GSA-T20N Adapter: 2 ID: 0

Read mode : Secure
Utilize accurate stream : Yes
Defeat audio cache : Yes
Make use of C2 pointers : No

Read offset correction : 667
Overread into Lead-In and Lead-Out : No
Fill up missing offset samples with silence : Yes
Delete leading and trailing silent blocks : No
Null samples used in CRC calculations : Yes
Used interface : Native Win32 interface for Win NT & 2000

Used output format : User Defined Encoder
Selected bitrate : 128 kBit/s
Quality : High
Add ID3 tag : No
Command line compressor : C:\Program Files\Exact Audio Copy\Flac\flac.exe
Additional command line options : -V -8 %source%

TOC of the extracted CD

Track | Start | Length | Start sector | End sector
––––––––––––––––––––––––––––-
1 | 0:00.00 | 3:36.72 | 0 | 16271
2 | 3:36.72 | 3:34.74 | 16272 | 32395
3 | 7:11.71 | 3:24.14 | 32396 | 47709
4 | 10:36.10 | 3:28.31 | 47710 | 63340
5 | 14:04.41 | 3:44.05 | 63341 | 80145
6 | 17:48.46 | 3:54.33 | 80146 | 97728
7 | 21:43.04 | 3:29.51 | 97729 | 113454
8 | 25:12.55 | 3:29.34 | 113455 | 129163
9 | 28:42.14 | 3:38.48 | 129164 | 145561
10 | 32:20.62 | 3:46.42 | 145562 | 162553
11 | 36:07.29 | 3:16.58 | 162554 | 177311
12 | 39:24.12 | 3:07.15 | 177312 | 191351

Range status and errors

Selected range

Filename C:\Users\Влад\Music\Fernando Express - Urlaub fur die Seele.wav

Peak level 93.8 %
Extraction speed 3.8 X
Range quality 100.0 %
Test CRC B62837D0
Copy CRC B62837D0
Copy OK

No errors occurred

AccurateRip summary

Track 1 accurately ripped (confidence 2) [259CB0B1] (AR v2)
Track 2 accurately ripped (confidence 2) [2A9BC670] (AR v2)
Track 3 accurately ripped (confidence 2) [75740D88] (AR v2)
Track 4 accurately ripped (confidence 2) [BAA1C3AE] (AR v2)
Track 5 accurately ripped (confidence 2) [8B104378] (AR v2)
Track 6 accurately ripped (confidence 2) [03BC4863] (AR v2)
Track 7 accurately ripped (confidence 2) [6CACF734] (AR v2)
Track 8 accurately ripped (confidence 2) [4FC2FC91] (AR v2)
Track 9 accurately ripped (confidence 2) [B84C8917] (AR v2)
Track 10 accurately ripped (confidence 2) [722A29BB] (AR v2)
Track 11 accurately ripped (confidence 2) [79F005A2] (AR v2)
Track 12 accurately ripped (confidence 2) [E1FE634D] (AR v2)

All tracks accurately ripped

End of status report

==== Log checksum 6E09CBBA3F65FB924B6C055078D86A2F6220416013B4A430126EF2C27CDFCEE1 ====


Fernando Express - 10 Albums (1992-2008)

Fernando Express - Tanz auf dem Vulkan (2007)
EAC Rip | FLAC (image+.cue, log) ~ 313.80 Mb | 43:26 | Covers
Pop, Schlager | Country: Germany | Label: Koch Universal (0 602517231504)

Track List:
1. Tanz auf dem Vulkan
2. Auch kleine Drachen fliegen in den Himmel
3. Tausend und ein Gefuhl
4. Halleluja Blue
5. Fliegen bis zum Regenbogen
6. Solang noch Wunder moglich sind
7. Vaya con Fortuna
8. Im Namen der Liebe
9. Das ein mal eins der Liebe
10. Du bist mein tagliches Wunder
11. Sonne im Gesicht
12. Einfach ein bisschen Sehnsucht

Exact Audio Copy V1.0 beta 3 from 29. August 2011

EAC extraction logfile from 28. May 2016, 21:06

Fernando Express / Tanz auf dem Vulkan

Used drive : HL-DT-STDVDRAM GSA-T20N Adapter: 2 ID: 0

Read mode : Secure
Utilize accurate stream : Yes
Defeat audio cache : Yes
Make use of C2 pointers : No

Read offset correction : 667
Overread into Lead-In and Lead-Out : No
Fill up missing offset samples with silence : Yes
Delete leading and trailing silent blocks : No
Null samples used in CRC calculations : Yes
Used interface : Native Win32 interface for Win NT & 2000

Used output format : User Defined Encoder
Selected bitrate : 128 kBit/s
Quality : High
Add ID3 tag : No
Command line compressor : C:\Program Files\Exact Audio Copy\Flac\flac.exe
Additional command line options : -V -8 %source%

TOC of the extracted CD

Track | Start | Length | Start sector | End sector
––––––––––––––––––––––––––––-
1 | 0:00.00 | 3:33.24 | 0 | 15998
2 | 3:33.24 | 3:55.68 | 15999 | 33691
3 | 7:29.17 | 3:20.34 | 33692 | 48725
4 | 10:49.51 | 3:33.03 | 48726 | 64703
5 | 14:22.54 | 3:45.57 | 64704 | 81635
6 | 18:08.36 | 3:40.30 | 81636 | 98165
7 | 21:48.66 | 3:21.01 | 98166 | 113241
8 | 25:09.67 | 3:31.69 | 113242 | 129135
9 | 28:41.61 | 3:27.05 | 129136 | 144665
10 | 32:08.66 | 3:27.34 | 144666 | 160224
11 | 35:36.25 | 3:21.42 | 160225 | 175341
12 | 38:57.67 | 4:28.74 | 175342 | 195515

Range status and errors

Selected range

Filename C:\Users\Влад\Documents\Fernando Express - Tanz auf dem Vulkan.wav

Peak level 93.8 %
Extraction speed 3.8 X
Range quality 99.9 %
Test CRC 3230C4EC
Copy CRC 3230C4EC
Copy OK

No errors occurred

AccurateRip summary

Track 1 not present in database
Track 2 not present in database
Track 3 not present in database
Track 4 not present in database
Track 5 not present in database
Track 6 not present in database
Track 7 not present in database
Track 8 not present in database
Track 9 not present in database
Track 10 not present in database
Track 11 not present in database
Track 12 not present in database

None of the tracks are present in the AccurateRip database

End of status report

==== Log checksum 8AD01C84000D66FF2E13119C8B243FD94B8BF3169987657CDEDAAF73D357BFB4 ====


Fernando Express - 10 Albums (1992-2008)

Fernando Express - Über alle 7 Meere (2007)
EAC Rip | FLAC (image+.cue, log) ~ 313.58 Mb | 41:39 | Covers
Pop, Schlager | Country: Germany | Label: Koch Universal (347 662)

Track List:
1. Über alle 7 Meere
2. Barfuss bis ans Ende der Welt
3. Die Insel der verlorenen Träume
4. Vino in Portofino
5. Fiesta Cubana
6. Santo Domingo, die Sterne und Du
7. Ein spanisches Märchen
8. Sonnentaucher
9. Ich bleib viel länger als der Sommer
10. Du bist mein schönstes Gefühl
11. Hallo Bonjour Mon Amour
12. Im Cabrio nach irgendwo

Exact Audio Copy V1.0 beta 3 from 29. August 2011

EAC extraction logfile from 4. April 2012, 19:52

Fernando Express / Über Alle 7 Meere

Used drive : PIONEER DVD RW DVR-109 Adapter: 0 ID: 1

Read mode : Secure
Utilize accurate stream : Yes
Defeat audio cache : Yes
Make use of C2 pointers : No

Read offset correction : 48
Overread into Lead-In and Lead-Out : No
Fill up missing offset samples with silence : Yes
Delete leading and trailing silent blocks : No
Null samples used in CRC calculations : Yes
Used interface : Native Win32 interface for Win NT & 2000

Used output format : Internal WAV Routines
Sample format : 44.100 Hz; 16 Bit; Stereo

TOC of the extracted CD

Track | Start | Length | Start sector | End sector
––––––––––––––––––––––––––––-
1 | 0:00.00 | 3:30.45 | 0 | 15794
2 | 3:30.45 | 3:34.12 | 15795 | 31856
3 | 7:04.57 | 3:29.35 | 31857 | 47566
4 | 10:34.17 | 3:13.69 | 47567 | 62110
5 | 13:48.11 | 2:54.42 | 62111 | 75202
6 | 16:42.53 | 3:31.20 | 75203 | 91047
7 | 20:13.73 | 3:35.56 | 91048 | 107228
8 | 23:49.54 | 3:43.07 | 107229 | 123960
9 | 27:32.61 | 3:19.23 | 123961 | 138908
10 | 30:52.09 | 3:43.29 | 138909 | 155662
11 | 34:35.38 | 3:49.42 | 155663 | 172879
12 | 38:25.05 | 3:14.55 | 172880 | 187484

Range status and errors

Selected range

Filename F:\Audio\Fernando Express\Fernando Express - Ueber alle 7 Meere.wav

Peak level 100.0 %
Extraction speed 6.9 X
Range quality 100.0 %
Test CRC 1F784B79
Copy CRC 1F784B79
Copy OK

No errors occurred

AccurateRip summary

Track 1 not present in database
Track 2 not present in database
Track 3 not present in database
Track 4 not present in database
Track 5 not present in database
Track 6 not present in database
Track 7 not present in database
Track 8 not present in database
Track 9 not present in database
Track 10 not present in database
Track 11 not present in database
Track 12 not present in database

None of the tracks are present in the AccurateRip database

End of status report

==== Log checksum B1AB3A8D8F5E6A1EF86A464015BEF2B4A91D6161C3F37BC7C63F9D470F4ACBD8 ====


Fernando Express - 10 Albums (1992-2008)

Fernando Express - Meer der Zärtlichkeit (2008)
EAC Rip | FLAC (image+.cue, log) ~ 313.58 Mb | 42:59 | Covers
Pop, Schlager | Country: Germany | Label: EMI Germany

Track List:
1. Der rote Mond von Agadir
2. Das Meer der Zärtlichkeit
3. Geboren für die Sehnsucht
4. Das Feuer der Sterne
5. Luna de la Montagna
6. Sieben Nächte
7. Ich lass die Seele heute träumen
8. Das Märchen von Arcadia
9. Sonnenscheingefühl
10. Piroschka
11. Im Sturm der Gefühle
12. Isla Margarita

Exact Audio Copy V1.0 beta 3 from 29. August 2011

EAC extraction logfile from 4. April 2012, 20:25

FERNANDO EXPRESS / Meer der Zärtlichkeit

Used drive : PIONEER DVD RW DVR-109 Adapter: 0 ID: 1

Read mode : Secure
Utilize accurate stream : Yes
Defeat audio cache : Yes
Make use of C2 pointers : No

Read offset correction : 48
Overread into Lead-In and Lead-Out : No
Fill up missing offset samples with silence : Yes
Delete leading and trailing silent blocks : No
Null samples used in CRC calculations : Yes
Used interface : Native Win32 interface for Win NT & 2000

Used output format : Internal WAV Routines
Sample format : 44.100 Hz; 16 Bit; Stereo

TOC of the extracted CD

Track | Start | Length | Start sector | End sector
––––––––––––––––––––––––––––-
1 | 0:00.00 | 3:29.07 | 0 | 15681
2 | 3:29.07 | 3:41.16 | 15682 | 32272
3 | 7:10.23 | 4:01.11 | 32273 | 50358
4 | 11:11.34 | 3:19.11 | 50359 | 65294
5 | 14:30.45 | 4:08.28 | 65295 | 83922
6 | 18:38.73 | 3:19.23 | 83923 | 98870
7 | 21:58.21 | 3:42.38 | 98871 | 115558
8 | 25:40.59 | 3:24.06 | 115559 | 130864
9 | 29:04.65 | 3:28.73 | 130865 | 146537
10 | 32:33.63 | 3:15.23 | 146538 | 161185
11 | 35:49.11 | 3:26.68 | 161186 | 176703
12 | 39:16.04 | 3:43.54 | 176704 | 193482

Range status and errors

Selected range

Filename F:\Audio\Fernando Express\Fernando Express - Meer der Zaertlichkeit.wav

Peak level 99.8 %
Extraction speed 6.6 X
Range quality 100.0 %
Test CRC 644781D4
Copy CRC 644781D4
Copy OK

No errors occurred

AccurateRip summary

Track 1 not present in database
Track 2 not present in database
Track 3 not present in database
Track 4 not present in database
Track 5 not present in database
Track 6 not present in database
Track 7 not present in database
Track 8 not present in database
Track 9 not present in database
Track 10 not present in database
Track 11 not present in database
Track 12 not present in database

None of the tracks are present in the AccurateRip database

End of status report

==== Log checksum 910A291014E5067916E1934D4E55DBCC335918465D6A11F43014E5F0E179AF1A ====


All thanks go to the Владислав1973, AudioCD

More Music in My Blog
Follow My RSS Channel