Subcategories

Flim & The BB's - Big Notes (1985)

Posted By: shamanicus
Flim & The BB's - Big Notes (1985)

Flim & The BB's - Big Notes (1985)
EAC Rip | FLAC (tracks+.cue, log) | Artwork (600dpi, png) | 432 mb | MP3 CBR 320kbps | RAR | 278 mb
Jazz, Fusion, Smooth Jazz | Label: Digital Music Products - CD-454

From the orchestrated introduction of "New America" to the closing ballad, "Born to Love You," Flim & the BB's showcase their impeccable chops. Of course, great musicianship does not necessarily result in great, or even good, music; but Big Notes is overflowing with good music and immaculate production. "Boogie Palace" and "Atosha" are highlights among the 11 tracks. A sense of humor also helps to make this package a big noteworthy success.

Flim & The BB's - Big Notes (1985)


Tracklist:

Flim & The BB's - Big Notes (1985)


01. New America
02. Heart Throb
03. At The Hop
04. Funhouse
05. Bergland
06. Street Charmer
07. Boogie Palace
08. Rebecca's Hideaway
09. Invisible Woman
10. Atosha
11. Born To Love You

Flim & The BB's - Big Notes (1985)



Exact Audio Copy V1.0 beta 3 from 29. August 2011

EAC extraction logfile from 17. May 2016, 13:56

Flim & The BB's / Big Notes

Used drive : hp DVD A DH16ABSH Adapter: 0 ID: 0

Read mode : Secure
Utilize accurate stream : Yes
Defeat audio cache : Yes
Make use of C2 pointers : No

Read offset correction : 6
Overread into Lead-In and Lead-Out : No
Fill up missing offset samples with silence : Yes
Delete leading and trailing silent blocks : No
Null samples used in CRC calculations : Yes
Used interface : Native Win32 interface for Win NT & 2000
Gap handling : Appended to previous track

Used output format : User Defined Encoder
Selected bitrate : 896 kBit/s
Quality : High
Add ID3 tag : No
Command line compressor : C:\Program Files (x86)\Exact Audio Copy\Flac\flac.exe
Additional command line options : -8 -V -T "ARTIST=%artist%" -T "TITLE=%title%" -T "ALBUM=%albumtitle%" -T "DATE=%year%" -T "TRACKNUMBER=%tracknr%" -T "TOTALTRACKS=%numtracks%" -T "GENRE=%genre%" -T "ALBUMARTIST=%albumartist%" -T "ALBUM ARTIST=%albumartist%" -T "COMMENT=EAC Secure Mode, Test & Copy, AccurateRip, FLAC -8" %source%


TOC of the extracted CD

Track | Start | Length | Start sector | End sector
––––––––––––––––––––––––––––-
1 | 0:00.00 | 7:55.62 | 0 | 35686
2 | 7:55.62 | 6:24.08 | 35687 | 64494
3 | 14:19.70 | 8:29.00 | 64495 | 102669
4 | 22:48.70 | 5:56.62 | 102670 | 129431
5 | 28:45.57 | 7:45.58 | 129432 | 164364
6 | 36:31.40 | 6:55.62 | 164365 | 195551
7 | 43:27.27 | 4:46.35 | 195552 | 217036
8 | 48:13.62 | 3:40.50 | 217037 | 233586
9 | 51:54.37 | 4:25.68 | 233587 | 253529
10 | 56:20.30 | 3:40.30 | 253530 | 270059
11 | 60:00.60 | 5:15.50 | 270060 | 293734


Track 1

Filename C:\EAC\Flim & The BB's - Big Notes (1985) [FLAC] {Digital Music Products CD-454}\01 - New America.wav

Pre-gap length 0:00:02.00

Peak level 89.3 %
Extraction speed 4.4 X
Track quality 100.0 %
Test CRC 1A2DE07A
Copy CRC 1A2DE07A
Accurately ripped (confidence 45) [B525EC0F] (AR v2)
Copy OK

Track 2

Filename C:\EAC\Flim & The BB's - Big Notes (1985) [FLAC] {Digital Music Products CD-454}\02 - Heart Throb.wav

Pre-gap length 0:00:03.70

Peak level 96.5 %
Extraction speed 4.4 X
Track quality 99.9 %
Test CRC 7068AAD7
Copy CRC 7068AAD7
Accurately ripped (confidence 44) [29353D24] (AR v2)
Copy OK

Track 3

Filename C:\EAC\Flim & The BB's - Big Notes (1985) [FLAC] {Digital Music Products CD-454}\03 - At The Hop.wav

Pre-gap length 0:00:02.25

Peak level 97.5 %
Extraction speed 5.8 X
Track quality 100.0 %
Test CRC 0B929101
Copy CRC 0B929101
Accurately ripped (confidence 43) [78465FA5] (AR v2)
Copy OK

Track 4

Filename C:\EAC\Flim & The BB's - Big Notes (1985) [FLAC] {Digital Music Products CD-454}\04 - Funhouse.wav

Peak level 97.9 %
Extraction speed 6.1 X
Track quality 100.0 %
Test CRC 85179A39
Copy CRC 85179A39
Accurately ripped (confidence 44) [68E5BA24] (AR v2)
Copy OK

Track 5

Filename C:\EAC\Flim & The BB's - Big Notes (1985) [FLAC] {Digital Music Products CD-454}\05 - Bergland.wav

Pre-gap length 0:00:02.05

Peak level 89.8 %
Extraction speed 5.9 X
Track quality 99.9 %
Test CRC B7ECF2E6
Copy CRC B7ECF2E6
Accurately ripped (confidence 44) [0CBE062D] (AR v2)
Copy OK

Track 6

Filename C:\EAC\Flim & The BB's - Big Notes (1985) [FLAC] {Digital Music Products CD-454}\06 - Street Charmer.wav

Peak level 78.0 %
Extraction speed 7.1 X
Track quality 100.0 %
Test CRC 50C20B68
Copy CRC 50C20B68
Accurately ripped (confidence 45) [0023D073] (AR v2)
Copy OK

Track 7

Filename C:\EAC\Flim & The BB's - Big Notes (1985) [FLAC] {Digital Music Products CD-454}\07 - Boogie Palace.wav

Pre-gap length 0:00:02.45

Peak level 92.1 %
Extraction speed 5.8 X
Track quality 99.9 %
Test CRC 7E32958D
Copy CRC 7E32958D
Accurately ripped (confidence 46) [B1690AF7] (AR v2)
Copy OK

Track 8

Filename C:\EAC\Flim & The BB's - Big Notes (1985) [FLAC] {Digital Music Products CD-454}\08 - Rebecca's Hideaway.wav

Pre-gap length 0:00:02.10

Peak level 89.8 %
Extraction speed 7.1 X
Track quality 100.0 %
Test CRC A982F435
Copy CRC A982F435
Accurately ripped (confidence 44) [E82EA8B1] (AR v2)
Copy OK

Track 9

Filename C:\EAC\Flim & The BB's - Big Notes (1985) [FLAC] {Digital Music Products CD-454}\09 - Invisible Woman.wav

Peak level 98.2 %
Extraction speed 6.1 X
Track quality 99.9 %
Test CRC 2AB94F57
Copy CRC 2AB94F57
Accurately ripped (confidence 46) [C5AA62A8] (AR v2)
Copy OK

Track 10

Filename C:\EAC\Flim & The BB's - Big Notes (1985) [FLAC] {Digital Music Products CD-454}\10 - Atosha.wav

Pre-gap length 0:00:02.74

Peak level 97.8 %
Extraction speed 5.8 X
Track quality 99.9 %
Test CRC 5515656C
Copy CRC 5515656C
Accurately ripped (confidence 45) [C8D316A6] (AR v2)
Copy OK

Track 11

Filename C:\EAC\Flim & The BB's - Big Notes (1985) [FLAC] {Digital Music Products CD-454}\11 - Born To Love You.wav

Pre-gap length 0:00:01.13

Peak level 99.7 %
Extraction speed 8.1 X
Track quality 100.0 %
Test CRC DE308465
Copy CRC DE308465
Accurately ripped (confidence 43) [83369901] (AR v2)
Copy OK


All tracks accurately ripped

No errors occurred

End of status report

==== Log checksum 45AB96105BC32BB6ECF55813A370A6843D22369CD98924855FFD8ACC50611912 ====


Thanks to the Original customer.