Subcategories

Frank Marino - Juggernaut

Posted By: karfaks
Frank Marino - Juggernaut

Frank Marino - Juggernaut
FLAC | image + cue | EAC log | Audiochecker log | scans | 340 Mb | 1982


Tracks:

1. Strange Dreams
2. Midnight Highway
3. Stories Of A Hero
4. Free
5. Maybe It's Time
6. Ditch Queen
7. For Your Love
8. Juggernaut


Frank Marino - guitars, vocals, synthesizer
Paul Harwood - bass guitar
Vince Marino - rhythm guitar
Timm Biery - drums, percussion

Exact Audio Copy V0.99 prebeta 4 from 23. January 2008

EAC extraction logfile from 10. January 2009, 1:16

Frank Marino / Juggernaut

Used drive : Optiarc DVD RW AD-7173A Adapter: 0 ID: 0

Read mode : Secure
Utilize accurate stream : Yes
Defeat audio cache : Yes
Make use of C2 pointers : No

Read offset correction : 48
Overread into Lead-In and Lead-Out : No
Fill up missing offset samples with silence : Yes
Delete leading and trailing silent blocks : No
Null samples used in CRC calculations : Yes
Used interface : Native Win32 interface for Win NT & 2000

Used output format : User Defined Encoder
Selected bitrate : 320 kBit/s
Quality : High
Add ID3 tag : No
Command line compressor : C:\Program Files\Exact Audio Copy\Flac\flac.exe
Additional command line options : -V -8 -T "artist=%a" -T "title=%t" -T "album=%g" -T "date=%y" -T "tracknumber=%n" -T "genre=%m" %s


TOC of the extracted CD

Track | Start | Length | Start sector | End sector
––––––––––––––––––––––––––––-
1 | 0:00.00 | 5:05.25 | 0 | 22899
2 | 5:05.25 | 3:44.50 | 22900 | 39749
3 | 8:50.00 | 8:01.55 | 39750 | 75879
4 | 16:51.55 | 5:18.00 | 75880 | 99729
5 | 22:09.55 | 6:06.42 | 99730 | 127221
6 | 28:16.22 | 6:38.25 | 127222 | 157096
7 | 34:54.47 | 4:36.58 | 157097 | 177854
8 | 39:31.30 | 4:59.70 | 177855 | 200349


Range status and errors

Selected range

Filename I:\Frank Marino - Juggernaut\Frank Marino - Juggernaut.wav

Peak level 98.7 %
Range quality 100.0 %
Test CRC 0A31753F
Copy CRC 0A31753F
Copy OK

No errors occurred


AccurateRip summary

Track 1 accurately ripped (confidence 2) [4860027C]
Track 2 accurately ripped (confidence 2) [1ED43602]
Track 3 accurately ripped (confidence 2) [FD889B5B]
Track 4 accurately ripped (confidence 2) [F4A038D5]
Track 5 accurately ripped (confidence 2) [FCA63E14]
Track 6 accurately ripped (confidence 2) [EBDB7078]
Track 7 accurately ripped (confidence 2) [8E9B04C4]
Track 8 accurately ripped (confidence 2) [E531E508]

All tracks accurately ripped

End of status report

Started at: Saturday, 10. 01. 2009. - 1:18.14
1 file found

1 -===- I:\Frank Marino - Juggernaut\Frank Marino - Juggernaut.flac
Extracted successfully
Conclusion: this track is CDDA with probability 100%
Tempfile successfully deleted.


Finished at: Saturday, 10. 01. 2009. - 1:25.22 (operation time: 0:07.08)


http://rapidshare.com/files/294728776/jug_fmar.part1.rar
http://rapidshare.com/files/294731045/jug_fmar.part2.rar
http://rapidshare.com/files/294732888/jug_fmar.part3.rar
http://rapidshare.com/files/294733562/jug_fmar.part4.rar