Subcategories

Frank Zappa - Mothermania (1969) {Zappa Records 0238402 rel 2012}

Posted By: ruskaval
Frank Zappa - Mothermania (1969) {Zappa Records 0238402 rel 2012}

Frank Zappa - Mothermania (1969) {Zappa Records 0238402 rel 2012}
EAC rip (secure mode) | FLAC (tracks)+CUE+LOG -> 262 Mb | MP3 @320 -> 99 Mb
Full Artwork @ 600 dpi (png) -> 173 Mb | 5% repair rar | 24-bit remaster by Bob Ludwig
© 1969, 2012 Zappa Records / Universal | 0238402 / ZR 3840
Rock / Experimental Rock

Official Release #7. Mothermania, subtitled The Best of the Mothers, is a compilation album by the Mothers of Invention. While the songs were previously released on Freak Out!, Absolutely Free and We're Only in It for the Money, it contains unique mixes or edits done specifically for this compilation. Mothermania is a collection of previously released tunes culled from the first three Mothers of Invention albums. So why bother? Well, it's the only early collection actually compiled by FZ. Verve released a bunch of early compilations without permission, but more importantly, this is the only place you can hear some of these mixes and edits. Many of the tunes from Freak Out! appear in different mixes, while "It Can't Happen Here" plays through without the interruptions of the Freak Out! version.

The We're Only In It for the Money tracks might be even more interesting. The backwards snippet that closes side one of the original WOIIFTM album was a censored verse from "Mother People," and Mothermania is the only place you can hear the original uncensored version of the song. The version of "Idiot Bastard Son" has an otherwise unheard instrumental introduction and a VERY different mix, and plays through without the edits and interruptions of the WOIIFTM version. Mothermania could hardly be called essential, but it does have some really interesting material that any hardcore fan of FZ's early years would want to hear.
Frank Zappa - Mothermania (1969) {Zappa Records 0238402 rel 2012}


Personnel:
Frank Zappa / guitar, keyboards, vocals
Don Preston / bass, keyboards
Jimmy Carl Black / percussion, drums
Roy Estrada / bass, vocals
Bunk Gardner / wind
Elliot Ingber / guitar
Billy Mundi / drums, vocals
Jim Sherwood / guitar, vocals, wind
Art Tripp / drums
Ian Underwood / guitar, keyboards, wind

tracklist:
01 - Brown Shoes Don't Make It
02 - Mother People
03 - Duke Of Prunes
04 - Call Any Vegetable
05 - The Idiot Bastard Son
06 - It Can't Happen Here
07 - You're Probably Wondering Why I'm Here
08 - Who Are The Brain Police
09 - Plastic People
10 - Hungry Freaks, Daddy
11 - America Drinks & Goes Home

Exact Audio Copy V1.0 beta 3 from 29. August 2011

EAC extraction logfile from 10. September 2014, 18:57

Frank Zappa / Mothermania. The Best Of The Mothers

Used drive : TSSTcorpCDDVDW SE-208DB Adapter: 7 ID: 0

Read mode : Secure
Utilize accurate stream : Yes
Defeat audio cache : Yes
Make use of C2 pointers : No

Read offset correction : 6
Overread into Lead-In and Lead-Out : No
Fill up missing offset samples with silence : Yes
Delete leading and trailing silent blocks : No
Null samples used in CRC calculations : Yes
Used interface : Native Win32 interface for Win NT & 2000
Gap handling : Appended to previous track

Used output format : User Defined Encoder
Selected bitrate : 1024 kBit/s
Quality : High
Add ID3 tag : No
Command line compressor : C:\Program Files (x86)\FLAC Frontend\tools\flac.exe
Additional command line options : -8 -V -T "ARTIST=%artist%" -T "TITLE=%title%" -T "ALBUM=%albumtitle%" -T "DATE=%year%" -T "TRACKNUMBER=%tracknr%" -T "TOTALTRACKS=%numtracks%" -T "GENRE=%genre%" -T "ALBUMARTIST=%albumartist%" -T "ALBUM ARTIST=%albumartist%" -T "COMMENT=EAC Secure Mode, Test & Copy, AccurateRip, FLAC -8" %source%


TOC of the extracted CD

Track | Start | Length | Start sector | End sector
––––––––––––––––––––––––––––-
1 | 0:00.00 | 7:31.01 | 0 | 33825
2 | 7:31.01 | 1:41.58 | 33826 | 41458
3 | 9:12.59 | 5:07.36 | 41459 | 64519
4 | 14:20.20 | 4:22.72 | 64520 | 84241
5 | 18:43.17 | 2:24.68 | 84242 | 95109
6 | 21:08.10 | 3:18.30 | 95110 | 109989
7 | 24:26.40 | 3:39.70 | 109990 | 126484
8 | 28:06.35 | 3:31.41 | 126485 | 142350
9 | 31:38.01 | 3:42.28 | 142351 | 159028
10 | 35:20.29 | 3:30.00 | 159029 | 174778
11 | 38:50.29 | 2:47.71 | 174779 | 187374


Track 1

Filename C:\Frank Zappa - Mothermania. The Best Of The Mothers (1969) {2012 Zappa Records Remaster}\01 - Brown Shoes Don't Make It.wav

Pre-gap length 0:00:02.00

Peak level 98.6 %
Extraction speed 3.0 X
Track quality 100.0 %
Test CRC ABF8E004
Copy CRC ABF8E004
Accurately ripped (confidence 17) [3A18F043] (AR v2)
Copy OK

Track 2

Filename C:\Frank Zappa - Mothermania. The Best Of The Mothers (1969) {2012 Zappa Records Remaster}\02 - Mother People.wav

Peak level 98.8 %
Extraction speed 2.6 X
Track quality 100.0 %
Test CRC 31B1CC29
Copy CRC 31B1CC29
Accurately ripped (confidence 17) [DB736E21] (AR v2)
Copy OK

Track 3

Filename C:\Frank Zappa - Mothermania. The Best Of The Mothers (1969) {2012 Zappa Records Remaster}\03 - Duke Of Prunes.wav

Peak level 98.5 %
Extraction speed 3.4 X
Track quality 100.0 %
Test CRC 45147609
Copy CRC 45147609
Accurately ripped (confidence 17) [300817AE] (AR v2)
Copy OK

Track 4

Filename C:\Frank Zappa - Mothermania. The Best Of The Mothers (1969) {2012 Zappa Records Remaster}\04 - Call Any Vegetable.wav

Peak level 98.6 %
Extraction speed 2.9 X
Track quality 99.9 %
Test CRC 4FD12B7A
Copy CRC 4FD12B7A
Accurately ripped (confidence 17) [13677128] (AR v2)
Copy OK

Track 5

Filename C:\Frank Zappa - Mothermania. The Best Of The Mothers (1969) {2012 Zappa Records Remaster}\05 - The Idiot Bastard Son.wav

Peak level 98.8 %
Extraction speed 3.5 X
Track quality 100.0 %
Test CRC 49424418
Copy CRC 49424418
Accurately ripped (confidence 17) [666C2501] (AR v2)
Copy OK

Track 6

Filename C:\Frank Zappa - Mothermania. The Best Of The Mothers (1969) {2012 Zappa Records Remaster}\06 - It Can't Happen Here.wav

Peak level 82.5 %
Extraction speed 3.8 X
Track quality 100.0 %
Test CRC CB802CD6
Copy CRC CB802CD6
Accurately ripped (confidence 17) [0EA0DD15] (AR v2)
Copy OK

Track 7

Filename C:\Frank Zappa - Mothermania. The Best Of The Mothers (1969) {2012 Zappa Records Remaster}\07 - You're Probably Wondering Why I'm Here.wav

Peak level 98.5 %
Extraction speed 4.0 X
Track quality 100.0 %
Test CRC 8F32FBF7
Copy CRC 8F32FBF7
Accurately ripped (confidence 17) [CD5A9D9A] (AR v2)
Copy OK

Track 8

Filename C:\Frank Zappa - Mothermania. The Best Of The Mothers (1969) {2012 Zappa Records Remaster}\08 - Who Are The Brain Police.wav

Peak level 75.4 %
Extraction speed 4.2 X
Track quality 100.0 %
Test CRC 6DC38B62
Copy CRC 6DC38B62
Accurately ripped (confidence 17) [27B33B97] (AR v2)
Copy OK

Track 9

Filename C:\Frank Zappa - Mothermania. The Best Of The Mothers (1969) {2012 Zappa Records Remaster}\09 - Plastic People.wav

Peak level 98.5 %
Extraction speed 4.3 X
Track quality 100.0 %
Test CRC FE493879
Copy CRC FE493879
Accurately ripped (confidence 17) [7FB621AF] (AR v2)
Copy OK

Track 10

Filename C:\Frank Zappa - Mothermania. The Best Of The Mothers (1969) {2012 Zappa Records Remaster}\10 - Hungry Freaks, Daddy.wav

Peak level 98.6 %
Extraction speed 4.4 X
Track quality 100.0 %
Test CRC B618B372
Copy CRC B618B372
Accurately ripped (confidence 17) [F8EBE0CD] (AR v2)
Copy OK

Track 11

Filename C:\Frank Zappa - Mothermania. The Best Of The Mothers (1969) {2012 Zappa Records Remaster}\11 - America Drinks & Goes Home.wav

Peak level 98.6 %
Extraction speed 4.3 X
Track quality 100.0 %
Test CRC AA91466B
Copy CRC AA91466B
Accurately ripped (confidence 17) [9D55981F] (AR v2)
Copy OK


All tracks accurately ripped

No errors occurred

End of status report

==== Log checksum 18CB1A8F0AC77B738E35FC65AE12BAA1420CB121BEF5D246209A4854C4D81FC9 ====


Frank Zappa - Mothermania (1969) {Zappa Records 0238402 rel 2012}

Frank Zappa - Mothermania (1969) {Zappa Records 0238402 rel 2012}


More Frank Zappa…


===