Subcategories
Tags
Language
Tags

Frank Zappa - Zappa '88: The Last U.S. Show (2021)

Posted By: delpotro
Frank Zappa - Zappa '88: The Last U.S. Show (2021)

Frank Zappa - Zappa '88: The Last U.S. Show (2021)
EAC Rip | FLAC (tracks+log+.cue) - 951 Mb | MP3 CBR 320 kbps - 345 Mb | 02:30:07
Art Rock, Jazz Rock | Label: Zappa Records

On June 18, Zappa’s historic, final American show will be released for the first time as the new live album, Zappa ’88: The Last U.S. Show via Zappa Records/UMe. The first posthumous archival release from the ‘88 touring band, the album features 29 unreleased performances including two additional performances from the same tour: Zappa’s wild interpretations of the Allman Brothers Band’s “Whipping Post” from the March 16 show in Providence, R.I. and Led Zeppelin’s “Stairway To Heaven” from the March 23 Towson, Md. show. The record is also notable for containing the first official release of the much talked about “The Beatles Medley.”
Tracklist:
Disc 1 (01:14:57)
1. ‘‘We Are Doing Voter Registration Here’’ (Live At Nassau Coliseum, Uniondale, NY 3/25/88) (06:59)
2. The Black Page (New Age Version - Live At Nassau Coliseum, Uniondale, NY 3/25/88) (07:12)
3. I Ain’t Got No Heart (Live At Nassau Coliseum, Uniondale, NY 3/25/88) (01:59)
4. Love Of My Life (Live At Nassau Coliseum, Uniondale, NY 3/25/88) (02:13)
5. Inca Roads (Live At Nassau Coliseum, Uniondale, NY 3/25/88) (08:44)
6. Sharleena (Live At Nassau Coliseum, Uniondale, NY 3/25/88) (06:22)
7. Who Needs The Peace Corps? (Live At Nassau Coliseum, Uniondale, NY 3/25/88) (02:28)
8. I Left My Heart In San Francisco (Live At Nassau Coliseum, Uniondale, NY 3/25/88) (00:34)
9. Dickie’s Such An A*****e (Live At Nassau Coliseum, Uniondale, NY 3/25/88) (06:00)
10. When The Lie's So Big (Live At Nassau Coliseum, Uniondale, NY 3/25/88) (03:38)
11. Jesus Thinks You’re A Jerk (Live At Nassau Coliseum, Uniondale, NY 3/25/88) (08:46)
12. Sofa #1 (Live At Nassau Coliseum, Uniondale, NY 3/25/88) (02:44)
13. One Man, One Vote (Live At Nassau Coliseum, Uniondale, NY 3/25/88) (02:37)
14. Happy Birthday, Chad! (Live At Nassau Coliseum, Uniondale, NY 3/25/88) (01:24)
15. Packard Goose Pt. I (Live At Nassau Coliseum, Uniondale, NY 3/25/88) (02:55)
16. Royal March From "L'Histoire Du Soldat" (Live At Nassau Coliseum, Uniondale, NY 3/25/88) (01:16)
17. Theme From The Bartok Piano Concerto #3 (Live At Nassau Coliseum, Uniondale, NY 3/25/88) (01:19)
18. Packard Goose Pt. II (Live At Nassau Coliseum, Uniondale, NY 3/25/88) (02:03)
19. The Torture Never Stops Pt. I (Live At Nassau Coliseum, Uniondale, NY 3/25/88) (05:08)
20. Theme From "Bonanza" (Live At Nassau Coliseum, Uniondale, NY 3/25/88) (00:36)

Disc 2 (01:14:53)
1. Lonesome Cowboy Burt (Live At Nassau Coliseum, Uniondale, NY 3/25/88) (04:58)
2. The Torture Never Stops Pt. II (Live At Nassau Coliseum, Uniondale, NY 3/25/88) (07:29)
3. City Of Tiny Lites (Live At Nassau Coliseum, Uniondale, NY 3/25/88) (09:20)
4. Pound For A Brown (Live At Nassau Coliseum, Uniondale, NY 3/25/88) (10:55)
5. The Beatles Medley (Live At Nassau Coliseum, Uniondale, NY 3/25/88) (09:18)
6. Peaches En Regalia (Live At Nassau Coliseum, Uniondale, NY 3/25/88) (03:35)
7. Stairway To Heaven (Live At Towson Center, Towson, MD 3/23/88) (09:59)
8. I Am The Walrus (Live At Nassau Coliseum, Uniondale, NY 3/25/88) (03:36)
9. Whipping Post (Live At The Civic Center, Providence, RI 3/16/88) (06:17)
10. Bolero (Live At Nassau Coliseum, Uniondale, NY 3/25/88) (05:29)
11. America The Beautiful (Live At Nassau Colliseum, Uniondale, NY 3/25/88) (03:57)

Exact Audio Copy V1.3 from 2. September 2016

EAC extraction logfile from 12. June 2021, 16:11

Frank Zappa / Zappa '88: The Last U.S. Show

Used drive : HL-DT-STDVDRAM SP80NB80 Adapter: 1 ID: 1

Read mode : Secure
Utilize accurate stream : Yes
Defeat audio cache : Yes
Make use of C2 pointers : No

Read offset correction : 6
Overread into Lead-In and Lead-Out : No
Fill up missing offset samples with silence : Yes
Delete leading and trailing silent blocks : No
Null samples used in CRC calculations : Yes
Used interface : Native Win32 interface for Win NT & 2000
Gap handling : Appended to previous track

Used output format : User Defined Encoder
Selected bitrate : 1024 kBit/s
Quality : High
Add ID3 tag : No
Command line compressor : C:\Program Files (x86)\Exact Audio Copy\Flac\flac.exe
Additional command line options : -8 -V -T "ARTIST=%artist%" -T "TITLE=%title%" -T "ALBUM=%albumtitle%" -T "DATE=%year%" -T "TRACKNUMBER=%tracknr%" -T "GENRE=%genre%" -T "PERFORMER=%albuminterpret%" -T "COMPOSER=%composer%" %haslyrics%–tag-from-file=LYRICS="%lyricsfile%"%haslyrics% -T "ALBUMARTIST=%albumartist%" -T "DISCNUMBER=%cdnumber%" -T "TOTALDISCS=%totalcds%" -T "TOTALTRACKS=%numtracks%" -T "COMMENT=%comment%" %source% -o %dest%


TOC of the extracted CD

Track | Start | Length | Start sector | End sector
––––––––––––––––––––––––––––-
1 | 0:00.00 | 6:59.63 | 0 | 31487
2 | 6:59.63 | 7:12.12 | 31488 | 63899
3 | 14:12.00 | 1:59.15 | 63900 | 72839
4 | 16:11.15 | 2:13.49 | 72840 | 82863
5 | 18:24.64 | 8:44.17 | 82864 | 122180
6 | 27:09.06 | 6:22.13 | 122181 | 150843
7 | 33:31.19 | 2:28.47 | 150844 | 161990
8 | 35:59.66 | 0:34.68 | 161991 | 164608
9 | 36:34.59 | 6:00.40 | 164609 | 191648
10 | 42:35.24 | 3:38.28 | 191649 | 208026
11 | 46:13.52 | 8:46.47 | 208027 | 247523
12 | 55:00.24 | 2:44.58 | 247524 | 259881
13 | 57:45.07 | 2:37.74 | 259882 | 271730
14 | 60:23.06 | 1:24.11 | 271731 | 278041
15 | 61:47.17 | 2:55.49 | 278042 | 291215
16 | 64:42.66 | 1:16.36 | 291216 | 296951
17 | 65:59.27 | 1:19.68 | 296952 | 302944
18 | 67:19.20 | 2:03.05 | 302945 | 312174
19 | 69:22.25 | 5:08.73 | 312175 | 335347
20 | 74:31.23 | 0:36.15 | 335348 | 338062


Track 1

Filename C:\EAC Rips\Frank Zappa - Zappa '88 The Last U.S. Show (2021) [2CD-FLAC]\CD1\01 - “We Are Doing Voter Registration Here”.wav

Pre-gap length 0:00:02.00

Peak level 94.0 %
Extraction speed 1.3 X
Track quality 100.0 %
Test CRC D659C730
Copy CRC D659C730
Track not present in AccurateRip database
Copy OK

Track 2

Filename C:\EAC Rips\Frank Zappa - Zappa '88 The Last U.S. Show (2021) [2CD-FLAC]\CD1\02 - The Black Page (New Age Version).wav

Peak level 94.0 %
Extraction speed 1.6 X
Track quality 100.0 %
Test CRC 0B5A1009
Copy CRC 0B5A1009
Track not present in AccurateRip database
Copy OK

Track 3

Filename C:\EAC Rips\Frank Zappa - Zappa '88 The Last U.S. Show (2021) [2CD-FLAC]\CD1\03 - I Ain’t Got No Heart.wav

Peak level 94.0 %
Extraction speed 0.8 X
Track quality 99.9 %
Test CRC 7AFFF826
Copy CRC 7AFFF826
Track not present in AccurateRip database
Copy OK

Track 4

Filename C:\EAC Rips\Frank Zappa - Zappa '88 The Last U.S. Show (2021) [2CD-FLAC]\CD1\04 - Love Of My Life.wav

Peak level 94.0 %
Extraction speed 1.5 X
Track quality 100.0 %
Test CRC A64BC451
Copy CRC A64BC451
Track not present in AccurateRip database
Copy OK

Track 5

Filename C:\EAC Rips\Frank Zappa - Zappa '88 The Last U.S. Show (2021) [2CD-FLAC]\CD1\05 - Inca Roads.wav

Peak level 94.0 %
Extraction speed 1.6 X
Track quality 99.9 %
Test CRC 18EB7899
Copy CRC 18EB7899
Track not present in AccurateRip database
Copy OK

Track 6

Filename C:\EAC Rips\Frank Zappa - Zappa '88 The Last U.S. Show (2021) [2CD-FLAC]\CD1\06 - Sharleena.wav

Peak level 94.0 %
Extraction speed 2.0 X
Track quality 100.0 %
Test CRC AD14DB95
Copy CRC AD14DB95
Track not present in AccurateRip database
Copy OK

Track 7

Filename C:\EAC Rips\Frank Zappa - Zappa '88 The Last U.S. Show (2021) [2CD-FLAC]\CD1\07 - Who Needs The Peace Corps.wav

Peak level 94.0 %
Extraction speed 1.9 X
Track quality 100.0 %
Test CRC A574636A
Copy CRC A574636A
Track not present in AccurateRip database
Copy OK

Track 8

Filename C:\EAC Rips\Frank Zappa - Zappa '88 The Last U.S. Show (2021) [2CD-FLAC]\CD1\08 - I Left My Heart In San Francisco.wav

Peak level 94.0 %
Extraction speed 1.1 X
Track quality 100.0 %
Test CRC 2056C759
Copy CRC 2056C759
Track not present in AccurateRip database
Copy OK

Track 9

Filename C:\EAC Rips\Frank Zappa - Zappa '88 The Last U.S. Show (2021) [2CD-FLAC]\CD1\09 - Dickie’s Such An Asshole.wav

Peak level 94.0 %
Extraction speed 1.7 X
Track quality 99.9 %
Test CRC E610887A
Copy CRC E610887A
Track not present in AccurateRip database
Copy OK

Track 10

Filename C:\EAC Rips\Frank Zappa - Zappa '88 The Last U.S. Show (2021) [2CD-FLAC]\CD1\10 - When The Lie’s So Big.wav

Peak level 94.0 %
Extraction speed 2.2 X
Track quality 100.0 %
Test CRC A940CC35
Copy CRC A940CC35
Track not present in AccurateRip database
Copy OK

Track 11

Filename C:\EAC Rips\Frank Zappa - Zappa '88 The Last U.S. Show (2021) [2CD-FLAC]\CD1\11 - Jesus Thinks You’re A Jerk.wav

Peak level 94.0 %
Extraction speed 2.5 X
Track quality 100.0 %
Test CRC 4075FED7
Copy CRC 4075FED7
Track not present in AccurateRip database
Copy OK

Track 12

Filename C:\EAC Rips\Frank Zappa - Zappa '88 The Last U.S. Show (2021) [2CD-FLAC]\CD1\12 - Sofa #1.wav

Peak level 94.0 %
Extraction speed 2.3 X
Track quality 100.0 %
Test CRC 46E4AD35
Copy CRC 46E4AD35
Track not present in AccurateRip database
Copy OK

Track 13

Filename C:\EAC Rips\Frank Zappa - Zappa '88 The Last U.S. Show (2021) [2CD-FLAC]\CD1\13 - One Man, One Vote.wav

Peak level 94.0 %
Extraction speed 2.3 X
Track quality 100.0 %
Test CRC 81241892
Copy CRC 81241892
Track not present in AccurateRip database
Copy OK

Track 14

Filename C:\EAC Rips\Frank Zappa - Zappa '88 The Last U.S. Show (2021) [2CD-FLAC]\CD1\14 - Happy Birthday, Chad!.wav

Peak level 94.0 %
Extraction speed 2.0 X
Track quality 100.0 %
Test CRC 741A5583
Copy CRC 741A5583
Track not present in AccurateRip database
Copy OK

Track 15

Filename C:\EAC Rips\Frank Zappa - Zappa '88 The Last U.S. Show (2021) [2CD-FLAC]\CD1\15 - Packard Goose Pt. 1.wav

Peak level 100.0 %
Extraction speed 2.4 X
Track quality 100.0 %
Test CRC 44EE698A
Copy CRC 44EE698A
Track not present in AccurateRip database
Copy OK

Track 16

Filename C:\EAC Rips\Frank Zappa - Zappa '88 The Last U.S. Show (2021) [2CD-FLAC]\CD1\16 - Royal March From “L’Histoire Du Soldat”.wav

Peak level 94.0 %
Extraction speed 1.9 X
Track quality 100.0 %
Test CRC 154B4044
Copy CRC 154B4044
Track not present in AccurateRip database
Copy OK

Track 17

Filename C:\EAC Rips\Frank Zappa - Zappa '88 The Last U.S. Show (2021) [2CD-FLAC]\CD1\17 - Theme From The Bartok Piano Concerto #3.wav

Peak level 94.0 %
Extraction speed 2.0 X
Track quality 100.0 %
Test CRC FD20F32B
Copy CRC FD20F32B
Track not present in AccurateRip database
Copy OK

Track 18

Filename C:\EAC Rips\Frank Zappa - Zappa '88 The Last U.S. Show (2021) [2CD-FLAC]\CD1\18 - Packard Goose Pt. II.wav

Peak level 94.0 %
Extraction speed 2.2 X
Track quality 100.0 %
Test CRC 4704942B
Copy CRC 4704942B
Track not present in AccurateRip database
Copy OK

Track 19

Filename C:\EAC Rips\Frank Zappa - Zappa '88 The Last U.S. Show (2021) [2CD-FLAC]\CD1\19 - The Torture Never Stops Pt. I.wav

Peak level 94.0 %
Extraction speed 2.7 X
Track quality 100.0 %
Test CRC 6D42CF28
Copy CRC 6D42CF28
Track not present in AccurateRip database
Copy OK

Track 20

Filename C:\EAC Rips\Frank Zappa - Zappa '88 The Last U.S. Show (2021) [2CD-FLAC]\CD1\20 - Theme From “Bonanza”.wav

Peak level 94.0 %
Extraction speed 0.5 X
Track quality 99.7 %
Test CRC C94CE7A6
Copy CRC C94CE7A6
Track not present in AccurateRip database
Copy OK


None of the tracks are present in the AccurateRip database

No errors occurred

End of status report

–– CUETools DB Plugin V2.1.6

[CTDB TOCID: Bhyj3OdYKaheYR2AGKVVRKe8HNk-] disk not present in database
Submit result: Bhyj3OdYKaheYR2AGKVVRKe8HNk- has been uploaded


==== Log checksum 38630DF2BB8CD965D9D6791F013E774791FBF27B4064E40015C8F8A4B9F6CB33 ====
Exact Audio Copy V1.3 from 2. September 2016

EAC extraction logfile from 12. June 2021, 17:56

Frank Zappa / Zappa '88: The Last U.S. Show

Used drive : HL-DT-STDVDRAM SP80NB80 Adapter: 1 ID: 1

Read mode : Secure
Utilize accurate stream : Yes
Defeat audio cache : Yes
Make use of C2 pointers : No

Read offset correction : 6
Overread into Lead-In and Lead-Out : No
Fill up missing offset samples with silence : Yes
Delete leading and trailing silent blocks : No
Null samples used in CRC calculations : Yes
Used interface : Native Win32 interface for Win NT & 2000
Gap handling : Appended to previous track

Used output format : User Defined Encoder
Selected bitrate : 1024 kBit/s
Quality : High
Add ID3 tag : No
Command line compressor : C:\Program Files (x86)\Exact Audio Copy\Flac\flac.exe
Additional command line options : -8 -V -T "ARTIST=%artist%" -T "TITLE=%title%" -T "ALBUM=%albumtitle%" -T "DATE=%year%" -T "TRACKNUMBER=%tracknr%" -T "GENRE=%genre%" -T "PERFORMER=%albuminterpret%" -T "COMPOSER=%composer%" %haslyrics%–tag-from-file=LYRICS="%lyricsfile%"%haslyrics% -T "ALBUMARTIST=%albumartist%" -T "DISCNUMBER=%cdnumber%" -T "TOTALDISCS=%totalcds%" -T "TOTALTRACKS=%numtracks%" -T "COMMENT=%comment%" %source% -o %dest%


TOC of the extracted CD

Track | Start | Length | Start sector | End sector
––––––––––––––––––––––––––––-
1 | 0:00.00 | 4:58.33 | 0 | 22382
2 | 4:58.33 | 7:29.26 | 22383 | 56083
3 | 12:27.59 | 9:20.64 | 56084 | 98147
4 | 21:48.48 | 10:55.51 | 98148 | 147323
5 | 32:44.24 | 9:18.50 | 147324 | 189223
6 | 42:02.74 | 3:35.50 | 189224 | 205398
7 | 45:38.49 | 9:59.67 | 205399 | 250390
8 | 55:38.41 | 3:36.43 | 250391 | 266633
9 | 59:15.09 | 6:17.45 | 266634 | 294953
10 | 65:32.54 | 5:29.59 | 294954 | 319687
11 | 71:02.38 | 3:57.34 | 319688 | 337496


Track 1

Filename C:\EAC Rips\Frank Zappa - Zappa '88 The Last U.S. Show (2021) [2CD-FLAC]\CD2\01 - Lonesome Cowboy Burt.wav

Pre-gap length 0:00:02.00

Peak level 94.0 %
Extraction speed 0.9 X
Track quality 99.9 %
Test CRC 549390D4
Copy CRC 549390D4
Track not present in AccurateRip database
Copy OK

Track 2

Filename C:\EAC Rips\Frank Zappa - Zappa '88 The Last U.S. Show (2021) [2CD-FLAC]\CD2\02 - The Torture Never Stops Pt. II.wav

Peak level 94.1 %
Extraction speed 1.5 X
Track quality 100.0 %
Test CRC E9E8DD41
Copy CRC E9E8DD41
Track not present in AccurateRip database
Copy OK

Track 3

Filename C:\EAC Rips\Frank Zappa - Zappa '88 The Last U.S. Show (2021) [2CD-FLAC]\CD2\03 - City Of Tiny Lites.wav

Peak level 94.1 %
Extraction speed 1.8 X
Track quality 100.0 %
Test CRC 7FB7E665
Copy CRC 7FB7E665
Track not present in AccurateRip database
Copy OK

Track 4

Filename C:\EAC Rips\Frank Zappa - Zappa '88 The Last U.S. Show (2021) [2CD-FLAC]\CD2\04 - Pound For A Brown.wav

Peak level 94.2 %
Extraction speed 1.8 X
Track quality 99.9 %
Test CRC A5BB36B9
Copy CRC A5BB36B9
Track not present in AccurateRip database
Copy OK

Track 5

Filename C:\EAC Rips\Frank Zappa - Zappa '88 The Last U.S. Show (2021) [2CD-FLAC]\CD2\05 - The Beatles Medley.wav

Peak level 94.2 %
Extraction speed 2.2 X
Track quality 100.0 %
Test CRC 4F46B3B7
Copy CRC 4F46B3B7
Track not present in AccurateRip database
Copy OK

Track 6

Filename C:\EAC Rips\Frank Zappa - Zappa '88 The Last U.S. Show (2021) [2CD-FLAC]\CD2\06 - Peaches En Regalia.wav

Peak level 96.2 %
Extraction speed 2.1 X
Track quality 100.0 %
Test CRC 88CC4478
Copy CRC 88CC4478
Track not present in AccurateRip database
Copy OK

Track 7

Filename C:\EAC Rips\Frank Zappa - Zappa '88 The Last U.S. Show (2021) [2CD-FLAC]\CD2\07 - Stairway To Heaven.wav

Peak level 94.3 %
Extraction speed 2.1 X
Track quality 99.9 %
Test CRC CD9C55DD
Copy CRC CD9C55DD
Track not present in AccurateRip database
Copy OK

Track 8

Filename C:\EAC Rips\Frank Zappa - Zappa '88 The Last U.S. Show (2021) [2CD-FLAC]\CD2\08 - I Am The Walrus.wav

Peak level 94.3 %
Extraction speed 2.4 X
Track quality 100.0 %
Test CRC 1EF02C7C
Copy CRC 1EF02C7C
Track not present in AccurateRip database
Copy OK

Track 9

Filename C:\EAC Rips\Frank Zappa - Zappa '88 The Last U.S. Show (2021) [2CD-FLAC]\CD2\09 - Whipping Post.wav

Peak level 94.3 %
Extraction speed 2.6 X
Track quality 100.0 %
Test CRC F87BAC8E
Copy CRC F87BAC8E
Track not present in AccurateRip database
Copy OK

Track 10

Filename C:\EAC Rips\Frank Zappa - Zappa '88 The Last U.S. Show (2021) [2CD-FLAC]\CD2\10 - Bolero.wav

Peak level 97.1 %
Extraction speed 2.7 X
Track quality 100.0 %
Test CRC B017C587
Copy CRC B017C587
Track not present in AccurateRip database
Copy OK

Track 11

Filename C:\EAC Rips\Frank Zappa - Zappa '88 The Last U.S. Show (2021) [2CD-FLAC]\CD2\11 - America The Beautiful.wav

Peak level 94.3 %
Extraction speed 2.6 X
Track quality 100.0 %
Test CRC 5F759BAC
Copy CRC 5F759BAC
Track not present in AccurateRip database
Copy OK


None of the tracks are present in the AccurateRip database

No errors occurred

End of status report

–– CUETools DB Plugin V2.1.6

[CTDB TOCID: p9_TXvcqV0HA6F29DFPbPIN31II-] disk not present in database
Submit result: p9_TXvcqV0HA6F29DFPbPIN31II- has been uploaded


==== Log checksum 11F75748CF92498FF1FBB42A175B567B06BE277F35F86ED1B05ECEBCB4A050B3 ====

Thanks to the Original ripper !