Subcategories

Freddie McCoy - Spider Man (1965) {Universal Japan Remaster 2012}

Posted By: ruskaval
Freddie McCoy - Spider Man (1965) {Universal Japan Remaster 2012}

Freddie McCoy - Spider Man (1965) {Universal Japan Remaster 2012}
EAC rip (secure mode) | FLAC (tracks)+CUE+LOG -> 171 Mb | MP3 @320 -> 72 Mb
Full Artwork @ 300 dpi (jpg) -> 11 Mb | 5% repair rar
© 2012 Universal Japan / Prestige | UCCO-90112
Jazz / Cool / Soul Jazz / Vibes

A striking little set from vibesman Freddie McCoy – not just for the cool superhero image on the front cover, but also for the tight grooves underneath! The album's one of McCoy's most unified for Prestige – as all tracks feature a core quartet with Freddie on vibes, Charlie Wilson on piano, Steve Davis on bass, and Rudy Lawless on drums – not your usual Prestige players, and all musicians who really make the album sparkle! There's a bold soul jazz vibe running through the set – similar to some of Freddie's other work, but a bit more open too – and titles include a groovy take on "Girl From Ipanema", plus the soul jazz classics "Speak Out, Deagan!" and "Hav' Mercy" – as well as the cuts "Yesterdays" and "Spider Man".
Freddie McCoy - Spider Man (1965) {Universal Japan Remaster 2012}


Personnel:
Freddie McCoy - vibes
Charlie Wilson - piano
Steve Davis - bass
Rudy Lawless - drums

tracklist:
01 - Hav' Mercy
02 - Yesterdays
03 - The Girl From Ipanema
04 - Spider Man
05 - That's All
06 - Speak Out Deagan

Exact Audio Copy V1.0 beta 1 from 15. November 2010

EAC extraction logfile from 16. February 2013, 16:08

Freddie McCoy / Spider Man

Used drive : TSSTcorpCDDVDW SH-S203N Adapter: 0 ID: 2

Read mode : Secure
Utilize accurate stream : Yes
Defeat audio cache : Yes
Make use of C2 pointers : No

Read offset correction : 6
Overread into Lead-In and Lead-Out : No
Fill up missing offset samples with silence : Yes
Delete leading and trailing silent blocks : No
Null samples used in CRC calculations : Yes
Used interface : Installed external ASPI interface
Gap handling : Appended to previous track

Used output format : User Defined Encoder
Selected bitrate : 768 kBit/s
Quality : High
Add ID3 tag : No
Command line compressor : C:\Program Files\Exact Audio Copy-NEW\Flac\flac.exe
Additional command line options : -8 -V -T "ARTIST=%a" -T "TITLE=%t" -T "ALBUM=%g" -T "DATE=%y" -T "TRACKNUMBER=%n" -T "TOTALTRACKS=%x" -T "GENRE=%m" -T "ALBUMARTIST=%v" -T "ALBUM ARTIST=%v" -T "COMMENT=EAC V1.01b1, Secure Mode, Test & Copy, AccurateRip, FL


TOC of the extracted CD

Track | Start | Length | Start sector | End sector
––––––––––––––––––––––––––––-
1 | 0:00.00 | 3:19.55 | 0 | 14979
2 | 3:19.55 | 7:23.68 | 14980 | 48272
3 | 10:43.48 | 4:40.05 | 48273 | 69277
4 | 15:23.53 | 3:27.02 | 69278 | 84804
5 | 18:50.55 | 7:26.18 | 84805 | 118272
6 | 26:16.73 | 4:13.12 | 118273 | 137259


Track 1

Filename J:\New Rips\Freddie McCoy - Spider Man (1965) [FLAC]\01 - Hav' Mercy.wav

Pre-gap length 0:00:02.00

Peak level 99.8 %
Extraction speed 1.6 X
Track quality 100.0 %
Test CRC 3F8C7F56
Copy CRC 3F8C7F56
Track not present in AccurateRip database
Copy OK

Track 2

Filename J:\New Rips\Freddie McCoy - Spider Man (1965) [FLAC]\02 - Yesterdays.wav

Pre-gap length 0:00:03.28

Peak level 99.7 %
Extraction speed 2.1 X
Track quality 100.0 %
Test CRC B51E61AF
Copy CRC B51E61AF
Track not present in AccurateRip database
Copy OK

Track 3

Filename J:\New Rips\Freddie McCoy - Spider Man (1965) [FLAC]\03 - The Girl From Ipanema.wav

Pre-gap length 0:00:02.47

Peak level 99.7 %
Extraction speed 2.2 X
Track quality 100.0 %
Test CRC 96103384
Copy CRC 96103384
Track not present in AccurateRip database
Copy OK

Track 4

Filename J:\New Rips\Freddie McCoy - Spider Man (1965) [FLAC]\04 - Spider Man.wav

Pre-gap length 0:00:02.23

Peak level 99.7 %
Extraction speed 2.3 X
Track quality 100.0 %
Test CRC 38B124C5
Copy CRC 38B124C5
Track not present in AccurateRip database
Copy OK

Track 5

Filename J:\New Rips\Freddie McCoy - Spider Man (1965) [FLAC]\05 - That's All.wav

Pre-gap length 0:00:02.60

Peak level 73.3 %
Extraction speed 2.7 X
Track quality 100.0 %
Test CRC EC63B4DA
Copy CRC EC63B4DA
Track not present in AccurateRip database
Copy OK

Track 6

Filename J:\New Rips\Freddie McCoy - Spider Man (1965) [FLAC]\06 - Speak Out Deagan.wav

Pre-gap length 0:00:02.24

Peak level 71.8 %
Extraction speed 2.7 X
Track quality 100.0 %
Test CRC 36D817F4
Copy CRC 36D817F4
Track not present in AccurateRip database
Copy OK


None of the tracks are present in the AccurateRip database

No errors occurred

End of status report

==== Log checksum 1A7DA0BCD0A8B9DC1D989BC7ECEAF818FF7CA76E2CCEDC6CF05C1D3547B5B938 ====


Freddie McCoy - Spider Man (1965) {Universal Japan Remaster 2012}

Freddie McCoy - Spider Man (1965) {Universal Japan Remaster 2012}


All thanks goes to the original releaser!