Subcategories

Russ Garcia - Wigville (1955) {2014 Japanese Bethlehem Album Collection 1000}

Posted By: ruskaval
Russ Garcia - Wigville (1955) {2014 Japanese Bethlehem Album Collection 1000}

Russ Garcia - Wigville (1955) {2014 Japanese Bethlehem Album Collection 1000}
EAC rip (secure mode) | FLAC (tracks)+CUE+LOG -> 130 Mb | MP3 @320 -> 54 Mb
Full Artwork @ 300 dpi (png) -> 40 Mb | 5% repair rar
© 1955, 2014 Solid Records / Bethlehem | CDSOL-6125 | LP BCP-1040
Jazz / Third Stream / Modern Arrangement

Reissue. Features the latest remastering. Includes a Japanese description, lyrics. Features original cover artwork. Pure genius from Russ Garcia – one of our favorite arrangers of the 50s, and one of the few who could be modern, swinging, and surprisingly soulful at the same time! The set features Garcia's Wigville Band – a mid 50s ensemble that featured the leading lights of the west coast scene, arranged in a style that had plenty of the tight counterpoint of the time, but which also broke out in these amazingly expressive solos.
Russ Garcia - Wigville (1955) {2014 Japanese Bethlehem Album Collection 1000}

Charlie Mariano, Bill Holman, and Jimmy Giuffre all get some key moments in on these sides – blowing beautifully in a very small amount of space, but packing some tremendous meaning into their well-crafted solos. Tunes include "Smogville", "The Lonely One", "Rock Road", "Wigville", "Butter Duck", "Then The Lid Blew Off", and "Love Row".
Russ Garcia - Wigville (1955) {2014 Japanese Bethlehem Album Collection 1000}


Personnel:
Conductor – Russ Garcia
Alto Saxophone – Charlie Mariano
Baritone Saxophone – Jimmy Giuffre
Bass – Max Bennett
Drums – Stan Levey
Soprano Saxophone – Russ Cheever
Tenor Saxophone – Bill Holman
Trumpet – Conte Candoli, Pete Condoli

tracklist:
01 - Rocky Road
02 - Floating
03 - Butter Duck
04 - Mellow Bone
05 - Wigville
06 - Smogville
07 - Livin' It Up
08 - Tone Row
09 - Lovely One
10 - Then The Lid Blew Off

Exact Audio Copy V1.0 beta 3 from 29. August 2011

EAC extraction logfile from 19. October 2014, 11:16

Russ Garcia / Wigville

Used drive : ATAPI iHAS124 B Adapter: 2 ID: 1

Read mode : Secure
Utilize accurate stream : Yes
Defeat audio cache : Yes
Make use of C2 pointers : No

Read offset correction : 6
Overread into Lead-In and Lead-Out : No
Fill up missing offset samples with silence : Yes
Delete leading and trailing silent blocks : No
Null samples used in CRC calculations : Yes
Used interface : Native Win32 interface for Win NT & 2000
Gap handling : Appended to previous track

Used output format : User Defined Encoder
Selected bitrate : 1024 kBit/s
Quality : High
Add ID3 tag : No
Command line compressor : C:\Program Files (x86)\FLAC Frontend\tools\flac.exe
Additional command line options : -8 -V -T "ARTIST=%artist%" -T "TITLE=%title%" -T "ALBUM=%albumtitle%" -T "DATE=%year%" -T "TRACKNUMBER=%tracknr%" -T "TOTALTRACKS=%numtracks%" -T "GENRE=%genre%" -T "ALBUMARTIST=%albumartist%" -T "ALBUM ARTIST=%albumartist%" -T "COMMENT=EAC Secure Mode, Test & Copy, AccurateRip, FLAC -8" %source%


TOC of the extracted CD

Track | Start | Length | Start sector | End sector
––––––––––––––––––––––––––––-
1 | 0:00.00 | 2:35.47 | 0 | 11671
2 | 2:35.47 | 2:18.66 | 11672 | 22087
3 | 4:54.38 | 2:14.34 | 22088 | 32171
4 | 7:08.72 | 2:12.26 | 32172 | 42097
5 | 9:21.23 | 1:51.73 | 42098 | 50495
6 | 11:13.21 | 2:01.00 | 50496 | 59570
7 | 13:14.21 | 2:19.23 | 59571 | 70018
8 | 15:33.44 | 2:08.22 | 70019 | 79640
9 | 17:41.66 | 2:23.40 | 79641 | 90405
10 | 20:05.31 | 2:31.19 | 90406 | 101749


Track 1

Filename C:\Russ Garcia - Wigville (1955) {2014 Japanese Bethlehem Album Collection 1000}\01 - Rocky Road.wav

Pre-gap length 0:00:02.00

Peak level 98.3 %
Extraction speed 3.1 X
Track quality 100.0 %
Test CRC 39D3B716
Copy CRC 39D3B716
Track not present in AccurateRip database
Copy OK

Track 2

Filename C:\Russ Garcia - Wigville (1955) {2014 Japanese Bethlehem Album Collection 1000}\02 - Floating.wav

Peak level 98.3 %
Extraction speed 3.3 X
Track quality 100.0 %
Test CRC A2FFAF72
Copy CRC A2FFAF72
Track not present in AccurateRip database
Copy OK

Track 3

Filename C:\Russ Garcia - Wigville (1955) {2014 Japanese Bethlehem Album Collection 1000}\03 - Butter Duck.wav

Peak level 98.3 %
Extraction speed 2.5 X
Track quality 99.9 %
Test CRC 1A0FDDBA
Copy CRC 1A0FDDBA
Track not present in AccurateRip database
Copy OK

Track 4

Filename C:\Russ Garcia - Wigville (1955) {2014 Japanese Bethlehem Album Collection 1000}\04 - Mellow Bone.wav

Peak level 98.3 %
Extraction speed 3.6 X
Track quality 100.0 %
Test CRC 1CCC6806
Copy CRC 1CCC6806
Track not present in AccurateRip database
Copy OK

Track 5

Filename C:\Russ Garcia - Wigville (1955) {2014 Japanese Bethlehem Album Collection 1000}\05 - Wigville.wav

Peak level 98.3 %
Extraction speed 3.6 X
Track quality 100.0 %
Test CRC 3D49C7BF
Copy CRC 3D49C7BF
Track not present in AccurateRip database
Copy OK

Track 6

Filename C:\Russ Garcia - Wigville (1955) {2014 Japanese Bethlehem Album Collection 1000}\06 - Smogville.wav

Peak level 98.3 %
Extraction speed 3.7 X
Track quality 100.0 %
Test CRC C7062DE3
Copy CRC C7062DE3
Track not present in AccurateRip database
Copy OK

Track 7

Filename C:\Russ Garcia - Wigville (1955) {2014 Japanese Bethlehem Album Collection 1000}\07 - Livin' It Up.wav

Peak level 98.3 %
Extraction speed 4.1 X
Track quality 100.0 %
Test CRC E055ED58
Copy CRC E055ED58
Track not present in AccurateRip database
Copy OK

Track 8

Filename C:\Russ Garcia - Wigville (1955) {2014 Japanese Bethlehem Album Collection 1000}\08 - Tone Row.wav

Peak level 98.3 %
Extraction speed 4.1 X
Track quality 100.0 %
Test CRC 46B79FB5
Copy CRC 46B79FB5
Track not present in AccurateRip database
Copy OK

Track 9

Filename C:\Russ Garcia - Wigville (1955) {2014 Japanese Bethlehem Album Collection 1000}\09 - Lovely One.wav

Peak level 98.2 %
Extraction speed 4.4 X
Track quality 100.0 %
Test CRC BEC2CF89
Copy CRC BEC2CF89
Track not present in AccurateRip database
Copy OK

Track 10

Filename C:\Russ Garcia - Wigville (1955) {2014 Japanese Bethlehem Album Collection 1000}\10 - Then The Lid Blew Off.wav

Peak level 98.3 %
Extraction speed 4.6 X
Track quality 100.0 %
Test CRC 19D5A14E
Copy CRC 19D5A14E
Track not present in AccurateRip database
Copy OK


None of the tracks are present in the AccurateRip database

No errors occurred

End of status report

==== Log checksum 56E0C2BC14CFEA10C35B968A36DD697E301E00763B1B33EDF73559B478662E34 ====


Russ Garcia - Wigville (1955) {2014 Japanese Bethlehem Album Collection 1000}

Russ Garcia - Wigville (1955) {2014 Japanese Bethlehem Album Collection 1000}


see more Bethlehem Records Album Collection…


===