Gary Burton - Country Roads & Other Places (1969) {RCA-Koch Jazz rel 1998}

Posted By: ruskaval
Gary Burton - Country Roads & Other Places (1969) {RCA-Koch Jazz rel 1998}

Gary Burton - Country Roads & Other Places (1969) {RCA-Koch Jazz rel 1998}
EAC rip (secure mode) | FLAC (tracks)+CUE+LOG -> 170 Mb | MP3 @320 -> 79 Mb
Full Artwork @ 300 dpi (jpg) -> 10 Mb | 5% repair rar
© 1969, 1998 RCA / BMG / Koch Jazz | KOC CD 7854
Jazz / Post Bop / Vibes

With longtime bassist Steve Swallow, the return of drummer Roy Haynes, and the debut of guitarist Jerry Hahn, Gary Burton's second quartet continued his open-minded policy toward other styles of music. In addition to both melodic and advanced jazz, Burton incorporates elements of country, rock, pop and even classical music on this fairly rare LP, Country Roads and Other Places. Whether it be a "Ravel Prelude," "Wichita Breakdown" or "My Foolish Heart," the music is full of logical surprises that foreshadow the eclectic nature of much of '80s and '90s jazz.
Gary Burton - Country Roads & Other Places (1969) {RCA-Koch Jazz rel 1998}


Personnel:
Gary Burton - vibes
Jerry Hahn - guitar
Steve Swallow - bass
Roy Haynes - drums

tracklist:
01 - Country Roads
02 - The Green Mountains
03 - True Or False
04 - Gone, But Forgotten
05 - Ravel Prelude – Le Tombeau De Couperin: Prelude
06 - And On The Third Day
07 - A Singing Song
08 - Wichita Breakdown
09 - My Foolish Heart
10 - A Family Joy

Exact Audio Copy V0.99 prebeta 4 from 23. January 2008

EAC extraction logfile from 15. August 2009, 14:44

Gary Burton / Country Roads & Other Places

Used drive : TSSTcorpCDDVDW SH-S203N Adapter: 0 ID: 2

Read mode : Secure
Utilize accurate stream : Yes
Defeat audio cache : Yes
Make use of C2 pointers : No

Read offset correction : 6
Overread into Lead-In and Lead-Out : No
Fill up missing offset samples with silence : Yes
Delete leading and trailing silent blocks : No
Null samples used in CRC calculations : Yes
Used interface : Installed external ASPI interface
Gap handling : Appended to previous track

Used output format : User Defined Encoder
Selected bitrate : 768 kBit/s
Quality : High
Add ID3 tag : No
Command line compressor : C:\Program Files\Exact Audio Copy\Flac\flac.exe
Additional command line options : -8 -V -T "ARTIST=%a" -T "TITLE=%t" -T "ALBUM=%g" -T "DATE=%y" -T "TRACKNUMBER=%n" -T "TOTALTRACKS=%x" -T "GENRE=%m" -T "ALBUMARTIST=%v" -T "ALBUM ARTIST=%v" -T "COMMENT=EAC V0.99 pb4, Secure Mode, Test & Copy, AccurateRip,


TOC of the extracted CD

Track | Start | Length | Start sector | End sector
––––––––––––––––––––––––––––-
1 | 0:00.00 | 5:06.34 | 0 | 22983
2 | 5:06.34 | 3:41.24 | 22984 | 39582
3 | 8:47.58 | 1:45.29 | 39583 | 47486
4 | 10:33.12 | 3:45.16 | 47487 | 64377
5 | 14:18.28 | 3:14.37 | 64378 | 78964
6 | 17:32.65 | 4:06.30 | 78965 | 97444
7 | 21:39.20 | 2:46.20 | 97445 | 109914
8 | 24:25.40 | 2:43.64 | 109915 | 122203
9 | 27:09.29 | 2:30.50 | 122204 | 133503
10 | 29:40.04 | 4:45.05 | 133504 | 154883


Track 1

Filename J:\New Rips\Gary Burton - Country Roads & Other Places (1969) [FLAC] {Koch Jazz orig RCA w Swallow Haynes Hahn}\01 - Country Roads.wav

Pre-gap length 0:00:02.00

Peak level 99.9 %
Track quality 100.0 %
Test CRC 4753FBD1
Copy CRC 4753FBD1
Track not present in AccurateRip database
Copy OK

Track 2

Filename J:\New Rips\Gary Burton - Country Roads & Other Places (1969) [FLAC] {Koch Jazz orig RCA w Swallow Haynes Hahn}\02 - The Green Mountains.wav

Pre-gap length 0:00:01.40

Peak level 69.8 %
Track quality 100.0 %
Test CRC B9456E2E
Copy CRC B9456E2E
Track not present in AccurateRip database
Copy OK

Track 3

Filename J:\New Rips\Gary Burton - Country Roads & Other Places (1969) [FLAC] {Koch Jazz orig RCA w Swallow Haynes Hahn}\03 - True Or False.wav

Pre-gap length 0:00:01.60

Peak level 99.9 %
Track quality 100.0 %
Test CRC 7C62019B
Copy CRC 7C62019B
Track not present in AccurateRip database
Copy OK

Track 4

Filename J:\New Rips\Gary Burton - Country Roads & Other Places (1969) [FLAC] {Koch Jazz orig RCA w Swallow Haynes Hahn}\04 - Gone, But Forgotten.wav

Pre-gap length 0:00:01.60

Peak level 80.7 %
Track quality 100.0 %
Test CRC 8ACC140E
Copy CRC 8ACC140E
Track not present in AccurateRip database
Copy OK

Track 5

Filename J:\New Rips\Gary Burton - Country Roads & Other Places (1969) [FLAC] {Koch Jazz orig RCA w Swallow Haynes Hahn}\05 - Ravel Prelude–Le Tombeau De Couperin, Prelude.wav

Pre-gap length 0:00:01.60

Peak level 55.6 %
Track quality 100.0 %
Test CRC 0D320032
Copy CRC 0D320032
Track not present in AccurateRip database
Copy OK

Track 6

Filename J:\New Rips\Gary Burton - Country Roads & Other Places (1969) [FLAC] {Koch Jazz orig RCA w Swallow Haynes Hahn}\06 - And On The Third Day.wav

Pre-gap length 0:00:01.60

Peak level 44.7 %
Track quality 99.9 %
Test CRC 791533B2
Copy CRC 791533B2
Track not present in AccurateRip database
Copy OK

Track 7

Filename J:\New Rips\Gary Burton - Country Roads & Other Places (1969) [FLAC] {Koch Jazz orig RCA w Swallow Haynes Hahn}\07 - A Singing Song.wav

Pre-gap length 0:00:01.60

Peak level 74.2 %
Track quality 100.0 %
Test CRC DC9F7809
Copy CRC DC9F7809
Track not present in AccurateRip database
Copy OK

Track 8

Filename J:\New Rips\Gary Burton - Country Roads & Other Places (1969) [FLAC] {Koch Jazz orig RCA w Swallow Haynes Hahn}\08 - Wichita Breakdown.wav

Pre-gap length 0:00:01.60

Peak level 62.9 %
Track quality 100.0 %
Test CRC 3AF45B46
Copy CRC 3AF45B46
Track not present in AccurateRip database
Copy OK

Track 9

Filename J:\New Rips\Gary Burton - Country Roads & Other Places (1969) [FLAC] {Koch Jazz orig RCA w Swallow Haynes Hahn}\09 - My Foolish Heart.wav

Pre-gap length 0:00:01.60

Peak level 54.4 %
Track quality 100.0 %
Test CRC 4CB76CE3
Copy CRC 4CB76CE3
Track not present in AccurateRip database
Copy OK

Track 10

Filename J:\New Rips\Gary Burton - Country Roads & Other Places (1969) [FLAC] {Koch Jazz orig RCA w Swallow Haynes Hahn}\10 - A Family Joy.wav

Pre-gap length 0:00:01.60

Peak level 100.0 %
Track quality 99.9 %
Test CRC 8420EF40
Copy CRC 8420EF40
Track not present in AccurateRip database
Copy OK


None of the tracks are present in the AccurateRip database

No errors occurred

End of status report


Gary Burton - Country Roads & Other Places (1969) {RCA-Koch Jazz rel 1998}

Gary Burton - Country Roads & Other Places (1969) {RCA-Koch Jazz rel 1998}


All thanks goes to the original releaser!