Francesco Geminiani - 6 Cello Sonatas opus 5 - Jaap ter Linden

Posted By: zamorna
Francesco Geminiani - 6 Cello Sonatas opus 5 - Jaap ter Linden

Francesco Geminiani - 6 Cello Sonatas opus 5 - Jaap ter Linden
Classical, Baroque | 1 CD | EAC | FLAC, CUE, LOG | Scans | 306 MB | RS
Recorded: Apr. 2007, Hervormde Kerk, Rhoon, NL
Released: 2008 | Label: Brilliant 93646 | TT: 54:32


Jaap ter Linden - cello (Giovanni Grancino, Milano 1703),
Lars Ulrik Mortensen - harpsichord,
Judith Maria Becker - cello continuo

In this set of six sonatas for cello and continuo, Geminiani [1687-1762] follows the Corellian model […] of movements—except for the last, which is in three movements. Geminiani’s writing for the solo instrument shows an advance on Corelli in the brilliant figuration in the fast movements. Slow movements can sometimes be a bit perfunctory, lasting less than a minute, though this is not always the case. Geminiani apparently enjoyed working with the sonorities created by two cellos, and in his contrapuntal movements sometimes allows the solo and continuo cellos to cross lines.
Jaap ter Linden […] handles Geminiani’s elaborate music with ease. His smooth and rounded tone serves the music well. The continuo players provide able accompaniment. The performers are recorded in close perspective in excellent sound. (Ron Salemi, Fanfare)

Tracklist:

01-04 Sonata No. 1 in A major
05-08 Sonata No. 2 in D minor
09-12 Sonata No. 3 in C major
13-16 Sonata No. 4 in B flat major
17-20 Sonata No. 5 in F major
21-23 Sonata No. 6 in A minor


Exact Audio Copy V0.99 prebeta 5 from 4. May 2009

EAC extraction logfile from 30. December 2009, 19:49

Francesco Geminiani (1687-1762) (Ter Linden-Mortensen-Becker) / Cello Sonatas Op.5 (Hervormde Kerk, Rhoon)

Used drive : HL-DT-STDVDRAM GSA-T50N Adapter: 0 ID: 1

Read mode : Secure
Utilize accurate stream : Yes
Defeat audio cache : Yes
Make use of C2 pointers : No

Read offset correction : 667
Overread into Lead-In and Lead-Out : No
Fill up missing offset samples with silence : Yes
Delete leading and trailing silent blocks : No
Null samples used in CRC calculations : Yes
Used interface : Native Win32 interface for Win NT & 2000

Used output format : User Defined Encoder
Selected bitrate : 1024 kBit/s
Quality : High
Add ID3 tag : No
Command line compressor : C:\Program Files\Exact Audio Copy\FLAC\FLAC.EXE
Additional command line options : -6 -V -T "ARTIST=%a" -T "TITLE=%t" -T "ALBUM=%g" -T "DATE=%y" -T "TRACKNUMBER=%n" -T

"GENRE=%m" -T "COMMENT=%e" %s -o %d


TOC of the extracted CD

Track | Start | Length | Start sector | End sector
––––––––––––––––––––––––––––-
1 | 0:00.00 | 1:40.17 | 0 | 7516
2 | 1:40.17 | 3:35.52 | 7517 | 23693
3 | 5:15.69 | 0:45.10 | 23694 | 27078
4 | 6:01.04 | 3:54.03 | 27079 | 44631
5 | 9:55.07 | 2:27.68 | 44632 | 55724
6 | 12:23.00 | 2:27.69 | 55725 | 66818
7 | 14:50.69 | 0:41.73 | 66819 | 69966
8 | 15:32.67 | 4:32.58 | 69967 | 90424
9 | 20:05.50 | 1:47.36 | 90425 | 98485
10 | 21:53.11 | 4:27.10 | 98486 | 118520
11 | 26:20.21 | 3:07.53 | 118521 | 132598
12 | 29:27.74 | 2:45.55 | 132599 | 145028
13 | 32:13.54 | 0:28.32 | 145029 | 147160
14 | 32:42.11 | 3:13.38 | 147161 | 161673
15 | 35:55.49 | 0:48.49 | 161674 | 165322
16 | 36:44.23 | 0:51.44 | 165323 | 169191
17 | 37:35.67 | 0:37.28 | 169192 | 171994
18 | 38:13.20 | 1:26.19 | 171995 | 178463
19 | 39:39.39 | 2:43.57 | 178464 | 190745
20 | 42:23.21 | 3:04.69 | 190746 | 204614
21 | 45:28.15 | 0:41.61 | 204615 | 207750
22 | 46:10.01 | 3:39.52 | 207751 | 224227
23 | 49:49.53 | 4:40.63 | 224228 | 245290


Range status and errors

Selected range

Filename C:\Geminiani - Cello Sonatas Op.5.wav

Peak level 100.0 %
Range quality 100.0 %
Test CRC B39FF853
Copy CRC B39FF853
Copy OK

No errors occurred


AccurateRip summary

Track 1 accurately ripped (confidence 3) [9A53365D]
Track 2 accurately ripped (confidence 3) [8F1B72E2]
Track 3 accurately ripped (confidence 3) [B1E589B6]
Track 4 accurately ripped (confidence 3) [28C3CA4A]
Track 5 accurately ripped (confidence 3) [F98C5D5B]
Track 6 accurately ripped (confidence 3) [0AD2FAC8]
Track 7 accurately ripped (confidence 3) [45810EE6]
Track 8 accurately ripped (confidence 3) [475AA5BC]
Track 9 accurately ripped (confidence 3) [3A1F5785]
Track 10 accurately ripped (confidence 3) [243A4760]
Track 11 accurately ripped (confidence 3) [58ABCDF4]
Track 12 accurately ripped (confidence 3) [75341609]
Track 13 accurately ripped (confidence 3) [03D6C1CB]
Track 14 accurately ripped (confidence 3) [60D4F8AC]
Track 15 accurately ripped (confidence 3) [1F2ACD32]
Track 16 accurately ripped (confidence 3) [032EBF65]
Track 17 accurately ripped (confidence 3) [72D33206]
Track 18 accurately ripped (confidence 3) [9FCD6894]
Track 19 accurately ripped (confidence 3) [60971119]
Track 20 accurately ripped (confidence 3) [9D0AD43E]
Track 21 accurately ripped (confidence 3) [7E7BD096]
Track 22 accurately ripped (confidence 3) [7D06AD88]
Track 23 accurately ripped (confidence 3) [F19205E4]

All tracks accurately ripped

End of status report



Rapidshare Links