Subcategories

Gerald Wilson - The Complete Pacific Jazz Recordings of Gerald Wilson and His Orchestra (1961-69) [5CD] {2000 Mosaic Remaster}

Posted By: ruskaval
Gerald Wilson - The Complete Pacific Jazz Recordings of Gerald Wilson and His Orchestra (1961-69) [5CD] {2000 Mosaic Remaster}

Gerald Wilson - The Complete Pacific Jazz Recordings of Gerald Wilson and His Orchestra (1961-69) [5CD] {2000 Mosaic Remaster}
EAC rip (secure mode) | FLAC (tracks)+CUE+LOG -> 2.36 Gb | MP3 @320 -> 900 Mb
Full Artwork @ 300 dpi (jpg) -> 96 Mb | 5% repair rar | 24-bit remaster
© 2000 Mosaic Records / EMI-Capitol | MD5-198
Jazz / Har Bop / Post Bop / Modern Big Band

These are among the finest of all large ensemble jazz recordings of the past 50 years, and Gerald Wilson is a great big-band composer/arranger/leader, although he has not received enough credit for a couple of major reasons. He came to the fore after the end of the big band era, and his outfits did not tour. Hopefully, this five-CD set will refocus attention on his major accomplishments.

From 1939 to 1942, Wilson not only played trumpet with Jimmie Lunceford, but also wrote charts for him, including "Yard Dog Mazurka," some of which was incorporated into "Intermission Riff," and "Hi Spook." During World War II he played in Willie Smith's Great Lakes Naval Training Station Band, and by the time he was discharged or shortly thereafter had assimilated a lot of bop into his writing style, as his earliest (1945 and 1946) big-band discs indicate. His recordings as a big bandleader were infrequent, however, until this series of LPs he cut for Pacific from 1961 to 1969.

The bands Wilson wrote for at that time were Los Angeles-based, post-bop all-star units containing top echelon section players and soloists including trumpeters Carmell Jones, Conte Candoli, Charles Tolliver and ace lead player Al Porcino, woodwind men Teddy Edwards, Harold Land, Walter Benton, Joe Maini, Jimmy Woods, Bud Shank, Buddy Collette, Anthony Ortega and Jack Nimitz, pianists Jack Wilson and Jimmy Rowles, guitarist Joe Pass, vibists Roy Ayers and Bobby Hutcherson, bassists Leroy Vinnegar and Jimmy Bond and drummers Mel Lewis and Frank Butler. The first album Wilson made with Pacific featured the work of organist Richard "Groove" Holmes, and it's a tribute to his ability as an arranger that he uses Holmes very sensitively, so that a nice balance is maintained between his playing and the rest of the band.
Gerald Wilson - The Complete Pacific Jazz Recordings of Gerald Wilson and His Orchestra (1961-69) [5CD] {2000 Mosaic Remaster}

Wilson's compositions here reflect his wide range of musical interests. There are a number of blues of various sorts here, including his well-known blues waltz "Blues for Yna Yna." Wilson often wrote in 3/4 meter. "Aram" is interesting partly because of the inclusion of a taste of 4/4 in this mainly 3/4 composition. It keeps listeners on their toes.

There are also Spanish and Latin American influences here, as heard on "Viva Tirado," "Latino," "Paco" and "Teri," during which Wilson employs Pass playing acoustic guitar. There are many references in Wilson's music to things Mexican, including compositions dedicated to bullfighters in that country. Spanish composer Manuel DeFalla influenced "Caprichos," and there's also an adaptation by Wilson of a DeFalla theme, "Chanson du Feu Follet." Modal selections include Wilson's original "Patterns" and versions of "Milestones" and "So What." When Wilson's band wants to lay back its ears and swing, it does so with the best of them, as on "Emerge," "Eric" and "Perdido." And if you dig lovely ballads, try "Josefina," "El Viti" and a very nice cover of "'Round Midnight."

Wilson's arrangements are uniformly rich and full of contrasts. On "El Viti" he employs eight-part harmony for brass. The quality of the solos is consistently high. Not only is Wilson's band full of fine improvisers, they play with constant inspiration. Many are familiar to knowledgeable jazz fans, but a few aren't. Pay particular attention to the alto-sax work of Anthony Ortega, who played Charlie Parkerish solos in 1953 when he was with Lionel Hampton, but continued to evolve and improve his chops into the 1960s. Here his work may have a general similarity to Eric Dolphy's, but is quite original and full of imagination and surprises.

AMG INFO
AAJ INFO


Personnel: Gerald Wilson (arranger), key soloists include Carmell Jones, Bud Shank, Harold Land, Bobby Hutcherson, Roy Ayers, Richard “Groove” Holmes, Teddy Edwards, Curtis Amy, Joe Pass, Victor Feldman, Anthony Ortega, Jack Wilson, Charles Tolliver, and Mel Lewis and others…

tracklist:
CD1

01. Blues for Yna Yna (Wilson) - 6:53
02. Jeri (Wilson) - 3:45
03. Moody Blue (Wilson) - 3:09
04. Straight Up and Down (Wilson) - 4:44
05. The Wailer (Wilson) - 7:23
06. You Better Believe It (Wilson-Holmes) - 5:20
07. Yvette (Stoll) - 3:37
08. Viva Tirado (Wilson) - 5:44
09. Moment of Truth (Wilson) - 4:22
10. Patterns (Wilson) - 5:57
11. Teri (Wilson) - 2:55
12. Nancy Jo (Wilson) - 2:41
13. Milestones (Davis) - 5:34
14. Latino (Wilson) - 5:04
15. Josefina (Wilson) - 4:31
16. Emerge (Robertson) - 3:25

CD2
01. So What (Davis) - 5:57
02. Caprichos (Wilson) - 7:03
03. Paco (Wilson) - 6:23
04. Ravi (Wilson) - 5:57
05. Aram (Wilson) - 3:47
06. 'Round Midnight (Monk) - 5:13
07. Eric (Wilson) - 3:17
08. Los Moros de Espana (Wilson) - 3:10
09. Who Can I Turn To (Newley-Bricusse) - 3:02
10. Ricardo (Wilson) - 4:27
11. Musette (Wilson) - 2:38
12. In the Limelight (Wilson) - 5:53
13. Lighthouse Blues (Wilson) - 7:29
14. El Viti (Wilson) - 4:04
15. Lately (Robertson) - 3:47
16. Perdido (Tizol) - 4:30

CD3
01. When I'm Feeling Kinda Blue (Villasenor) - 3:46
02. Freddie Freeloader (Davis) - 4:16
03. Do Anything You Wanna (Betters-Ramsey) - 2:26
04. Yesterday (McCartney-Lennon) - 2:26
05. Watermelon Man (Hancock) - 6:10
06. Yeh Yeh (Hendricks-Grant-Patrick) - 2:38
07. One on the House (Wilkins-James) - 4:41
08. I Got You (I Feel Good) (Brown) - 2:52
09. I Concentrate on You (Porter) - 5:08
10. Well Son Shuffle (Barone) - 3:00
11. The Golden Sword (Wilson) - 3:15
12. Man of La Mancha (Darion-Leigh) - 2:20
13. The Breeze and I (Lecuona) - 2:24
14. Carlos (Wilson) - 5:30
15. Chanson du Feu Follet (Song of the Mad Fire) (DeFalla) - 4:08
16. Mi Corazon (My Heart) (Wilson) - 3:05
17. Blues Latinese (Wilson) - 4:38
18. The Feather (Wilson) - 4:17
19. La Mentira (The Lie) (Carrillo) - 2:07
20. The Serpent (Wilson) - 3:38

CD4
01. Paper Man (Tolliver) - 7:32
02. I Should Care (Cahn-Stordahl-Weston) - 3:54
03. I Got It Bad (And That Ain't Good) (Ellington-Webster) - 4:33
04. The "IT's" Where It's At (Land) - 5:49
05. Blues for a Scorpio (Wilson) - 4:38
06. L'il Darlin' (Hefti) - 5:36
07. Misty (Garner-Burke) - 3:19
08. Viva Tirado (Wilson) - 8:09
09. Everywhere (Wilson) - 4:22
10. Out of This World (Arlen-Mercer) - 5:39
11. Pretty Polly (Legrand-Black) - 2:33
12. M. Capetillo (Wilson) - 2:45
13. Little Bit of Soul (Wilson) - 3:54
14. Do I Love You (Because You're Beautiful?) (Rodgers-Hammerstein) - 2:55
15. Del Olivar (Wilson) - 3:57
16. Mini Waltz (Wilson) - 4:48

CD5
01. California Soul (Ashford-Simpson) - 4:11
02. Light My Fire (The Doors) - 5:05
03. Channel Island (Wilson) - 5:05
04. Lullaby from Rosemary's Baby (Komeda) - 2:53
05. Sunshine of Your Love (Bruce-Brown-Clapton) - 2:54
06. Russian River (Wilson) - 5:28
07. Yesterlove (Robinson-Cleveland) - 4:01
08. Down Here on the Ground (Schifrin-Garnett) - 5:47
09. El Presidente (Wilson) - 4:15
10. Equinox (Coltrane) - 4:58
11. Aquarius (Rado-Ragni-MacDermot) - 3:03
12. Pisces (Wilson) - 4:09
13. Scorpio Rising (Wilson) - 3:38
14. Celestial Soul (Wilson) - 4:23
15. Baby, Baby Don't Cry (Robinson-Cleveland-Johnson) - 3:02
16. You, Me and Now (Wilson) - 3:56
17. Bluesnee (Wilson) - 5:28

EAC extraction logfile from 3. November 2006, 17:19 for CD
Gerald Wilson / The Complete Pacific Jazz Recordings of Gerald Wilson And His Orchestra Disc 1

Used drive : HL-DT-STDVD-ROM GDR8162B Adapter: 1 ID: 1
Read mode : Secure with NO C2, accurate stream, disable cache
Read offset correction : 102
Overread into Lead-In and Lead-Out : No

Used output format : C:\Programmi\Exact Audio Copy\flac.exe (User Defined Encoder)
128 kBit/s
Additional command line options : -V -8 -T"artist=%a" -T"title=%t" -T"album=%g" -T"date=%y" -T"genre=%m" %s

Other options :
Fill up missing offset samples with silence : Yes
Delete leading and trailing silent blocks : No
Installed external ASPI interface


Track 1
Filename D:\TORRENTS\01 - Blues For Yna Yna.wav

Pre-gap length 0:00:02.00

Peak level 100.0 %
Track quality 99.9 %
Test CRC 3A859960
Copy CRC 3A859960
Copy OK

Track 2
Filename D:\TORRENTS\02 - Jeri.wav

Peak level 100.0 %
Track quality 99.9 %
Test CRC ABEBB5C6
Copy CRC ABEBB5C6
Copy OK

Track 3
Filename D:\TORRENTS\03 - Moody Blue.wav

Peak level 100.0 %
Track quality 100.0 %
Test CRC 91BC293B
Copy CRC 91BC293B
Copy OK

Track 4
Filename D:\TORRENTS\04 - Straight Up And Down.wav

Peak level 100.0 %
Track quality 100.0 %
Test CRC BF7125B3
Copy CRC BF7125B3
Copy OK

Track 5
Filename D:\TORRENTS\05 - The Wailer.wav

Peak level 100.0 %
Track quality 100.0 %
Test CRC 51A15465
Copy CRC 51A15465
Copy OK

Track 6
Filename D:\TORRENTS\06 - You Better Believe It.wav

Peak level 100.0 %
Track quality 100.0 %
Test CRC 8105B9F0
Copy CRC 8105B9F0
Copy OK

Track 7
Filename D:\TORRENTS\07 - Yvette.wav

Peak level 99.8 %
Track quality 100.0 %
Test CRC 85AFDE6D
Copy CRC 85AFDE6D
Copy OK

Track 8
Filename D:\TORRENTS\08 - Viva Trado.wav

Peak level 99.7 %
Track quality 99.9 %
Test CRC 4588A6C9
Copy CRC 4588A6C9
Copy OK

Track 9
Filename D:\TORRENTS\09 - Moment of Truth.wav

Peak level 100.0 %
Track quality 100.0 %
Test CRC DEE10357
Copy CRC DEE10357
Copy OK

Track 10
Filename D:\TORRENTS\10 - Patterns.wav

Peak level 98.3 %
Track quality 100.0 %
Test CRC 31AA0E80
Copy CRC 31AA0E80
Copy OK

Track 11
Filename D:\TORRENTS\11 - Teri.wav

Peak level 83.3 %
Track quality 100.0 %
Test CRC 219C276E
Copy CRC 219C276E
Copy OK

Track 12
Filename D:\TORRENTS\12 - Nancy Jo.wav

Peak level 100.0 %
Track quality 100.0 %
Test CRC 1E6808A5
Copy CRC 1E6808A5
Copy OK

Track 13
Filename D:\TORRENTS\13 - Milestones.wav

Peak level 100.0 %
Track quality 100.0 %
Test CRC 9D7E4148
Copy CRC 9D7E4148
Copy OK

Track 14
Filename D:\TORRENTS\14 - Latino.wav

Peak level 100.0 %
Track quality 100.0 %
Test CRC C602EC04
Copy CRC C602EC04
Copy OK

Track 15
Filename D:\TORRENTS\15 - Josefina.wav

Peak level 99.5 %
Track quality 99.9 %
Test CRC 32E56D69
Copy CRC 32E56D69
Copy OK

Track 16
Filename D:\TORRENTS\16 - Emerge.wav

Peak level 100.0 %
Track quality 100.0 %
Test CRC 2EEBC66C
Copy CRC 2EEBC66C
Copy OK

No errors occured


End of status report

EAC extraction logfile from 3. November 2006, 18:24 for CD
Gerald Wilson / The Complete Pacific Jazz Recordings of Gerald Wilson and His Orchestra (disc 2)

Used drive : HL-DT-STDVD-ROM GDR8162B Adapter: 1 ID: 1
Read mode : Secure with NO C2, accurate stream, disable cache
Read offset correction : 102
Overread into Lead-In and Lead-Out : No

Used output format : C:\Programmi\Exact Audio Copy\flac.exe (User Defined Encoder)
128 kBit/s
Additional command line options : -V -8 -T"artist=%a" -T"title=%t" -T"album=%g" -T"date=%y" -T"genre=%m" %s

Other options :
Fill up missing offset samples with silence : Yes
Delete leading and trailing silent blocks : No
Installed external ASPI interface


Track 1
Filename D:\TORRENTS\Gerald Wilson - The CompletePacific Jazz Recordings (2000) [FLAC] {Mosaic MD5 - 198}\CD 2\01 - So What.wav

Pre-gap length 0:00:02.00

Peak level 99.8 %
Track quality 99.9 %
Test CRC 51DA4F4C
Copy CRC 51DA4F4C
Copy OK

Track 2
Filename D:\TORRENTS\Gerald Wilson - The CompletePacific Jazz Recordings (2000) [FLAC] {Mosaic MD5 - 198}\CD 2\02 - Caprichos.wav

Peak level 100.0 %
Track quality 100.0 %
Test CRC 703CE3E4
Copy CRC 703CE3E4
Copy OK

Track 3
Filename D:\TORRENTS\Gerald Wilson - The CompletePacific Jazz Recordings (2000) [FLAC] {Mosaic MD5 - 198}\CD 2\03 - Paco.wav

Peak level 100.0 %
Track quality 100.0 %
Test CRC A2ED21CC
Copy CRC A2ED21CC
Copy OK

Track 4
Filename D:\TORRENTS\Gerald Wilson - The CompletePacific Jazz Recordings (2000) [FLAC] {Mosaic MD5 - 198}\CD 2\04 - Ravi.wav

Peak level 98.7 %
Track quality 100.0 %
Test CRC E2D1F89B
Copy CRC E2D1F89B
Copy OK

Track 5
Filename D:\TORRENTS\Gerald Wilson - The CompletePacific Jazz Recordings (2000) [FLAC] {Mosaic MD5 - 198}\CD 2\05 - Aram.wav

Peak level 99.9 %
Track quality 100.0 %
Test CRC F816A123
Copy CRC F816A123
Copy OK

Track 6
Filename D:\TORRENTS\Gerald Wilson - The CompletePacific Jazz Recordings (2000) [FLAC] {Mosaic MD5 - 198}\CD 2\06 - 'Round Midnight.wav

Peak level 99.9 %
Track quality 100.0 %
Test CRC 08968600
Copy CRC 08968600
Copy OK

Track 7
Filename D:\TORRENTS\Gerald Wilson - The CompletePacific Jazz Recordings (2000) [FLAC] {Mosaic MD5 - 198}\CD 2\07 - Eric.wav

Peak level 99.6 %
Track quality 100.0 %
Test CRC AFE31459
Copy CRC AFE31459
Copy OK

Track 8
Filename D:\TORRENTS\Gerald Wilson - The CompletePacific Jazz Recordings (2000) [FLAC] {Mosaic MD5 - 198}\CD 2\08 - Los Moros De Espana.wav

Peak level 100.0 %
Track quality 100.0 %
Test CRC 422EFAEB
Copy CRC 422EFAEB
Copy OK

Track 9
Filename D:\TORRENTS\Gerald Wilson - The CompletePacific Jazz Recordings (2000) [FLAC] {Mosaic MD5 - 198}\CD 2\09 - Who Can I Turn to.wav

Peak level 100.0 %
Track quality 100.0 %
Test CRC 341808B3
Copy CRC 341808B3
Copy OK

Track 10
Filename D:\TORRENTS\Gerald Wilson - The CompletePacific Jazz Recordings (2000) [FLAC] {Mosaic MD5 - 198}\CD 2\10 - Ricardo.wav

Peak level 99.9 %
Track quality 100.0 %
Test CRC 9AF4B0FD
Copy CRC 9AF4B0FD
Copy OK

Track 11
Filename D:\TORRENTS\Gerald Wilson - The CompletePacific Jazz Recordings (2000) [FLAC] {Mosaic MD5 - 198}\CD 2\11 - Musette.wav

Peak level 96.5 %
Track quality 100.0 %
Test CRC 1476FFDC
Copy CRC 1476FFDC
Copy OK

Track 12
Filename D:\TORRENTS\Gerald Wilson - The CompletePacific Jazz Recordings (2000) [FLAC] {Mosaic MD5 - 198}\CD 2\12 - In the Limelight.wav

Peak level 100.0 %
Track quality 100.0 %
Test CRC 5D4B5596
Copy CRC 5D4B5596
Copy OK

Track 13
Filename D:\TORRENTS\Gerald Wilson - The CompletePacific Jazz Recordings (2000) [FLAC] {Mosaic MD5 - 198}\CD 2\13 - Lighthouse Blues.wav

Peak level 100.0 %
Track quality 99.9 %
Test CRC 4216C755
Copy CRC 4216C755
Copy OK

Track 14
Filename D:\TORRENTS\Gerald Wilson - The CompletePacific Jazz Recordings (2000) [FLAC] {Mosaic MD5 - 198}\CD 2\14 - El Viti.wav

Peak level 100.0 %
Track quality 99.9 %
Test CRC 62EF9BC9
Copy CRC 62EF9BC9
Copy OK

Track 15
Filename D:\TORRENTS\Gerald Wilson - The CompletePacific Jazz Recordings (2000) [FLAC] {Mosaic MD5 - 198}\CD 2\15 - Lately.wav

Peak level 100.0 %
Track quality 100.0 %
Test CRC E9EA4E09
Copy CRC E9EA4E09
Copy OK

Track 16
Filename D:\TORRENTS\Gerald Wilson - The CompletePacific Jazz Recordings (2000) [FLAC] {Mosaic MD5 - 198}\CD 2\16 - Perdido.wav

Peak level 98.5 %
Track quality 100.0 %
Test CRC 09A2CF50
Copy CRC 09A2CF50
Copy OK

No errors occured


End of status report

EAC extraction logfile from 3. November 2006, 19:31 for CD
Gerald Wilson / The Complete Pacific Jazz Recordings of Gerald Wilson and His Orchestra (disc 3)

Used drive : HL-DT-STDVD-ROM GDR8162B Adapter: 1 ID: 1
Read mode : Secure with NO C2, accurate stream, disable cache
Read offset correction : 102
Overread into Lead-In and Lead-Out : No

Used output format : C:\Programmi\Exact Audio Copy\flac.exe (User Defined Encoder)
128 kBit/s
Additional command line options : -V -8 -T"artist=%a" -T"title=%t" -T"album=%g" -T"date=%y" -T"genre=%m" %s

Other options :
Fill up missing offset samples with silence : Yes
Delete leading and trailing silent blocks : No
Installed external ASPI interface


Track 1
Filename D:\TORRENTS\Gerald Wilson - The CompletePacific Jazz Recordings (2000) [FLAC] {Mosaic MD5 - 198}\CD 3\01 - When I'm Feeling Kinda Blue.wav

Pre-gap length 0:00:02.00

Peak level 100.0 %
Track quality 100.0 %
Test CRC 18CC57B6
Copy CRC 18CC57B6
Copy OK

Track 2
Filename D:\TORRENTS\Gerald Wilson - The CompletePacific Jazz Recordings (2000) [FLAC] {Mosaic MD5 - 198}\CD 3\02 - Freddie the Freeloader.wav

Peak level 100.0 %
Track quality 100.0 %
Test CRC 586FE4B5
Copy CRC 586FE4B5
Copy OK

Track 3
Filename D:\TORRENTS\Gerald Wilson - The CompletePacific Jazz Recordings (2000) [FLAC] {Mosaic MD5 - 198}\CD 3\03 - Do Anything You Wanna.wav

Peak level 100.0 %
Track quality 100.0 %
Test CRC 27686BCE
Copy CRC 27686BCE
Copy OK

Track 4
Filename D:\TORRENTS\Gerald Wilson - The CompletePacific Jazz Recordings (2000) [FLAC] {Mosaic MD5 - 198}\CD 3\04 - Yesterday.wav

Peak level 97.9 %
Track quality 99.9 %
Test CRC FF748155
Copy CRC FF748155
Copy OK

Track 5
Filename D:\TORRENTS\Gerald Wilson - The CompletePacific Jazz Recordings (2000) [FLAC] {Mosaic MD5 - 198}\CD 3\05 - Watermelon Man.wav

Peak level 100.0 %
Track quality 100.0 %
Test CRC 27D2C7D6
Copy CRC 27D2C7D6
Copy OK

Track 6
Filename D:\TORRENTS\Gerald Wilson - The CompletePacific Jazz Recordings (2000) [FLAC] {Mosaic MD5 - 198}\CD 3\06 - Yeh Yeh.wav

Peak level 100.0 %
Track quality 99.9 %
Test CRC 1654E422
Copy CRC 1654E422
Copy OK

Track 7
Filename D:\TORRENTS\Gerald Wilson - The CompletePacific Jazz Recordings (2000) [FLAC] {Mosaic MD5 - 198}\CD 3\07 - One On the House.wav

Peak level 100.0 %
Track quality 100.0 %
Test CRC 36C8B8B6
Copy CRC 36C8B8B6
Copy OK

Track 8
Filename D:\TORRENTS\Gerald Wilson - The CompletePacific Jazz Recordings (2000) [FLAC] {Mosaic MD5 - 198}\CD 3\08 - I Got You (I Feel Good).wav

Peak level 100.0 %
Track quality 99.9 %
Test CRC 53351244
Copy CRC 53351244
Copy OK

Track 9
Filename D:\TORRENTS\Gerald Wilson - The CompletePacific Jazz Recordings (2000) [FLAC] {Mosaic MD5 - 198}\CD 3\09 - I Concentrate On You.wav

Peak level 85.4 %
Track quality 100.0 %
Test CRC A96AC6DB
Copy CRC A96AC6DB
Copy OK

Track 10
Filename D:\TORRENTS\Gerald Wilson - The CompletePacific Jazz Recordings (2000) [FLAC] {Mosaic MD5 - 198}\CD 3\10 - Well Son Shuffle.wav

Peak level 99.9 %
Track quality 100.0 %
Test CRC A3EAAF43
Copy CRC A3EAAF43
Copy OK

Track 11
Filename D:\TORRENTS\Gerald Wilson - The CompletePacific Jazz Recordings (2000) [FLAC] {Mosaic MD5 - 198}\CD 3\11 - The Golden Sword.wav

Peak level 99.7 %
Track quality 100.0 %
Test CRC A4E8BAE2
Copy CRC A4E8BAE2
Copy OK

Track 12
Filename D:\TORRENTS\Gerald Wilson - The CompletePacific Jazz Recordings (2000) [FLAC] {Mosaic MD5 - 198}\CD 3\12 - Man of La Mancha.wav

Peak level 100.0 %
Track quality 100.0 %
Test CRC 49F1476B
Copy CRC 49F1476B
Copy OK

Track 13
Filename D:\TORRENTS\Gerald Wilson - The CompletePacific Jazz Recordings (2000) [FLAC] {Mosaic MD5 - 198}\CD 3\13 - The Breeze and I.wav

Peak level 99.7 %
Track quality 99.9 %
Test CRC 5D6BE0CA
Copy CRC 5D6BE0CA
Copy OK

Track 14
Filename D:\TORRENTS\Gerald Wilson - The CompletePacific Jazz Recordings (2000) [FLAC] {Mosaic MD5 - 198}\CD 3\14 - Carlos.wav

Peak level 100.0 %
Track quality 100.0 %
Test CRC 513E56E8
Copy CRC 513E56E8
Copy OK

Track 15
Filename D:\TORRENTS\Gerald Wilson - The CompletePacific Jazz Recordings (2000) [FLAC] {Mosaic MD5 - 198}\CD 3\15 - Chanson du Feu Follet (Song of the Mad Fire).wav

Peak level 100.0 %
Track quality 100.0 %
Test CRC E6220F2E
Copy CRC E6220F2E
Copy OK

Track 16
Filename D:\TORRENTS\Gerald Wilson - The CompletePacific Jazz Recordings (2000) [FLAC] {Mosaic MD5 - 198}\CD 3\16 - Mi Corazon (My Heart).wav

Peak level 99.1 %
Track quality 100.0 %
Test CRC 1DB60E9C
Copy CRC 1DB60E9C
Copy OK

Track 17
Filename D:\TORRENTS\Gerald Wilson - The CompletePacific Jazz Recordings (2000) [FLAC] {Mosaic MD5 - 198}\CD 3\17 - Blues Latinese.wav

Peak level 100.0 %
Track quality 99.9 %
Test CRC 0886F69E
Copy CRC 0886F69E
Copy OK

Track 18
Filename D:\TORRENTS\Gerald Wilson - The CompletePacific Jazz Recordings (2000) [FLAC] {Mosaic MD5 - 198}\CD 3\18 - The Feather.wav

Peak level 91.1 %
Track quality 100.0 %
Test CRC 55F945C5
Copy CRC 55F945C5
Copy OK

Track 19
Filename D:\TORRENTS\Gerald Wilson - The CompletePacific Jazz Recordings (2000) [FLAC] {Mosaic MD5 - 198}\CD 3\19 - La Mentra (The Lie).wav

Peak level 100.0 %
Track quality 100.0 %
Test CRC 563F6590
Copy CRC 563F6590
Copy OK

Track 20
Filename D:\TORRENTS\Gerald Wilson - The CompletePacific Jazz Recordings (2000) [FLAC] {Mosaic MD5 - 198}\CD 3\20 - The Serpent.wav

Peak level 100.0 %
Track quality 99.9 %
Test CRC A691136D
Copy CRC A691136D
Copy OK

No errors occured


End of status report

EAC extraction logfile from 3. November 2006, 21:56 for CD
Gerald Wilson / The Complete Pacific Jazz Recordings of Gerald Wilson and His Orchestra (disc 4)

Used drive : HL-DT-STDVD-ROM GDR8162B Adapter: 1 ID: 1
Read mode : Secure with NO C2, accurate stream, disable cache
Read offset correction : 102
Overread into Lead-In and Lead-Out : No

Used output format : C:\Programmi\Exact Audio Copy\flac.exe (User Defined Encoder)
128 kBit/s
Additional command line options : -V -8 -T"artist=%a" -T"title=%t" -T"album=%g" -T"date=%y" -T"genre=%m" %s

Other options :
Fill up missing offset samples with silence : Yes
Delete leading and trailing silent blocks : No
Installed external ASPI interface


Track 1
Filename D:\TORRENTS\Gerald Wilson - The CompletePacific Jazz Recordings (2000) [FLAC] {Mosaic MD5 - 198}\CD 4\01 - Paper Man.wav

Pre-gap length 0:00:02.00

Peak level 100.0 %
Track quality 100.0 %
Test CRC 40239687
Copy CRC 40239687
Copy OK

Track 2
Filename D:\TORRENTS\Gerald Wilson - The CompletePacific Jazz Recordings (2000) [FLAC] {Mosaic MD5 - 198}\CD 4\02 - I Should Care.wav

Peak level 97.2 %
Track quality 99.9 %
Test CRC 07ABF802
Copy CRC 07ABF802
Copy OK

Track 3
Filename D:\TORRENTS\Gerald Wilson - The CompletePacific Jazz Recordings (2000) [FLAC] {Mosaic MD5 - 198}\CD 4\03 - I Got It Bad (and That Ain't Good).wav

Peak level 100.0 %
Track quality 100.0 %
Test CRC C8F8336E
Copy CRC C8F8336E
Copy OK

Track 4
Filename D:\TORRENTS\Gerald Wilson - The CompletePacific Jazz Recordings (2000) [FLAC] {Mosaic MD5 - 198}\CD 4\04 - The 'IT's' Where It's At.wav

Peak level 100.0 %
Track quality 100.0 %
Test CRC DFA90504
Copy CRC DFA90504
Copy OK

Track 5
Filename D:\TORRENTS\Gerald Wilson - The CompletePacific Jazz Recordings (2000) [FLAC] {Mosaic MD5 - 198}\CD 4\05 - Blues for a Scorpio.wav

Peak level 100.0 %
Track quality 100.0 %
Test CRC E7D09FA8
Copy CRC E7D09FA8
Copy OK

Track 6
Filename D:\TORRENTS\Gerald Wilson - The CompletePacific Jazz Recordings (2000) [FLAC] {Mosaic MD5 - 198}\CD 4\06 - L'il Darlin'.wav

Peak level 97.2 %
Track quality 100.0 %
Test CRC 5F3476F7
Copy CRC 5F3476F7
Copy OK

Track 7
Filename D:\TORRENTS\Gerald Wilson - The CompletePacific Jazz Recordings (2000) [FLAC] {Mosaic MD5 - 198}\CD 4\07 - Misty.wav

Peak level 100.0 %
Track quality 100.0 %
Test CRC E86D39C5
Copy CRC E86D39C5
Copy OK

Track 8
Filename D:\TORRENTS\Gerald Wilson - The CompletePacific Jazz Recordings (2000) [FLAC] {Mosaic MD5 - 198}\CD 4\08 - Viva Tirado.wav

Peak level 99.9 %
Track quality 99.9 %
Test CRC 1A2AB05D
Copy CRC 1A2AB05D
Copy OK

Track 9
Filename D:\TORRENTS\Gerald Wilson - The CompletePacific Jazz Recordings (2000) [FLAC] {Mosaic MD5 - 198}\CD 4\09 - Everywhere.wav

Peak level 100.0 %
Track quality 100.0 %
Test CRC BBD09FD3
Copy CRC BBD09FD3
Copy OK

Track 10
Filename D:\TORRENTS\Gerald Wilson - The CompletePacific Jazz Recordings (2000) [FLAC] {Mosaic MD5 - 198}\CD 4\10 - Out of This World.wav

Peak level 100.0 %
Track quality 99.9 %
Test CRC 117D3477
Copy CRC 117D3477
Copy OK

Track 11
Filename D:\TORRENTS\Gerald Wilson - The CompletePacific Jazz Recordings (2000) [FLAC] {Mosaic MD5 - 198}\CD 4\11 - Pretty Polly.wav

Peak level 100.0 %
Track quality 99.9 %
Test CRC 2184DC90
Copy CRC 2184DC90
Copy OK

Track 12
Filename D:\TORRENTS\Gerald Wilson - The CompletePacific Jazz Recordings (2000) [FLAC] {Mosaic MD5 - 198}\CD 4\12 - M. Capetillo.wav

Peak level 100.0 %
Track quality 100.0 %
Test CRC E46F8124
Copy CRC E46F8124
Copy OK

Track 13
Filename D:\TORRENTS\Gerald Wilson - The CompletePacific Jazz Recordings (2000) [FLAC] {Mosaic MD5 - 198}\CD 4\13 - Little Bit of Soul.wav

Peak level 100.0 %
Track quality 100.0 %
Test CRC DC89E264
Copy CRC DC89E264
Copy OK

Track 14
Filename D:\TORRENTS\Gerald Wilson - The CompletePacific Jazz Recordings (2000) [FLAC] {Mosaic MD5 - 198}\CD 4\14 - Do I Love You (Because You're Beautiful ).wav

Peak level 96.3 %
Track quality 100.0 %
Test CRC 2FEF8C8E
Copy CRC 2FEF8C8E
Copy OK

Track 15
Filename D:\TORRENTS\Gerald Wilson - The CompletePacific Jazz Recordings (2000) [FLAC] {Mosaic MD5 - 198}\CD 4\15 - Del Olivar.wav

Peak level 100.0 %
Track quality 99.9 %
Test CRC 63714E8B
Copy CRC 63714E8B
Copy OK

Track 16
Filename D:\TORRENTS\Gerald Wilson - The CompletePacific Jazz Recordings (2000) [FLAC] {Mosaic MD5 - 198}\CD 4\16 - Mini Waltz.wav

Peak level 100.0 %
Track quality 100.0 %
Test CRC B8889151
Copy CRC B8889151
Copy OK

No errors occured


End of status report

EAC extraction logfile from 3. November 2006, 23:02 for CD
Gerald Wilson / The Complete Pacific Jazz Recordings of Gerald Wilson and His Orchestra (disc V)

Used drive : HL-DT-STDVD-ROM GDR8162B Adapter: 1 ID: 1
Read mode : Secure with NO C2, accurate stream, disable cache
Read offset correction : 102
Overread into Lead-In and Lead-Out : No

Used output format : C:\Programmi\Exact Audio Copy\flac.exe (User Defined Encoder)
128 kBit/s
Additional command line options : -V -8 -T"artist=%a" -T"title=%t" -T"album=%g" -T"date=%y" -T"genre=%m" %s

Other options :
Fill up missing offset samples with silence : Yes
Delete leading and trailing silent blocks : No
Installed external ASPI interface


Track 1
Filename D:\TORRENTS\Gerald Wilson - The CompletePacific Jazz Recordings (2000) [FLAC] {Mosaic MD5 - 198}\CD 5\01 - California Soul.wav

Pre-gap length 0:00:02.00

Peak level 100.0 %
Track quality 100.0 %
Test CRC E90FFBB1
Copy CRC E90FFBB1
Copy OK

Track 2
Filename D:\TORRENTS\Gerald Wilson - The CompletePacific Jazz Recordings (2000) [FLAC] {Mosaic MD5 - 198}\CD 5\02 - Light My Fire.wav

Peak level 98.3 %
Track quality 100.0 %
Test CRC 8FE809BE
Copy CRC 8FE809BE
Copy OK

Track 3
Filename D:\TORRENTS\Gerald Wilson - The CompletePacific Jazz Recordings (2000) [FLAC] {Mosaic MD5 - 198}\CD 5\03 - Channel Island.wav

Peak level 100.0 %
Track quality 100.0 %
Test CRC 073355B3
Copy CRC 073355B3
Copy OK

Track 4
Filename D:\TORRENTS\Gerald Wilson - The CompletePacific Jazz Recordings (2000) [FLAC] {Mosaic MD5 - 198}\CD 5\04 - Lullaby from Rosemary's Baby.wav

Peak level 90.5 %
Track quality 99.9 %
Test CRC A226CB38
Copy CRC A226CB38
Copy OK

Track 5
Filename D:\TORRENTS\Gerald Wilson - The CompletePacific Jazz Recordings (2000) [FLAC] {Mosaic MD5 - 198}\CD 5\05 - Sunshine of Your Love.wav

Peak level 99.0 %
Track quality 100.0 %
Test CRC 9AAD2765
Copy CRC 9AAD2765
Copy OK

Track 6
Filename D:\TORRENTS\Gerald Wilson - The CompletePacific Jazz Recordings (2000) [FLAC] {Mosaic MD5 - 198}\CD 5\06 - Russian River.wav

Peak level 99.2 %
Track quality 100.0 %
Test CRC F00C61FE
Copy CRC F00C61FE
Copy OK

Track 7
Filename D:\TORRENTS\Gerald Wilson - The CompletePacific Jazz Recordings (2000) [FLAC] {Mosaic MD5 - 198}\CD 5\07 - Yesterlove.wav

Peak level 100.0 %
Track quality 100.0 %
Test CRC D961645C
Copy CRC D961645C
Copy OK

Track 8
Filename D:\TORRENTS\Gerald Wilson - The CompletePacific Jazz Recordings (2000) [FLAC] {Mosaic MD5 - 198}\CD 5\08 - Down Here on the Ground.wav

Peak level 94.8 %
Track quality 99.9 %
Test CRC 20F1D005
Copy CRC 20F1D005
Copy OK

Track 9
Filename D:\TORRENTS\Gerald Wilson - The CompletePacific Jazz Recordings (2000) [FLAC] {Mosaic MD5 - 198}\CD 5\09 - El Presidente.wav

Peak level 87.9 %
Track quality 100.0 %
Test CRC 13D2A087
Copy CRC 13D2A087
Copy OK

Track 10
Filename D:\TORRENTS\Gerald Wilson - The CompletePacific Jazz Recordings (2000) [FLAC] {Mosaic MD5 - 198}\CD 5\10 - Equinox.wav

Peak level 99.8 %
Track quality 100.0 %
Test CRC 63B24A38
Copy CRC 63B24A38
Copy OK

Track 11
Filename D:\TORRENTS\Gerald Wilson - The CompletePacific Jazz Recordings (2000) [FLAC] {Mosaic MD5 - 198}\CD 5\11 - Aquarius.wav

Peak level 100.0 %
Track quality 100.0 %
Test CRC 2F9CEF4A
Copy CRC 2F9CEF4A
Copy OK

Track 12
Filename D:\TORRENTS\Gerald Wilson - The CompletePacific Jazz Recordings (2000) [FLAC] {Mosaic MD5 - 198}\CD 5\12 - Pisces.wav

Peak level 100.0 %
Track quality 100.0 %
Test CRC FB8427D5
Copy CRC FB8427D5
Copy OK

Track 13
Filename D:\TORRENTS\Gerald Wilson - The CompletePacific Jazz Recordings (2000) [FLAC] {Mosaic MD5 - 198}\CD 5\13 - Scorpio Rising.wav

Peak level 100.0 %
Track quality 100.0 %
Test CRC 20036BB5
Copy CRC 20036BB5
Copy OK

Track 14
Filename D:\TORRENTS\Gerald Wilson - The CompletePacific Jazz Recordings (2000) [FLAC] {Mosaic MD5 - 198}\CD 5\14 - Celestial Soul.wav

Peak level 97.0 %
Track quality 99.9 %
Test CRC 9D0D4CB0
Copy CRC 9D0D4CB0
Copy OK

Track 15
Filename D:\TORRENTS\Gerald Wilson - The CompletePacific Jazz Recordings (2000) [FLAC] {Mosaic MD5 - 198}\CD 5\15 - Baby, Baby Don't Cry.wav

Peak level 94.0 %
Track quality 100.0 %
Test CRC C3F2CB0A
Copy CRC C3F2CB0A
Copy OK

Track 16
Filename D:\TORRENTS\Gerald Wilson - The CompletePacific Jazz Recordings (2000) [FLAC] {Mosaic MD5 - 198}\CD 5\16 - You, Me and Now.wav

Peak level 100.0 %
Track quality 100.0 %
Test CRC E15834AB
Copy CRC E15834AB
Copy OK

Track 17
Filename D:\TORRENTS\Gerald Wilson - The CompletePacific Jazz Recordings (2000) [FLAC] {Mosaic MD5 - 198}\CD 5\17 - Bluesnee.wav

Peak level 100.0 %
Track quality 100.0 %
Test CRC 775A78FE
Copy CRC 775A78FE
Copy OK

No errors occured


End of status report


Gerald Wilson - The Complete Pacific Jazz Recordings of Gerald Wilson and His Orchestra (1961-69) [5CD] {2000 Mosaic Remaster}

Gerald Wilson - The Complete Pacific Jazz Recordings of Gerald Wilson and His Orchestra (1961-69) [5CD] {2000 Mosaic Remaster}

Gerald Wilson - The Complete Pacific Jazz Recordings of Gerald Wilson and His Orchestra (1961-69) [5CD] {2000 Mosaic Remaster}

Gerald Wilson - The Complete Pacific Jazz Recordings of Gerald Wilson and His Orchestra (1961-69) [5CD] {2000 Mosaic Remaster}

Gerald Wilson - The Complete Pacific Jazz Recordings of Gerald Wilson and His Orchestra (1961-69) [5CD] {2000 Mosaic Remaster}


All thanks goes to the original releaser!