Gerry Mulligan Quartet - Dream A Little Dream (1994) {Telarc CD-83364}

Posted By: ruskaval
Gerry Mulligan Quartet - Dream A Little Dream (1994) {Telarc CD-83364}

Gerry Mulligan Quartet - Dream A Little Dream (1994) {Telarc CD-83364}
EAC rip (secure mode) | FLAC (tracks)+CUE+LOG -> 342 Mb | MP3 @320 -> 155 Mb
Full Artwork @ 300 dpi (jpg) -> 23 Mb | 5% repair rar
© 1994 Telarc | CD-83364
Jazz / Cool / Bop / West Coast Jazz / Baritone Saxophone

Baritonist Gerry Mulligan had at the time of this recording been a jazz giant for 45 years. His slightly bubbly baritone sound has always been distinctive and he never had difficulty jamming with anyone. In the 1990s Mulligan's regular trio has been comprised of pianist Ted Rosenthal, bassist Dean Johnson and drummer Ron Vincent. The sidemen work together very well on this quartet date (Bill Mays fills in for Rosenthal on two songs) and form a solid foundation for Mulligan to float over. The baritonist performs a variety of superior standards such as "Home," "They Say It's Wonderful," and "My Shining Hour," revives "My Funny Valentine"; he also revisits a few of his originals (including "Walking Shoes" and "Song for Strayhorn"). This is a fine example of Gerry Mulligan's playing.

Personnel:
Baritone Saxophone: Gerry Mulligan
Piano: Ted Rosenthal, Bill Mays
Bass: Dean Johnson
Drums: Ron Vincent

tracklist:
01 - Nobody Else But Me
02 - Home (When Shadows Fall)
03 - Dream A Little Dream
04 - I'll Be Around
05 - They Say It's Wonderful
06 - The Real Thing
07 - Noblesse
08 - Here's That Rainy Day
09 - Georgia On My Mind
10 - My Funny Valentine
11 - As Close as Pages in a Book
12 - My Shining Hour
13 - Walking Shoes
14 - Song for Strayhorn

Exact Audio Copy V1.2 from 12. August 2016

EAC extraction logfile from 11. March 2017, 16:15

Gerry Mulligan Quartet / Dream A Little Dream

Used drive : PLDS DVD+-RW DU-8A4SH Adapter: 1 ID: 0

Read mode : Secure
Utilize accurate stream : Yes
Defeat audio cache : Yes
Make use of C2 pointers : No

Read offset correction : 6
Overread into Lead-In and Lead-Out : No
Fill up missing offset samples with silence : Yes
Delete leading and trailing silent blocks : No
Null samples used in CRC calculations : Yes
Used interface : Native Win32 interface for Win NT & 2000
Gap handling : Appended to previous track

Used output format : User Defined Encoder
Selected bitrate : 128 kBit/s
Quality : High
Add ID3 tag : No
Command line compressor : C:\Program Files (x86)\Exact Audio Copy\Flac\flac.exe
Additional command line options : -8 -V -T "ARTIST=%artist%" -T "TITLE=%title%" -T "ALBUM=%albumtitle%" -T "DATE=%year%" -T "TRACKNUMBER=%tracknr%" -T "TOTALTRACKS=%numtracks%" -T "GENRE=%genre%" -T "ALBUMARTIST=%albumartist%" -T "ALBUM ARTIST=%albumartist%" -T "COMMENT=EAC Secure Mode, Test & Copy, AccurateRip, FLAC -8" %source%


TOC of the extracted CD

Track | Start | Length | Start sector | End sector
––––––––––––––––––––––––––––-
1 | 0:00.00 | 4:12.55 | 0 | 18954
2 | 4:12.55 | 6:04.08 | 18955 | 46262
3 | 10:16.63 | 3:50.62 | 46263 | 63574
4 | 14:07.50 | 3:18.58 | 63575 | 78482
5 | 17:26.33 | 4:48.60 | 78483 | 100142
6 | 22:15.18 | 4:43.27 | 100143 | 121394
7 | 26:58.45 | 6:16.30 | 121395 | 149624
8 | 33:15.00 | 4:28.38 | 149625 | 169762
9 | 37:43.38 | 4:24.02 | 169763 | 189564
10 | 42:07.40 | 4:42.10 | 189565 | 210724
11 | 46:49.50 | 4:19.28 | 210725 | 230177
12 | 51:09.03 | 4:08.42 | 230178 | 248819
13 | 55:17.45 | 4:40.73 | 248820 | 269892
14 | 59:58.43 | 6:36.57 | 269893 | 299649


Track 1

Filename C:\x\_EAC\01 - Nobody Else But Me.wav

Pre-gap length 0:00:02.00

Peak level 100.0 %
Extraction speed 1.1 X
Track quality 100.0 %
Test CRC 6C77F1CB
Copy CRC 6C77F1CB
Accurately ripped (confidence 10) [2A8667D6] (AR v2)
Copy OK

Track 2

Filename C:\x\_EAC\02 - Home (When Shadows Fall).wav

Pre-gap length 0:00:01.30

Peak level 100.0 %
Extraction speed 1.4 X
Track quality 100.0 %
Test CRC C4CC081D
Copy CRC C4CC081D
Accurately ripped (confidence 10) [CD5B52E6] (AR v2)
Copy OK

Track 3

Filename C:\x\_EAC\03 - Dream A Little Dream.wav

Pre-gap length 0:00:00.37

Peak level 100.0 %
Extraction speed 1.4 X
Track quality 100.0 %
Test CRC DB0AFC8E
Copy CRC DB0AFC8E
Accurately ripped (confidence 10) [EC0E063E] (AR v2)
Copy OK

Track 4

Filename C:\x\_EAC\04 - I'll Be Around.wav

Pre-gap length 0:00:00.16

Peak level 73.0 %
Extraction speed 1.5 X
Track quality 100.0 %
Test CRC A58D6EF2
Copy CRC A58D6EF2
Accurately ripped (confidence 10) [6A446503] (AR v2)
Copy OK

Track 5

Filename C:\x\_EAC\05 - They Say It's Wonderful.wav

Pre-gap length 0:00:01.03

Peak level 91.3 %
Extraction speed 1.5 X
Track quality 99.9 %
Test CRC DC7EE2C7
Copy CRC DC7EE2C7
Accurately ripped (confidence 10) [D48B3690] (AR v2)
Copy OK

Track 6

Filename C:\x\_EAC\06 - The Real Thing.wav

Pre-gap length 0:00:00.68

Peak level 89.7 %
Extraction speed 1.8 X
Track quality 100.0 %
Test CRC E7A44D16
Copy CRC E7A44D16
Accurately ripped (confidence 10) [C5F842E9] (AR v2)
Copy OK

Track 7

Filename C:\x\_EAC\07 - Noblesse.wav

Pre-gap length 0:00:01.15

Peak level 95.7 %
Extraction speed 1.9 X
Track quality 100.0 %
Test CRC 2E95F13D
Copy CRC 2E95F13D
Accurately ripped (confidence 10) [AB67385F] (AR v2)
Copy OK

Track 8

Filename C:\x\_EAC\08 - Here's That Rainy Day.wav

Pre-gap length 0:00:00.49

Peak level 95.7 %
Extraction speed 1.9 X
Track quality 100.0 %
Test CRC 238BB4ED
Copy CRC 238BB4ED
Accurately ripped (confidence 10) [2AB589F0] (AR v2)
Copy OK

Track 9

Filename C:\x\_EAC\09 - Georgia On My Mind.wav

Pre-gap length 0:00:01.13

Peak level 99.3 %
Extraction speed 2.0 X
Track quality 100.0 %
Test CRC 722ABDD8
Copy CRC 722ABDD8
Accurately ripped (confidence 10) [1874F14C] (AR v2)
Copy OK

Track 10

Filename C:\x\_EAC\10 - My Funny Valentine.wav

Pre-gap length 0:00:00.10

Peak level 92.2 %
Extraction speed 2.1 X
Track quality 100.0 %
Test CRC B51C357A
Copy CRC B51C357A
Accurately ripped (confidence 10) [3D93F5CE] (AR v2)
Copy OK

Track 11

Filename C:\x\_EAC\11 - As Close as Pages in a Book.wav

Pre-gap length 0:00:01.25

Peak level 83.1 %
Extraction speed 2.2 X
Track quality 100.0 %
Test CRC 9D59CBC5
Copy CRC 9D59CBC5
Accurately ripped (confidence 10) [E43691CE] (AR v2)
Copy OK

Track 12

Filename C:\x\_EAC\12 - My Shining Hour.wav

Peak level 100.0 %
Extraction speed 2.2 X
Track quality 100.0 %
Test CRC 4C45D7F3
Copy CRC 4C45D7F3
Accurately ripped (confidence 10) [934495C9] (AR v2)
Copy OK

Track 13

Filename C:\x\_EAC\13 - Walking Shoes.wav

Pre-gap length 0:00:01.15

Peak level 100.0 %
Extraction speed 2.3 X
Track quality 100.0 %
Test CRC A62FCD09
Copy CRC A62FCD09
Accurately ripped (confidence 10) [42DEC6FD] (AR v2)
Copy OK

Track 14

Filename C:\x\_EAC\14 - Song for Strayhorn.wav

Pre-gap length 0:00:01.18

Peak level 100.0 %
Extraction speed 2.3 X
Track quality 99.9 %
Test CRC A78ECE48
Copy CRC A78ECE48
Accurately ripped (confidence 10) [381E16E4] (AR v2)
Copy OK


All tracks accurately ripped

No errors occurred

End of status report

–– CUETools DB Plugin V2.1.6

[CTDB TOCID: H_y2XDeVs5X9L_YWwBAr3JoI4Cs-] found
Submit result: H_y2XDeVs5X9L_YWwBAr3JoI4Cs- has been confirmed
Track | CTDB Status
1 | (20/57) Accurately ripped, or (34/57) differs in 161 samples @00:00:25-00:00:28
2 | (55/57) Accurately ripped
3 | (56/57) Accurately ripped
4 | (56/57) Accurately ripped
5 | (55/57) Accurately ripped
6 | (55/57) Accurately ripped
7 | (55/57) Accurately ripped
8 | (56/57) Accurately ripped
9 | (56/57) Accurately ripped
10 | (55/57) Accurately ripped
11 | (54/57) Accurately ripped
12 | (55/57) Accurately ripped
13 | (55/57) Accurately ripped
14 | (55/57) Accurately ripped
If you are sure that your rip contains errors, you can use CUETools to repair it.


==== Log checksum 8041C1C95084256FB01DEDB179E5336045B21F12AD932E4D1FB6B13CA7727F29 ====


Gerry Mulligan Quartet - Dream A Little Dream (1994) {Telarc CD-83364}

Gerry Mulligan Quartet - Dream A Little Dream (1994) {Telarc CD-83364}



===