Subcategories

Gilberto Gil - Um Banda Um (1982) {Warner Music Brasil 092746040-2 rel 2002}

Posted By: ruskaval
Gilberto Gil - Um Banda Um (1982) {Warner Music Brasil 092746040-2 rel 2002}

Gilberto Gil - Um Banda Um (1982) {Warner Music Brasil 092746040-2 rel 2002}
EAC rip (secure mode) | FLAC (tracks)+CUE+LOG -> 458 Mb | MP3 @320 -> 167 Mb
Full Artwork @ 300 dpi (jpg) -> 35 Mb | 5% repair rar
© 1982, 2002 Warner Music Brasil | 092746040-2
Jazz / Brazilian Jazz / Música popular brasileira / Brazilian Traditions / Brazilian Pop

Trapped in the sound of 1982, Gil's Um Banda Um album is covered with canned keyboards and synthesizer on virtually every track. And since it's not the best collection of songs he ever released, it's difficult for the listener to get into even after managing to focus on the songs. Though the joyous, nearly five-minute title track is a highlight, there's just a bit too much synthesizer on these songs. If it wasn't for Liminha's rather understated production, Um Banda Um would probably be rated even worse.
Gilberto Gil - Um Banda Um (1982) {Warner Music Brasil 092746040-2 rel 2002}


tracklist:
01 - Banda Um
02 - Afoxe E
03 - Metafora
04 - Deixar Voce
05 - Pula Caminha
06 - Andar Com Fe
07 - Drao
08 - Esoterico
09 - Menina Do Sonho
10 - E Menina
11 - Nossa
12 - Afoxe E (primeira versao)
13 - Deixar Voce (primeira versao)
14 - Esoterico (primeira versao)
15 - Banda Um (primeira versao)
16 - E Menina (primeira versao)
17 - Esoterico (regravacao tk 1)

Exact Audio Copy V1.1 from 23. June 2015

EAC extraction logfile from 11. December 2016, 10:36

Gilberto Gil / Um Banda Um

Used drive : MATSHITADVD+-RW SW830 Adapter: 1 ID: 0

Read mode : Secure
Utilize accurate stream : Yes
Defeat audio cache : Yes
Make use of C2 pointers : No

Read offset correction : 6
Overread into Lead-In and Lead-Out : No
Fill up missing offset samples with silence : Yes
Delete leading and trailing silent blocks : No
Null samples used in CRC calculations : Yes
Used interface : Native Win32 interface for Win NT & 2000
Gap handling : Appended to previous track

Used output format : User Defined Encoder
Selected bitrate : 896 kBit/s
Quality : High
Add ID3 tag : No
Command line compressor : C:\Program Files (x86)\Exact Audio Copy\Flac\flac.exe
Additional command line options : -8 -V -T "ARTIST=%artist%" -T "TITLE=%title%" -T "ALBUM=%albumtitle%" -T "DATE=%year%" -T "TRACKNUMBER=%tracknr%" -T "TOTALTRACKS=%numtracks%" -T "GENRE=%genre%" -T "ALBUMARTIST=%albumartist%" -T "ALBUM ARTIST=%albumartist%" -T "COMMENT=EAC Secure Mode, Test & Copy, AccurateRip, FLAC -8" %source%


TOC of the extracted CD

Track | Start | Length | Start sector | End sector
––––––––––––––––––––––––––––-
1 | 0:00.00 | 4:38.51 | 0 | 20900
2 | 4:38.51 | 4:02.64 | 20901 | 39114
3 | 8:41.40 | 4:21.46 | 39115 | 58735
4 | 13:03.11 | 4:45.62 | 58736 | 80172
5 | 17:48.73 | 3:40.73 | 80173 | 96745
6 | 21:29.71 | 3:20.72 | 96746 | 111817
7 | 24:50.68 | 3:17.66 | 111818 | 126658
8 | 28:08.59 | 4:22.66 | 126659 | 146374
9 | 32:31.50 | 4:53.37 | 146375 | 168386
10 | 37:25.12 | 3:51.12 | 168387 | 185723
11 | 41:16.24 | 2:48.54 | 185724 | 198377
12 | 44:05.03 | 4:04.74 | 198378 | 216751
13 | 48:10.02 | 4:48.73 | 216752 | 238424
14 | 52:59.00 | 3:59.64 | 238425 | 256413
15 | 56:58.64 | 4:32.04 | 256414 | 276817
16 | 61:30.68 | 5:30.51 | 276818 | 301618
17 | 67:01.44 | 4:28.53 | 301619 | 321771


Track 1

Filename G:\New Rips\Gilberto Gil - Um Banda Um (1982) [FLAC]\01 - Banda Um.wav

Pre-gap length 0:00:02.00

Peak level 98.1 %
Extraction speed 4.9 X
Track quality 100.0 %
Test CRC 5A4027C8
Copy CRC 5A4027C8
Accurately ripped (confidence 5) [CE12E530] (AR v2)
Copy OK

Track 2

Filename G:\New Rips\Gilberto Gil - Um Banda Um (1982) [FLAC]\02 - Afoxe E.wav

Peak level 98.2 %
Extraction speed 5.3 X
Track quality 100.0 %
Test CRC 4BDFC4D6
Copy CRC 4BDFC4D6
Accurately ripped (confidence 5) [4C3ED7A3] (AR v2)
Copy OK

Track 3

Filename G:\New Rips\Gilberto Gil - Um Banda Um (1982) [FLAC]\03 - Metafora.wav

Peak level 98.1 %
Extraction speed 4.8 X
Track quality 99.9 %
Test CRC 27868DA8
Copy CRC 27868DA8
Accurately ripped (confidence 4) [7893DDE3] (AR v2)
Copy OK

Track 4

Filename G:\New Rips\Gilberto Gil - Um Banda Um (1982) [FLAC]\04 - Deixar Voce.wav

Peak level 98.1 %
Extraction speed 5.3 X
Track quality 99.9 %
Test CRC DB3BF70D
Copy CRC DB3BF70D
Accurately ripped (confidence 5) [2FFD3A5C] (AR v2)
Copy OK

Track 5

Filename G:\New Rips\Gilberto Gil - Um Banda Um (1982) [FLAC]\05 - Pula Caminha.wav

Peak level 98.2 %
Extraction speed 6.3 X
Track quality 100.0 %
Test CRC E1FD5F6C
Copy CRC E1FD5F6C
Accurately ripped (confidence 5) [DD1A7495] (AR v2)
Copy OK

Track 6

Filename G:\New Rips\Gilberto Gil - Um Banda Um (1982) [FLAC]\06 - Andar Com Fe.wav

Peak level 98.1 %
Extraction speed 6.6 X
Track quality 100.0 %
Test CRC DE717959
Copy CRC DE717959
Accurately ripped (confidence 5) [50E79721] (AR v2)
Copy OK

Track 7

Filename G:\New Rips\Gilberto Gil - Um Banda Um (1982) [FLAC]\07 - Drao.wav

Peak level 98.2 %
Extraction speed 5.5 X
Track quality 99.9 %
Test CRC 1CA89A78
Copy CRC 1CA89A78
Accurately ripped (confidence 5) [F716EBC8] (AR v2)
Copy OK

Track 8

Filename G:\New Rips\Gilberto Gil - Um Banda Um (1982) [FLAC]\08 - Esoterico.wav

Peak level 98.1 %
Extraction speed 7.4 X
Track quality 100.0 %
Test CRC F3F2F7F9
Copy CRC F3F2F7F9
Accurately ripped (confidence 5) [E7DCE2E7] (AR v2)
Copy OK

Track 9

Filename G:\New Rips\Gilberto Gil - Um Banda Um (1982) [FLAC]\09 - Menina Do Sonho.wav

Peak level 98.1 %
Extraction speed 6.7 X
Track quality 99.9 %
Test CRC 928F17C7
Copy CRC 928F17C7
Accurately ripped (confidence 5) [94BB118F] (AR v2)
Copy OK

Track 10

Filename G:\New Rips\Gilberto Gil - Um Banda Um (1982) [FLAC]\10 - E Menina.wav

Peak level 98.1 %
Extraction speed 7.0 X
Track quality 100.0 %
Test CRC D8514DD2
Copy CRC D8514DD2
Accurately ripped (confidence 5) [3E3B7A76] (AR v2)
Copy OK

Track 11

Filename G:\New Rips\Gilberto Gil - Um Banda Um (1982) [FLAC]\11 - Nossa.wav

Peak level 98.1 %
Extraction speed 7.7 X
Track quality 100.0 %
Test CRC BD76E712
Copy CRC BD76E712
Accurately ripped (confidence 5) [E56775F9] (AR v2)
Copy OK

Track 12

Filename G:\New Rips\Gilberto Gil - Um Banda Um (1982) [FLAC]\12 - Afoxe E (primeira versao).wav

Pre-gap length 0:00:01.45

Peak level 98.1 %
Extraction speed 6.8 X
Track quality 99.9 %
Test CRC 62A39B05
Copy CRC 62A39B05
Accurately ripped (confidence 5) [8EEF8E94] (AR v2)
Copy OK

Track 13

Filename G:\New Rips\Gilberto Gil - Um Banda Um (1982) [FLAC]\13 - Deixar Voce (primeira versao).wav

Pre-gap length 0:00:01.45

Peak level 100.0 %
Extraction speed 8.9 X
Track quality 100.0 %
Test CRC 46F38367
Copy CRC 46F38367
Accurately ripped (confidence 5) [67B7D161] (AR v2)
Copy OK

Track 14

Filename G:\New Rips\Gilberto Gil - Um Banda Um (1982) [FLAC]\14 - Esoterico (primeira versao).wav

Pre-gap length 0:00:01.45

Peak level 98.6 %
Extraction speed 8.9 X
Track quality 100.0 %
Test CRC 906BE487
Copy CRC 906BE487
Accurately ripped (confidence 5) [0A27848F] (AR v2)
Copy OK

Track 15

Filename G:\New Rips\Gilberto Gil - Um Banda Um (1982) [FLAC]\15 - Banda Um (primeira versao).wav

Pre-gap length 0:00:01.45

Peak level 98.2 %
Extraction speed 9.4 X
Track quality 100.0 %
Test CRC 937E50AC
Copy CRC 937E50AC
Accurately ripped (confidence 5) [863FBE4D] (AR v2)
Copy OK

Track 16

Filename G:\New Rips\Gilberto Gil - Um Banda Um (1982) [FLAC]\16 - E Menina (primeira versao).wav

Pre-gap length 0:00:01.45

Peak level 98.6 %
Extraction speed 8.4 X
Track quality 99.9 %
Test CRC 367C8DB6
Copy CRC 367C8DB6
Accurately ripped (confidence 5) [1341886C] (AR v2)
Copy OK

Track 17

Filename G:\New Rips\Gilberto Gil - Um Banda Um (1982) [FLAC]\17 - Esoterico (regravacao tk 1).wav

Pre-gap length 0:00:01.45

Peak level 98.1 %
Extraction speed 9.8 X
Track quality 100.0 %
Test CRC 47D9FB24
Copy CRC 47D9FB24
Accurately ripped (confidence 5) [CDCE8CC0] (AR v2)
Copy OK


All tracks accurately ripped

No errors occurred

End of status report

–– CUETools DB Plugin V2.1.6

[CTDB TOCID: HUofadGZs7A7lW3Z3as4UR3vM.8-] found
Submit result: HUofadGZs7A7lW3Z3as4UR3vM.8- has been confirmed
Track | CTDB Status
1 | (3/3) Accurately ripped
2 | (3/3) Accurately ripped
3 | (3/3) Accurately ripped
4 | (3/3) Accurately ripped
5 | (3/3) Accurately ripped
6 | (3/3) Accurately ripped
7 | (3/3) Accurately ripped
8 | (3/3) Accurately ripped
9 | (3/3) Accurately ripped
10 | (3/3) Accurately ripped
11 | (3/3) Accurately ripped
12 | (3/3) Accurately ripped
13 | (3/3) Accurately ripped
14 | (3/3) Accurately ripped
15 | (3/3) Accurately ripped
16 | (3/3) Accurately ripped
17 | (3/3) Accurately ripped


==== Log checksum A10575F6BCCEC0EA6CECC12AEF34262FD5CA940542582D091699659F8FDB029E ====


Gilberto Gil - Um Banda Um (1982) {Warner Music Brasil 092746040-2 rel 2002}

Gilberto Gil - Um Banda Um (1982) {Warner Music Brasil 092746040-2 rel 2002}


see also:
Gilberto Gil - Salvador 1962-1963 (2002) {Warner Music Brasil 092747212-2 rec 1961-1963}
Gilberto Gil - Ao Vivo - Montreux International Jazz Festival (1978) {Warner Music Brasil 092746057-2 rel 2002}



===