Subcategories

Giovanni Guidi, Gianluca Petrella, Louis Sclavis, Gerald Cleaver - Ida Lupino (2016) {ECM 2462}

Posted By: ruskaval
Giovanni Guidi, Gianluca Petrella, Louis Sclavis, Gerald Cleaver - Ida Lupino (2016) {ECM 2462}

Giovanni Guidi, Gianluca Petrella, Louis Sclavis, Gerald Cleaver - Ida Lupino (2016) {ECM 2462}
EAC rip (secure mode) | FLAC (tracks)+CUE+LOG -> 377 Mb | MP3 @320 -> 181 Mb
Full Artwork @ 600 dpi (jpg) -> 141 Mb | 5% repair rar
© 2016 ECM Records | ECM 2462
Jazz / Modern Creative / Contemporary Jazz

Pianist Giovanni Guidi and trombonist Gianluca Petrella, key figures in what some are hailing as a “golden age” of Italian jazz, found their strong improvisational rapport inside Enrico Rava’s band (see for instance the 2010 ECM album Tribe) and, keen to play more, formed a duo, giving many concerts in which they are intermittently joined by guests. For this studio recording, producer Manfred Eicher brought the duo together with US drummer Gerald Cleaver and French clarinetist Louis Sclavis, for an outgoing set of music which includes lyrical free improvising and tunes composed by Giovanni and Gianluca.

The piece called “Gato!” tips the hat to Mr Barbieri, and title track “Ida Lupino” serves double duty as a salute to composer Carla Bley in her 80th year (Petrella once played in a big band under Carla’s direction) and as a tribute to Paul Bley, who popularized the tune and influenced so many improvisers (not least Giovanni Guidi).
Giovanni Guidi, Gianluca Petrella, Louis Sclavis, Gerald Cleaver - Ida Lupino (2016) {ECM 2462}


ECM INFO
AAJ INFO


Personnel:
Giovanni Guidi Piano
Gianluca Petrella Trombone
Louis Sclavis Clarinet, Bass Clarinet
Gerald Cleaver Drums

tracklist:
01 - What We Talk About When We Talk About Love
02 - Just Tell Me Who It Was
03 - Jeronimo
04 - Ida Lupino
05 - Per I Morti Di Reggio Emilia
06 - Gato!
07 - La Terra
08 - No More Calypso
09 - Rouge Lust
10 - Things We Never Planned
11 - Fidel Slow
12 - Hard Walk
13 - Zweig
14 - The Gam Scorpions

Exact Audio Copy V1.1 from 23. June 2015

EAC extraction logfile from 23. September 2016, 10:00

Giovanni Guidi, Gianluca Petrella, Louis Sclavis, Gerald Cleaver / Ida Lupino [ECM 2462]

Used drive : PLEXTOR DVDR PX-L890SA Adapter: 1 ID: 1

Read mode : Secure
Utilize accurate stream : Yes
Defeat audio cache : Yes
Make use of C2 pointers : No

Read offset correction : 6
Overread into Lead-In and Lead-Out : No
Fill up missing offset samples with silence : Yes
Delete leading and trailing silent blocks : No
Null samples used in CRC calculations : Yes
Used interface : Native Win32 interface for Win NT & 2000
Gap handling : Appended to previous track

Used output format : User Defined Encoder
Selected bitrate : 128 kBit/s
Quality : High
Add ID3 tag : No
Command line compressor : C:\Program Files (x86)\Exact Audio Copy\FLAC\FLAC.EXE
Additional command line options : -8 -V -T "ARTIST=%artist%" -T "TITLE=%title%" -T "ALBUM=%albumtitle%" -T "DATE=%year%" -T "TRACKNUMBER=%tracknr%" -T "TOTALTRACKS=%numtracks%" -T "GENRE=%genre%" -T "ALBUMARTIST=%albumartist%" -T "ALBUM ARTIST=%albumartist%" -T "COMMENT=EAC Secure Mode, Test & Copy, AccurateRip, FLAC -8" %source%


TOC of the extracted CD

Track | Start | Length | Start sector | End sector
––––––––––––––––––––––––––––-
1 | 0:00.00 | 6:42.23 | 0 | 30172
2 | 6:42.23 | 3:39.71 | 30173 | 46668
3 | 10:22.19 | 4:05.46 | 46669 | 65089
4 | 14:27.65 | 4:28.21 | 65090 | 85210
5 | 18:56.11 | 7:19.17 | 85211 | 118152
6 | 26:15.28 | 9:37.21 | 118153 | 161448
7 | 35:52.49 | 6:02.45 | 161449 | 188643
8 | 41:55.19 | 4:00.34 | 188644 | 206677
9 | 45:55.53 | 6:12.15 | 206678 | 234592
10 | 52:07.68 | 5:20.09 | 234593 | 258601
11 | 57:28.02 | 5:08.34 | 258602 | 281735
12 | 62:36.36 | 5:39.60 | 281736 | 307220
13 | 68:16.21 | 2:47.07 | 307221 | 319752
14 | 71:03.28 | 6:46.43 | 319753 | 350245


Track 1

Filename D:\Flac Rips\01 - What We Talk About When We Talk About Love.wav

Pre-gap length 0:00:02.00

Peak level 96.7 %
Extraction speed 4.1 X
Track quality 100.0 %
Test CRC 7BE6AFFC
Copy CRC 7BE6AFFC
Track not present in AccurateRip database
Copy OK

Track 2

Filename D:\Flac Rips\02 - Just Tell Me Who It Was.wav

Peak level 95.9 %
Extraction speed 4.3 X
Track quality 100.0 %
Test CRC 7A201FDE
Copy CRC 7A201FDE
Track not present in AccurateRip database
Copy OK

Track 3

Filename D:\Flac Rips\03 - Jeronimo.wav

Peak level 100.0 %
Extraction speed 4.7 X
Track quality 100.0 %
Test CRC 477F2F9F
Copy CRC 477F2F9F
Track not present in AccurateRip database
Copy OK

Track 4

Filename D:\Flac Rips\04 - Ida Lupino.wav

Peak level 81.1 %
Extraction speed 5.0 X
Track quality 100.0 %
Test CRC AD8352FB
Copy CRC AD8352FB
Track not present in AccurateRip database
Copy OK

Track 5

Filename D:\Flac Rips\05 - Per I Morti Di Reggio Emilia.wav

Peak level 96.3 %
Extraction speed 4.9 X
Track quality 99.9 %
Test CRC 0073C015
Copy CRC 0073C015
Track not present in AccurateRip database
Copy OK

Track 6

Filename D:\Flac Rips\06 - Gato!.wav

Peak level 86.2 %
Extraction speed 6.2 X
Track quality 100.0 %
Test CRC AFF9220B
Copy CRC AFF9220B
Track not present in AccurateRip database
Copy OK

Track 7

Filename D:\Flac Rips\07 - La Terra.wav

Peak level 90.2 %
Extraction speed 6.5 X
Track quality 100.0 %
Test CRC 3B8B6E70
Copy CRC 3B8B6E70
Track not present in AccurateRip database
Copy OK

Track 8

Filename D:\Flac Rips\08 - No More Calypso.wav

Peak level 86.5 %
Extraction speed 6.4 X
Track quality 100.0 %
Test CRC 0F7BB186
Copy CRC 0F7BB186
Track not present in AccurateRip database
Copy OK

Track 9

Filename D:\Flac Rips\09 - Rouge Lust.wav

Peak level 64.5 %
Extraction speed 6.0 X
Track quality 99.9 %
Test CRC D75EEB48
Copy CRC D75EEB48
Track not present in AccurateRip database
Copy OK

Track 10

Filename D:\Flac Rips\10 - Things We Never Planned.wav

Peak level 89.4 %
Extraction speed 7.1 X
Track quality 100.0 %
Test CRC 6B4DE022
Copy CRC 6B4DE022
Track not present in AccurateRip database
Copy OK

Track 11

Filename D:\Flac Rips\11 - Fidel Slow.wav

Peak level 96.5 %
Extraction speed 7.3 X
Track quality 100.0 %
Test CRC 93B6642D
Copy CRC 93B6642D
Track not present in AccurateRip database
Copy OK

Track 12

Filename D:\Flac Rips\12 - Hard Walk.wav

Peak level 90.3 %
Extraction speed 7.6 X
Track quality 100.0 %
Test CRC A60CE57C
Copy CRC A60CE57C
Track not present in AccurateRip database
Copy OK

Track 13

Filename D:\Flac Rips\13 - Zweig.wav

Peak level 57.4 %
Extraction speed 7.1 X
Track quality 100.0 %
Test CRC 6DB26757
Copy CRC 6DB26757
Track not present in AccurateRip database
Copy OK

Track 14

Filename D:\Flac Rips\14 - The Gam Scorpions.wav

Peak level 85.8 %
Extraction speed 8.0 X
Track quality 100.0 %
Test CRC 6AA60275
Copy CRC 6AA60275
Track not present in AccurateRip database
Copy OK


None of the tracks are present in the AccurateRip database

No errors occurred

End of status report

–– CUETools DB Plugin V2.1.6

[CTDB TOCID: poq94kL0BYaFmLvqq0VK._HKvLU-] disk not present in database
Submit result: poq94kL0BYaFmLvqq0VK._HKvLU- has been uploaded


==== Log checksum 208BB4DD10D5CF32DA1B4FF3CBF8393FF02982F781D3FB07ADC828C5AC6D897F ====


Giovanni Guidi, Gianluca Petrella, Louis Sclavis, Gerald Cleaver - Ida Lupino (2016) {ECM 2462}

Giovanni Guidi, Gianluca Petrella, Louis Sclavis, Gerald Cleaver - Ida Lupino (2016) {ECM 2462}


All thanks goes to the original releaser!