Subcategories

Godley & Creme - Japanese Cardboard Sleeve Albums Collection (7 albums: 1977-1988) [featuring Remastering 2010] RE-UP

Posted By: perfecta
Godley & Creme - Japanese Cardboard Sleeve Albums Collection (7 albums: 1977-1988) [featuring Remastering 2010] RE-UP

Godley & Creme - Japanese Cardboard Sleeve Albums Collection (7 SHM-CD: 1977-1988)
8x EAC-FLAC Images with CUEs & LOGs - 3,14 GB | Full PNG Scans | MP3 CBR 320 Kbps - 486 MB
Pop Rock / Progressive Rock | TT - 461:48 minutes | Japanese SHM-CD - Featuring Remastering 2010

Godley & Creme were an English pop music duo composed of Kevin Godley and Lol Creme. The pair began releasing albums as a duo after splitting from the pop band 10cc. The duo split at the end of the 1980s and have both been involved in music videos, TV commercials, and sporadic music projects since. These cardboard sleeve (mini LP) SHM-CD reissue from Godley & Creme features replica of the original UK LP artwork and featuring the Japanese remastering. The series contains the albums: "Consequences", "L", "Freeze Frame", "Ismism", "Birds Of Prey", "The History Mix Vol.1", and "Goodbye Blue Sky".

Godley & Creme @ Wikipedia

Godley & Creme - Japanese Cardboard Sleeve Albums Collection (7 albums: 1977-1988) [featuring Remastering 2010] RE-UP

allmusic.com biography:
British vocalists/multi-instrumentalists Kevin Godley and Lol Crème have one of the most eclectic resumés in rock & roll. Godley and Crème were session musicians when they joined 10cc in 1970. Originally called Hotlegs, 10cc were an art pop group that frequently appeared on the U.K. charts in the early '70s, eventually hitting number two in the U.S. with "I'm Not in Love." The two departed from 10cc a year later so they could experiment with the Gizmo, a gadget that enabled the guitar to create sounds with symphonic textures. The device, which they had invented, became the inspiration for Godley & Crème's 1977 debut triple-LP Consequences. A concept album about mankind battling a vengeful Mother Nature, Consequences was ripped to shreds and ridiculed by critics for its pretentiousness and excessive length. The bad press and poor sales generated by Consequences nearly destroyed the duo's career. However, in 1981, Godley & Crème landed on the British Top Ten with "Under My Thumb." But Godley & Crème achieved the most commercial success and critical acclaim in the '80s as video pioneers. The pair directed MTV clips for the Police, Duran Duran, and Frankie Goes to Hollywood that stretched the boundaries of music video and proved that the form was capable of producing art. In 1985, Godley & Crème had their only American smash with "Cry." Not surprisingly, it had an eye-popping video with groundbreaking special effects that showed people's faces morphing into one another. Godley & Crème were unable to climb the heights of "Cry" again and released Goodbye Blue Sky in 1988 before leaving music behind for video production. Crème joined the Art of Noise in the late '90s.

_____ Godley & Creme - Japanese cardboard sleeve albums collection contains: ____


Godley & Creme - Japanese Cardboard Sleeve Albums Collection (7 albums: 1977-1988) [featuring Remastering 2010] RE-UP

Godley & Creme - Consequences (2CD Box Set, 1977)
EAC-FLAC with CUE & LOG - 674 MB | Full Scans - 312 MB | MP3 CBR 320 Kbps - 256 MB
Running time - 113:49 minutes | Japanese SHM-CD - Featuring Remastering 2010


Tracks:
CD1 -
01. Seascape
02. Wind
03. Fireworks
04. Stampede
05. Buriel Scene
06. Sleeping Earth
07. Honolulu Lulu
08. The Flood
09. Five O'Clock In The Morning
10. Dialogue
11. When Things Go Wrong
12. Dialogue
13. Lost Weekend

CD2 -
01. Dialogue
02. Rosie
03. Dialogue
04. Office Chase
05. Dialogue
06. Cool, Cool, Cool
07. Dialogue
08. Cool, Cool, Cool (Reprise)
09. Dialogue
10. Sailor
11. Dialogue
12. Mobilization
13. Dialogue
14. Please, Please, Please
15. Dialogue
16. Blints Tune (Movements 1-17)

allmusic.com says:
This album, the solo debut of former 10cc members Kevin Godley and Lol Creme, is generally considered to be one of the most notorious examples of '70s music-business excess. Consequences began its life as a single designed to show off the "gizmo," a musical device created by Godley & Creme that allowed an electric guitar to create symphonic-sounding textures when attached to its neck. Somewhere along the line, this single blew up into a triple-disc concept album about nature taking its revenge on mankind through hurricanes, floods, and the like. The first disc is almost entirely instrumental, using the "gizmo" to create all sorts of different textures as a hurricane dubbed "Honolulu Lulu" trashes Hawaii and heads for the United States. This stuff is a feat of clever engineering (there is a particularly funny part where an obnoxious rock band at an outdoor festival is swept away by a flood), but the musical content is lacking in hooks or melodies and thus fails to involve the listener. Consequences moves into its story line on the second disc, dividing its time between songs from Godley & Creme and spoken word comedy sketches written and performed by legendary British comedian Peter Cook that push the plot forward. The story focuses on a married couple working out the details of their divorce with their respective lawyers as the storms and earthquakes kick in. Their only hope is the downstairs neighbor, an eccentric composer named Blint who is working on a concerto that may be able to stop nature's revenge. The songs are mainly cutesy fluff: although they have clever arrangements and lush vocal harmonies, they lack the kind of memorable melodies that would bring the album's many concepts to life. The one song that stands apart from the dross is "Five O'Clock in the Morning," a clever and subtle portrait of suburban malaise that became a minor European hit. The comedy bits have some clever moments of wordplay, but weigh the album down because they go on too long and distract from the music. When the climactic "Blint's Tune" finally arrives, it is merely a meandering and overlong piano-led instrumental. Simply put, Consequences is a disaster: its humor is labored, its musical content is dull, and the mind-numbing length of the album proved that neither Godley nor Creme knew when to quit. The duo later proved they were capable of better and more focused satirical pop on albums like Freeze Frame, but they are lucky this creative train wreck didn't end their career before it could start.

Exact Audio Copy V1.0 beta 2 from 29. April 2011

EAC extraction logfile from 6. September 2011, 21:43

Godley & Creme / Consequences CD1

Used drive : HL-DT-STDVDRAM GSA-H60N Adapter: 2 ID: 0

Read mode : Secure
Utilize accurate stream : Yes
Defeat audio cache : Yes
Make use of C2 pointers : No

Read offset correction : 667
Overread into Lead-In and Lead-Out : No
Fill up missing offset samples with silence : Yes
Delete leading and trailing silent blocks : No
Null samples used in CRC calculations : Yes
Used interface : Native Win32 interface for Win NT & 2000

Used output format : Internal WAV Routines
Sample format : 44.100 Hz; 16 Bit; Stereo


TOC of the extracted CD

Track | Start | Length | Start sector | End sector
––––––––––––––––––––––––––––-
1 | 0:00.00 | 2:52.13 | 0 | 12912
2 | 2:52.13 | 3:54.20 | 12913 | 30482
3 | 6:46.33 | 1:00.50 | 30483 | 35032
4 | 7:47.08 | 6:14.56 | 35033 | 63138
5 | 14:01.64 | 3:06.43 | 63139 | 77131
6 | 17:08.32 | 6:42.58 | 77132 | 107339
7 | 23:51.15 | 0:56.57 | 107340 | 111596
8 | 24:47.72 | 10:22.51 | 111597 | 158297
9 | 35:10.48 | 3:54.16 | 158298 | 175863
10 | 39:04.64 | 4:06.05 | 175864 | 194318
11 | 43:10.69 | 3:43.00 | 194319 | 211043
12 | 46:53.69 | 6:41.47 | 211044 | 241165
13 | 53:35.41 | 4:52.71 | 241166 | 263136


Range status and errors

Selected range

Filename C:\Documents and Settings\Admin\Рабочий стол\Lossless Rip by ALLexxess\Godley & Creme\1977 Consequences (2CD Box Set Universal Music Japan SHM-CD 2011)\CD1\Godley & Creme - Consequences CD1.wav

Peak level 99.9 %
Extraction speed 6.1 X
Range quality 100.0 %
Test CRC 3A77172D
Copy CRC 3A77172D
Copy OK

No errors occurred


AccurateRip summary

Track 1 accurately ripped (confidence 4) [CAB1650D] (AR v1)
Track 2 accurately ripped (confidence 4) [BD6FFAB1] (AR v1)
Track 3 accurately ripped (confidence 4) [A2065B97] (AR v1)
Track 4 accurately ripped (confidence 4) [CCCEF797] (AR v1)
Track 5 accurately ripped (confidence 4) [A96BE315] (AR v1)
Track 6 accurately ripped (confidence 4) [B89D0971] (AR v1)
Track 7 accurately ripped (confidence 4) [C20D15C6] (AR v1)
Track 8 accurately ripped (confidence 4) [4D506B4B] (AR v1)
Track 9 accurately ripped (confidence 4) [DBE60760] (AR v1)
Track 10 accurately ripped (confidence 4) [6CA6203B] (AR v1)
Track 11 accurately ripped (confidence 4) [7BE6866A] (AR v1)
Track 12 accurately ripped (confidence 4) [1C625B03] (AR v1)
Track 13 accurately ripped (confidence 4) [339518E7] (AR v1)

All tracks accurately ripped

End of status report

==== Log checksum 75947F053953E838D1F2CBC099D2E5803C23CA3E7558160A34A7574352583653 ====

+++++++++++++++++

Exact Audio Copy V1.0 beta 2 from 29. April 2011

EAC extraction logfile from 6. September 2011, 22:27

Godley & Creme / Consequences CD2

Used drive : HL-DT-STDVDRAM GSA-H60N Adapter: 2 ID: 0

Read mode : Secure
Utilize accurate stream : Yes
Defeat audio cache : Yes
Make use of C2 pointers : No

Read offset correction : 667
Overread into Lead-In and Lead-Out : No
Fill up missing offset samples with silence : Yes
Delete leading and trailing silent blocks : No
Null samples used in CRC calculations : Yes
Used interface : Native Win32 interface for Win NT & 2000

Used output format : Internal WAV Routines
Sample format : 44.100 Hz; 16 Bit; Stereo


TOC of the extracted CD

Track | Start | Length | Start sector | End sector
––––––––––––––––––––––––––––-
1 | 0:00.00 | 6:23.43 | 0 | 28767
2 | 6:23.43 | 3:06.63 | 28768 | 42780
3 | 9:30.31 | 1:06.17 | 42781 | 47747
4 | 10:36.48 | 2:34.61 | 47748 | 59358
5 | 13:11.34 | 4:16.49 | 59359 | 78607
6 | 17:28.08 | 2:53.22 | 78608 | 91604
7 | 20:21.30 | 0:08.65 | 91605 | 92269
8 | 20:30.20 | 0:30.24 | 92270 | 94543
9 | 21:00.44 | 0:47.14 | 94544 | 98082
10 | 21:47.58 | 2:11.27 | 98083 | 107934
11 | 23:59.10 | 5:12.47 | 107935 | 131381
12 | 29:11.57 | 1:46.13 | 131382 | 139344
13 | 30:57.70 | 2:12.74 | 139345 | 149318
14 | 33:10.69 | 1:57.68 | 149319 | 158161
15 | 35:08.62 | 5:51.13 | 158162 | 184499
16 | 41:00.00 | 14:20.33 | 184500 | 249032


Range status and errors

Selected range

Filename C:\Documents and Settings\Admin\Рабочий стол\Lossless Rip by ALLexxess\Godley & Creme\1977 Consequences (2CD Box Set Universal Music Japan SHM-CD 2011)\CD2\Godley & Creme - Consequences CD2.wav

Peak level 99.9 %
Extraction speed 6.1 X
Range quality 100.0 %
Test CRC 185AABE3
Copy CRC 185AABE3
Copy OK

No errors occurred


AccurateRip summary

Track 1 accurately ripped (confidence 4) [6C6161CA] (AR v1)
Track 2 accurately ripped (confidence 4) [CD52FA29] (AR v1)
Track 3 accurately ripped (confidence 4) [77C374A2] (AR v1)
Track 4 accurately ripped (confidence 4) [84E89058] (AR v1)
Track 5 accurately ripped (confidence 4) [C2D54E00] (AR v1)
Track 6 accurately ripped (confidence 4) [5C015766] (AR v1)
Track 7 accurately ripped (confidence 4) [04B9D4F4] (AR v1)
Track 8 accurately ripped (confidence 4) [1D24F024] (AR v1)
Track 9 accurately ripped (confidence 4) [AB3F7883] (AR v1)
Track 10 accurately ripped (confidence 4) [4C702C4E] (AR v1)
Track 11 accurately ripped (confidence 4) [A0A40F75] (AR v1)
Track 12 accurately ripped (confidence 4) [CA208DCA] (AR v1)
Track 13 accurately ripped (confidence 4) [520384E4] (AR v1)
Track 14 accurately ripped (confidence 4) [A45CDC95] (AR v1)
Track 15 accurately ripped (confidence 4) [AFFE08BF] (AR v1)
Track 16 accurately ripped (confidence 4) [EFE78C1B] (AR v1)

All tracks accurately ripped

End of status report

==== Log checksum 61A9412764A971B6BF3B7CE911BC1F66435A2F8D70ADE6670E35C7499703583C ====



_________________________________________________________________________________________


Godley & Creme - Japanese Cardboard Sleeve Albums Collection (7 albums: 1977-1988) [featuring Remastering 2010] RE-UP

Godley & Creme - L (1978)
EAC-FLAC with CUE & LOG - 231 MB | Full Scans - 88 MB | MP3 CBR 320 Kbps - 79 MB
Running time - 34:40 minutes | Japanese SHM-CD - Featuring Remastering 2010


Tracks:

01. This Sporting Life
02. Sandwiches Of You
03. Art School Canteen
04. Group Life
05. Punchbag
06. Foreign Accents
07. Hit Factory / Business Is Business

allmusic.com says:
Together, these two multi-instrumentalist studio freaks were the British Frank Zappa. Overwhelmed by their own cleverness, they often wasted brilliant production and gorgeous vocal harmonies on trite material. The title of this album and a song called "Sandwiches of You" offer a hint of the problem. It's impossible to feel any emotional attachment to the material because of a sense that everything these guys do is tongue in cheek. This is a thoroughly forgettable outing by two chaps capable of much more.

Exact Audio Copy V1.0 beta 2 from 29. April 2011

EAC extraction logfile from 7. September 2011, 21:09

Godley & Creme / L

Used drive : HL-DT-STDVDRAM GSA-H60N Adapter: 2 ID: 0

Read mode : Secure
Utilize accurate stream : Yes
Defeat audio cache : Yes
Make use of C2 pointers : No

Read offset correction : 667
Overread into Lead-In and Lead-Out : No
Fill up missing offset samples with silence : Yes
Delete leading and trailing silent blocks : No
Null samples used in CRC calculations : Yes
Used interface : Native Win32 interface for Win NT & 2000

Used output format : Internal WAV Routines
Sample format : 44.100 Hz; 16 Bit; Stereo


TOC of the extracted CD

Track | Start | Length | Start sector | End sector
––––––––––––––––––––––––––––-
1 | 0:00.00 | 7:29.26 | 0 | 33700
2 | 7:29.26 | 3:18.60 | 33701 | 48610
3 | 10:48.11 | 3:03.38 | 48611 | 62373
4 | 13:51.49 | 4:14.47 | 62374 | 81470
5 | 18:06.21 | 4:45.54 | 81471 | 102899
6 | 22:52.00 | 4:38.72 | 102900 | 123821
7 | 27:30.72 | 7:09.40 | 123822 | 156036


Range status and errors

Selected range

Filename C:\Documents and Settings\Admin\Рабочий стол\Lossless Rip by ALLexxess\Godley & Creme\1978 L (Universal Music Japan SHM-CD 2011)\Godley & Creme - L.wav

Peak level 99.9 %
Extraction speed 5.4 X
Range quality 100.0 %
Test CRC 3C097C6A
Copy CRC 3C097C6A
Copy OK

No errors occurred


AccurateRip summary

Track 1 not present in database
Track 2 not present in database
Track 3 not present in database
Track 4 not present in database
Track 5 not present in database
Track 6 not present in database
Track 7 not present in database

None of the tracks are present in the AccurateRip database

End of status report

==== Log checksum B672C529F287FFBB7B14B88509BAB277DCBF47601B31552F99E1676B794F9DF2 ====



_________________________________________________________________________________________


Godley & Creme - Japanese Cardboard Sleeve Albums Collection (7 albums: 1977-1988) [featuring Remastering 2010] RE-UP

Godley & Creme - Freeze Frame (1979)
EAC-FLAC with CUE & LOG - 390 MB | Full Scans - 75 MB | MP3 CBR 320 Kbps - 123 MB
Running time - 54:07 minutes | Japanese SHM-CD - Featuring Remastering 2010


Tracks:

01. An Englishman In New York
02. Random Brainwave
03. I Pity Inanimate Objects
04. Freeze Frame
05. Clues
06. Brazilia (Wish You Were Here)
07. Mugshots
08. Get Well Soon
09. Silent Running [Bonus track]
10. Wide Boy [Bonus track]
11. Submarine [Bonus track]
12. Marciano [Bonus track]

allmusic.com says:
It's impossible to mistake this for a 1981 J. Geils Band release of the same name. This album gets the nod over some other Godley and Creme ones because sometimes they actually stay with a tune to the end instead of sailing off on a Frank Zappa-like tangent. That might be because the part-time presence of Paul McCartney and Phil Manzanera keeps their hosts grounded. "An Englishman in New York" sounds remarkably like Queen in spots and is the strongest track on the album, although its smugness wears thin after awhile.

Exact Audio Copy V1.0 beta 2 from 29. April 2011

EAC extraction logfile from 7. September 2011, 19:39

Godley & Creme / Freeze Frame

Used drive : HL-DT-STDVDRAM GSA-H60N Adapter: 2 ID: 0

Read mode : Secure
Utilize accurate stream : Yes
Defeat audio cache : Yes
Make use of C2 pointers : No

Read offset correction : 667
Overread into Lead-In and Lead-Out : No
Fill up missing offset samples with silence : Yes
Delete leading and trailing silent blocks : No
Null samples used in CRC calculations : Yes
Used interface : Native Win32 interface for Win NT & 2000

Used output format : Internal WAV Routines
Sample format : 44.100 Hz; 16 Bit; Stereo


TOC of the extracted CD

Track | Start | Length | Start sector | End sector
––––––––––––––––––––––––––––-
1 | 0:00.00 | 5:55.06 | 0 | 26630
2 | 5:55.06 | 2:39.60 | 26631 | 38615
3 | 8:34.66 | 5:26.60 | 38616 | 63125
4 | 14:01.51 | 4:50.07 | 63126 | 84882
5 | 18:51.58 | 5:25.32 | 84883 | 109289
6 | 24:17.15 | 6:12.74 | 109290 | 137263
7 | 30:30.14 | 3:55.20 | 137264 | 154908
8 | 34:25.34 | 4:41.45 | 154909 | 176028
9 | 39:07.04 | 4:00.38 | 176029 | 194066
10 | 43:07.42 | 3:31.58 | 194067 | 209949
11 | 46:39.25 | 4:01.73 | 209950 | 228097
12 | 50:41.23 | 3:25.36 | 228098 | 243508


Range status and errors

Selected range

Filename C:\Documents and Settings\Admin\Рабочий стол\Lossless Rip by ALLexxess\Godley & Creme\1979 Freeze Frame (Universal Music Japan SHM-CD 2011)\Godley & Creme - Freeze Frame.wav

Peak level 100.0 %
Extraction speed 6.0 X
Range quality 100.0 %
Test CRC 3891294E
Copy CRC 3891294E
Copy OK

No errors occurred


AccurateRip summary

Track 1 not present in database
Track 2 not present in database
Track 3 not present in database
Track 4 not present in database
Track 5 not present in database
Track 6 not present in database
Track 7 not present in database
Track 8 not present in database
Track 9 not present in database
Track 10 not present in database
Track 11 not present in database
Track 12 not present in database

None of the tracks are present in the AccurateRip database

End of status report

==== Log checksum 659DAD9838FFE9B1AFDE6E25B7B58E2DA2C05B0CF9E7745F9436E0002AB96BFC ====



_________________________________________________________________________________________


Godley & Creme - Japanese Cardboard Sleeve Albums Collection (7 albums: 1977-1988) [featuring Remastering 2010] RE-UP

Godley & Creme - Ismism (1981)
EAC-FLAC with CUE & LOG - 436 MB | Full Scans - 125 MB | MP3 CBR 320 Kbps - 137 MB
Running time - 60:08 minutes | Japanese SHM-CD - Featuring Remastering 2010


Tracks:

01. Snack Attack
02. Under Your Thumb
03. Joey's Camel
04. The Problem
05. Ready For Ralph
06. Wedding Bells
07. Lonnie
08. Sale Of The Century
09. The Party
10. Power Behind The Throne [Bonus track]
11. Babies [Bonus track]
12. Snack Attack (Extended Version) [Bonus track]

allmusic.com says:
Prone to pretension, these two English Frank Zappas revel in outright silliness on much of this album, which was also released as Snack Attack. The mix puts their voices higher than usual, highlighting some truly bent tales of munchy madness, desert skullduggery, and JFK assassins. For contrast, there's the gorgeous "Wedding Bells," a rare AM hit for the former 10cc mates. Throughout all of this, you get the nagging feeling this pair was capable of so much more.

Exact Audio Copy V1.0 beta 2 from 29. April 2011

EAC extraction logfile from 7. September 2011, 22:28

Godley & Creme / Ismism

Used drive : HL-DT-STDVDRAM GSA-H60N Adapter: 2 ID: 0

Read mode : Secure
Utilize accurate stream : Yes
Defeat audio cache : Yes
Make use of C2 pointers : No

Read offset correction : 667
Overread into Lead-In and Lead-Out : No
Fill up missing offset samples with silence : Yes
Delete leading and trailing silent blocks : No
Null samples used in CRC calculations : Yes
Used interface : Native Win32 interface for Win NT & 2000

Used output format : Internal WAV Routines
Sample format : 44.100 Hz; 16 Bit; Stereo


TOC of the extracted CD

Track | Start | Length | Start sector | End sector
––––––––––––––––––––––––––––-
1 | 0:00.00 | 7:15.09 | 0 | 32633
2 | 7:15.09 | 4:46.74 | 32634 | 54157
3 | 12:02.08 | 5:28.73 | 54158 | 78830
4 | 17:31.06 | 4:06.16 | 78831 | 97296
5 | 21:37.22 | 2:24.15 | 97297 | 108111
6 | 24:01.37 | 3:25.51 | 108112 | 123537
7 | 27:27.13 | 4:50.57 | 123538 | 145344
8 | 32:17.70 | 4:27.42 | 145345 | 165411
9 | 36:45.37 | 8:10.50 | 165412 | 202211
10 | 44:56.12 | 3:40.53 | 202212 | 218764
11 | 48:36.65 | 4:43.33 | 218765 | 240022
12 | 53:20.23 | 6:47.56 | 240023 | 270603


Range status and errors

Selected range

Filename C:\Documents and Settings\Admin\Рабочий стол\Lossless Rip by ALLexxess\Godley & Creme\1981 Ismism (Universal Music Japan SHM-CD 2011)\Godley & Creme - Ismism.wav

Peak level 100.0 %
Extraction speed 6.2 X
Range quality 100.0 %
Test CRC 855BA0FC
Copy CRC 855BA0FC
Copy OK

No errors occurred


AccurateRip summary

Track 1 not present in database
Track 2 not present in database
Track 3 not present in database
Track 4 not present in database
Track 5 not present in database
Track 6 not present in database
Track 7 not present in database
Track 8 not present in database
Track 9 not present in database
Track 10 not present in database
Track 11 not present in database
Track 12 not present in database

None of the tracks are present in the AccurateRip database

End of status report

==== Log checksum 9D300E8151DB6EE27D6B6289A98CAA707483F5F01E52A1EC40ECECC6ED9559AC ====



_________________________________________________________________________________________


Godley & Creme - Japanese Cardboard Sleeve Albums Collection (7 albums: 1977-1988) [featuring Remastering 2010] RE-UP

Godley & Creme - Birds Of Prey (1983)
EAC-FLAC with CUE & LOG - 414 MB | Full Scans - 101 MB | MP3 CBR 320 Kbps - 135 MB
Running time - 59:31 minutes | Japanese SHM-CD - Featuring Remastering 2010


Tracks:

01. My Body The Car
02. Worm And The Rattle Snake
03. Cats Eyes
04. Samson
05. Save A Mountain For Me
06. Madame Guillotine
07. Woodwork
08. Twisted Nerve
09. Out In The Cold
10. Welcome To Breakfast Television [Bonus track]
11. Samson (Dance Mix) [Bonus track]
12. Golden Boy [Bonus track]
13. Samson (UK 7'' Promo Single Edit) [Bonus track]
14. Golden Boy (Long Version) [Bonus track]

allmusic.com says:
The least successful inclusion in the Godley & Creme catalog, Birds of Prey finds the duo stripping back the crazier idiosyncrasies that made its earlier albums so intriguing, and working more in the realm of melody and, dare one say it, easy listening. Lyrically they remain as offbeat as ever, and an evening with the Birds of Prey lyric sheet will send you scrabbling to hear the music. Bad move. "Save Me a Mountain," the album's almost-hit single, is a saccharin lament that might be directly descended from 10cc's "Brand New Day" and "Don't Hang Up," but lacks both the melodic and the emotional punch that made those earlier ballads work so well, while "Samson," "My Body the Car," and "Madame Guillotine" simply sound as though they were recorded the moment the ideas first stumbled into view, as opposed to waiting around to make sure the songs were even worth pursuing. So a major disappointment from a duo that was traditionally so reliable and, if you do buy the album today, it'll be for the bonus tracks – no, not the dance mix of "Samson," but for the sheer madness of "Welcome to Breakfast Television," a topical B-side at the time of its release, and a self-fulfilling prophecy that could not have been proved more accurate.

Exact Audio Copy V1.0 beta 2 from 29. April 2011

EAC extraction logfile from 7. September 2011, 20:23

Godley & Creme / Birds Of Prey

Used drive : HL-DT-STDVDRAM GSA-H60N Adapter: 2 ID: 0

Read mode : Secure
Utilize accurate stream : Yes
Defeat audio cache : Yes
Make use of C2 pointers : No

Read offset correction : 667
Overread into Lead-In and Lead-Out : No
Fill up missing offset samples with silence : Yes
Delete leading and trailing silent blocks : No
Null samples used in CRC calculations : Yes
Used interface : Native Win32 interface for Win NT & 2000

Used output format : Internal WAV Routines
Sample format : 44.100 Hz; 16 Bit; Stereo


TOC of the extracted CD

Track | Start | Length | Start sector | End sector
––––––––––––––––––––––––––––-
1 | 0:00.00 | 2:24.74 | 0 | 10873
2 | 2:24.74 | 3:23.49 | 10874 | 26147
3 | 5:48.48 | 3:44.41 | 26148 | 42988
4 | 9:33.14 | 5:29.57 | 42989 | 67720
5 | 15:02.71 | 3:39.74 | 67721 | 84219
6 | 18:42.70 | 5:04.50 | 84220 | 107069
7 | 23:47.45 | 4:39.37 | 107070 | 128031
8 | 28:27.07 | 4:03.33 | 128032 | 146289
9 | 32:30.40 | 4:55.57 | 146290 | 168471
10 | 37:26.22 | 2:32.47 | 168472 | 179918
11 | 39:58.69 | 5:53.70 | 179919 | 206463
12 | 45:52.64 | 3:52.15 | 206464 | 223878
13 | 49:45.04 | 3:57.40 | 223879 | 241693
14 | 53:42.44 | 5:48.18 | 241694 | 267811


Range status and errors

Selected range

Filename C:\Documents and Settings\Admin\Рабочий стол\Lossless Rip by ALLexxess\Godley & Creme\1983 Birds Of Prey (Universal Music Japan SHM-CD 2011)\Godley & Creme - Birds Of Prey.wav

Peak level 100.0 %
Extraction speed 6.2 X
Range quality 100.0 %
Test CRC AE92BEC6
Copy CRC AE92BEC6
Copy OK

No errors occurred


AccurateRip summary

Track 1 not present in database
Track 2 not present in database
Track 3 not present in database
Track 4 not present in database
Track 5 not present in database
Track 6 not present in database
Track 7 not present in database
Track 8 not present in database
Track 9 not present in database
Track 10 not present in database
Track 11 not present in database
Track 12 not present in database
Track 13 not present in database
Track 14 not present in database

None of the tracks are present in the AccurateRip database

End of status report

==== Log checksum 1CC720DFCF80A56CB4C14991D2007ADCE53244A4363967E4A99D5F515C40BC12 ====



_________________________________________________________________________________________


Godley & Creme - Japanese Cardboard Sleeve Albums Collection (7 albums: 1977-1988) [featuring Remastering 2010] RE-UP

Godley & Creme - The History Mix Vol.1 (1985)
EAC-FLAC with CUE & LOG - 572 MB | Full Scans - 90 MB | MP3 CBR 320 Kbps - 164 MB
Running time - 73:20 minutes | Japanese SHM-CD - Featuring Remastering 2010


Tracks:

01. Wet Rubber Soup
02. Expanding The Business / The 'Dare You' Man / Hum Drum Boys In Paris / Mountain Tension
03. Light Me Up
04. An Englishman In New York
05. Save A Mountain For Me
06. Golden Boy
07. Cry (Extended Remix)
08. Snack Attack (Extended Remix)

allmusic.com says:
A decade after Kevin Godley and Lol Creme walked out on 10cc and took half of that band's magic with them, the pair convened a reunion of sorts with The History Mix, Vol. 1, the ultimate ideal of all that the then-infant industry of remixing had to offer. The utterly gorgeous (and surprisingly successful) "Cry" notwithstanding, the basic premise of the album was to assemble a batch of the duo's past triumphs – 11 in all, with only four pre- or postdating the 10cc era – and then recycle them into five separate cuts that fall somewhere between Frank Zappa and a deranged interpretation of an early Residents album. All of which makes for a collection that is alternately infuriating (ten minutes of the hook line from "Business Is Business" spliced with the "humdrum" intro from "The Dean and I"), intriguing (the combination of key elements from "How Dare You" and "Neanderthal Man"), and plain compulsive (the gentle drift from "I'm Not in Love"'s whispered "big boys don't cry" into "Cry" itself is a masterpiece in its own right). With producer Trevor Horn at the helm, the overall sound of the album is very much a child of its age – however, the only moment that has truly dated is the insertion of a reference to Hill Street Blues into a fragmented "Rubber Bullets." Nevertheless, it's an album that is best recommended only to fans who actually know the original songs, and who'll appreciate the fresh landscapes into which they've been spliced – one reason, presumably, for the CD reissue of the album adding in a handful of other, more conventional Godley & Creme concoctions. They, at least, give the impression of a commercially valid experience. In its natural state, it's simply the sound of invigorating sonic madness.

Exact Audio Copy V1.0 beta 2 from 29. April 2011

EAC extraction logfile from 7. September 2011, 23:33

Godley & Creme / The History Mix Vol. 1

Used drive : HL-DT-STDVDRAM GSA-H60N Adapter: 2 ID: 0

Read mode : Secure
Utilize accurate stream : Yes
Defeat audio cache : Yes
Make use of C2 pointers : No

Read offset correction : 667
Overread into Lead-In and Lead-Out : No
Fill up missing offset samples with silence : Yes
Delete leading and trailing silent blocks : No
Null samples used in CRC calculations : Yes
Used interface : Native Win32 interface for Win NT & 2000

Used output format : Internal WAV Routines
Sample format : 44.100 Hz; 16 Bit; Stereo


TOC of the extracted CD

Track | Start | Length | Start sector | End sector
––––––––––––––––––––––––––––-
1 | 0:00.00 | 18:59.01 | 0 | 85425
2 | 18:59.01 | 17:06.31 | 85426 | 162406
3 | 36:05.32 | 4:33.25 | 162407 | 182906
4 | 40:38.57 | 5:55.05 | 182907 | 209536
5 | 46:33.62 | 3:37.33 | 209537 | 225844
6 | 50:11.20 | 5:50.39 | 225845 | 252133
7 | 56:01.59 | 7:27.47 | 252134 | 285705
8 | 63:29.31 | 9:50.27 | 285706 | 329982


Range status and errors

Selected range

Filename C:\Documents and Settings\Admin\Рабочий стол\Lossless Rip by ALLexxess\Godley & Creme\1985 The History Mix Vol.1 (Universal Music Japan SHM-CD 2011)\Godley & Creme - The History Mix Vol. 1.wav

Peak level 99.9 %
Extraction speed 6.3 X
Range quality 100.0 %
Test CRC 920DE69F
Copy CRC 920DE69F
Copy OK

No errors occurred


AccurateRip summary

Track 1 not present in database
Track 2 not present in database
Track 3 not present in database
Track 4 not present in database
Track 5 not present in database
Track 6 not present in database
Track 7 not present in database
Track 8 not present in database

None of the tracks are present in the AccurateRip database

End of status report

==== Log checksum FF29CBBA3503CFB1335E2C0DE338C18374E03EF45EEB3321569CAA801D8DAA74 ====



_________________________________________________________________________________________


Godley & Creme - Japanese Cardboard Sleeve Albums Collection (7 albums: 1977-1988) [featuring Remastering 2010] RE-UP

Godley & Creme - Goodbye Blue Sky (1988)
EAC-FLAC with CUE & LOG - 497 MB | Full Scans - 105 MB | MP3 CBR 320 Kbps - 156 MB
Running time - 66:13 minutes | Japanese SHM-CD - Featuring Remastering 2010


Tracks:

01. H.E.A.V.E.N. / A Little Piece Of Heaven
02. Don't Set Fire (To The One I Love)
03. Golden Rings
04. Crime & Punishment
05. The Big Bang
06. 10.000 Angels
07. Sweet Memory
08. Airforce One
09. The Last Page Of History
10. Desperate Times
11. A Little Piece Of Heaven (Extended Mix) [Bonus track]
12. Bits Of Blue Sky [Bonus track]
13. Hidden Heartbeat [Bonus track]
14. Rhino Rhino [Bonus track]
15. Can't Sleep [Bonus track]

allmusic.com says:
In their final major-label release before heading for a video-making career, these two veteran English music-makers tackle environmental degradation and nuclear annihilation. After earlier releases full of detached sarcasm and sardonic wit, it's refreshing to hear the pair actually care about something, although they sometimes hector. Musically, the songs are linked by the use of harmonicas on every track. This is one of their stronger albums because of thematic consistency and typically terrific production, including the usual gorgeous, multi-tracked harmonies. In spite of the gloomy subject matter, the album-closing "Desperate Times" ends on an optimistic note.

Exact Audio Copy V1.0 beta 2 from 29. April 2011

EAC extraction logfile from 8. September 2011, 19:38

Godley & Creme / Goodbye Blue Sky

Used drive : HL-DT-STDVDRAM GSA-H60N Adapter: 2 ID: 0

Read mode : Secure
Utilize accurate stream : Yes
Defeat audio cache : Yes
Make use of C2 pointers : No

Read offset correction : 667
Overread into Lead-In and Lead-Out : No
Fill up missing offset samples with silence : Yes
Delete leading and trailing silent blocks : No
Null samples used in CRC calculations : Yes
Used interface : Native Win32 interface for Win NT & 2000

Used output format : Internal WAV Routines
Sample format : 44.100 Hz; 16 Bit; Stereo


TOC of the extracted CD

Track | Start | Length | Start sector | End sector
––––––––––––––––––––––––––––-
1 | 0:00.00 | 5:06.08 | 0 | 22957
2 | 5:06.08 | 3:27.37 | 22958 | 38519
3 | 8:33.45 | 4:17.07 | 38520 | 57801
4 | 12:50.52 | 7:22.26 | 57802 | 90977
5 | 20:13.03 | 2:31.32 | 90978 | 102334
6 | 22:44.35 | 5:16.45 | 102335 | 126079
7 | 28:01.05 | 4:50.50 | 126080 | 147879
8 | 32:51.55 | 3:40.49 | 147880 | 164428
9 | 36:32.29 | 4:01.62 | 164429 | 182565
10 | 40:34.16 | 3:40.46 | 182566 | 199111
11 | 44:14.62 | 6:08.46 | 199112 | 226757
12 | 50:23.33 | 5:46.22 | 226758 | 252729
13 | 56:09.55 | 4:33.60 | 252730 | 273264
14 | 60:43.40 | 3:21.20 | 273265 | 288359
15 | 64:04.60 | 2:08.18 | 288360 | 297977


Range status and errors

Selected range

Filename C:\Documents and Settings\Admin\Рабочий стол\Lossless Rip by ALLexxess\Godley & Creme\1988 Goodbye Blue Sky (Universal Music Japan SHM-CD 2011)\Godley & Creme - Goodbye Blue Sky.wav

Peak level 99.9 %
Extraction speed 6.0 X
Range quality 99.9 %
Test CRC 08383485
Copy CRC 08383485
Copy OK

No errors occurred


AccurateRip summary

Track 1 accurately ripped (confidence 1) [E1E9C6E4] (AR v1)
Track 2 accurately ripped (confidence 1) [8D03E214] (AR v1)
Track 3 accurately ripped (confidence 1) [EAAF8582] (AR v1)
Track 4 accurately ripped (confidence 1) [9A811FA9] (AR v1)
Track 5 accurately ripped (confidence 1) [F52C1B30] (AR v1)
Track 6 accurately ripped (confidence 1) [F1EC3A0F] (AR v1)
Track 7 accurately ripped (confidence 1) [D8BCE363] (AR v1)
Track 8 accurately ripped (confidence 1) [76485EAE] (AR v1)
Track 9 accurately ripped (confidence 1) [ADDB8736] (AR v1)
Track 10 accurately ripped (confidence 1) [CCD902A0] (AR v1)
Track 11 accurately ripped (confidence 1) [723A7B0C] (AR v1)
Track 12 accurately ripped (confidence 1) [FA077FC2] (AR v1)
Track 13 accurately ripped (confidence 1) [D6ADBCD8] (AR v1)
Track 14 accurately ripped (confidence 1) [4E6DD0C2] (AR v1)
Track 15 accurately ripped (confidence 1) [9F41692E] (AR v1)

All tracks accurately ripped

End of status report

==== Log checksum D625A6F82FF3433C7E63A607EE495CD597705B2F6608F2FC295C50335E1076BE ====


All albums (excepting "Consequences") have been digitally remastered in 2010.
Mastering Engineer: Hitoshi Takiguchi at Universal Mastering Studios.
Dynamic range(s): 10+10 / 8 / 7 / 6 / 7 / 6 / 7.
all thanks goes to ALLexxess!
Bigfile folder

Where's digits is the album's release date; "L" is FLAC, "M" is MP3, & "Sc" is complete artwork.