Subcategories

Gram Parsons - GP/Grievous Angel (1973)

Posted By: mr. magoo
Gram Parsons - GP/Grievous Angel (1973)

Gram Parsons - GP/Grievous Angel (1973)
EAC AccurateRip | FLAC + Log + Cue | Scans | 455 MB | HF + RS | 5% recovery
Label: Reprise 9 26108-2 | 1990 Reprise Reissue | Genre: Rock

In the year before his death in the fall of 1973, Gram Parsons recorded two superb solo albums, and Warner Brothers has conveniently reissued them in their entirety on a single compact disc. Since many of the same musicians played on both G.P. (released in January of 1973) and Grievous Angel (which appeared in stores almost exactly a year later), the two albums flow together quite well as a single set. And while no bonus tracks were added, the booklet features well-written essays on Parsons from John M. Delgatto and Marley Brant, the complete liner notes from both albums, and lyrics for all the songs on the disc (which weren't included in the original vinyl issues). While the material and performances on G.P. are a shade stronger than on Grievous Angel, both albums have more than their share of pearly moments, and this disc is a treat from start to finish; James Burton's guitar leads are chicken-pickin' at its smartest and most tasteful, Al Perkins' pedal steel is the definitive sound of country & western heartache, fiddler Byron Berline effortlessly reveals how he became one of Nashville's leading session musicians, and Parsons' duets with the young Emmylou Harris are nothing less than sublime. And would anyone who loves either country or rock really want to be without a CD that includes songs like "A Song for You," "The New Soft Shoe," "Big Mouth Blues," "$1,000 Wedding," or "In My Hour of Darkness"? While the definitive Gram Parsons collection has yet to be compiled, G.P./Grievous Angel gives you everything you really need from his solo career, and these 20 performances are among the most influential and satisfying music the genre of country-rock would ever produce.

Tracks:
GP

01 - Still Feeling Blue
02 - We'll Sweep Out The Ashes In The Morning
03 - A Song For You
04 - Streets Of Baltimore
05 - She
06 - That's All It Took
07 - The New Soft Shoe
08 - Kiss The Children
09 - Cry One More Time
10 - How Much I've Lied
11 - Big Mouth Blues
Grievous Angel
12 - Return Of The Grievous Angel
13 - Hearts On Fire
14 - I Can't Dance
15 - Brass Buttons
16 - $1000 Wedding
17 - Medley Live From Northern Quebec (A) Cash On The Barrelhead (B) Hickory Wind
18 - Love Hurts
19 - Ooh Las Vegas
20 - In My Hour Of Darkness

Exact Audio Copy V0.99 prebeta 4 from 23. January 2008

EAC extraction logfile from 2. January 2010, 14:35

Gram Parsons / GP / Grievous Angel

Used drive : SONY DVD RW DRU-840A Adapter: 1 ID: 1

Read mode : Secure
Utilize accurate stream : Yes
Defeat audio cache : Yes
Make use of C2 pointers : No

Read offset correction : 6
Overread into Lead-In and Lead-Out : No
Fill up missing offset samples with silence : Yes
Delete leading and trailing silent blocks : No
Null samples used in CRC calculations : Yes
Used interface : Native Win32 interface for Win NT & 2000
Gap handling : Appended to previous track

Used output format : User Defined Encoder
Selected bitrate : 1024 kBit/s
Quality : High
Add ID3 tag : No
Command line compressor : C:\Program Files\Exact Audio Copy\Flac\flac.exe
Additional command line options : -8 -V -T "artist=%a" -T "title=%t" -T "album=%g" -T "date=%y" -T "tracknumber=%n" -T "genre=%m" %s


TOC of the extracted CD

Track | Start | Length | Start sector | End sector
––––––––––––––––––––––––––––-
1 | 0:00.32 | 2:40.45 | 32 | 12076
2 | 2:41.02 | 3:13.33 | 12077 | 26584
3 | 5:54.35 | 4:58.17 | 26585 | 48951
4 | 10:52.52 | 2:53.25 | 48952 | 61951
5 | 13:46.02 | 4:59.05 | 61952 | 84381
6 | 18:45.07 | 2:59.30 | 84382 | 97836
7 | 21:44.37 | 3:54.30 | 97837 | 115416
8 | 25:38.67 | 2:57.60 | 115417 | 128751
9 | 28:36.52 | 3:38.13 | 128752 | 145114
10 | 32:14.65 | 2:29.42 | 145115 | 156331
11 | 34:44.32 | 3:52.68 | 156332 | 173799
12 | 38:37.25 | 4:23.72 | 173800 | 193596
13 | 43:01.22 | 3:49.70 | 193597 | 210841
14 | 46:51.17 | 2:23.15 | 210842 | 221581
15 | 49:14.32 | 3:30.38 | 221582 | 237369
16 | 52:44.70 | 5:02.25 | 237370 | 260044
17 | 57:47.20 | 6:26.27 | 260045 | 289021
18 | 64:13.47 | 3:41.25 | 289022 | 305621
19 | 67:54.72 | 3:30.35 | 305622 | 321406
20 | 71:25.32 | 3:43.43 | 321407 | 338174


Track 1

Filename F:\EAC Rips\Gram Parsons - 1973 - GP_Grievous Angel\01 - Still Feeling Blue.wav

Pre-gap length 0:00:02.42

Peak level 92.9 %
Track quality 100.0 %
Test CRC 64B41EEC
Copy CRC 64B41EEC
Accurately ripped (confidence 27) [24254847]
Copy OK

Track 2

Filename F:\EAC Rips\Gram Parsons - 1973 - GP_Grievous Angel\02 - We'll Sweep Out The Ashes In The Morning.wav

Pre-gap length 0:00:01.73

Peak level 83.7 %
Track quality 100.0 %
Test CRC A123788C
Copy CRC A123788C
Accurately ripped (confidence 27) [147DDF89]
Copy OK

Track 3

Filename F:\EAC Rips\Gram Parsons - 1973 - GP_Grievous Angel\03 - A Song For You.wav

Pre-gap length 0:00:02.00

Peak level 66.9 %
Track quality 100.0 %
Test CRC DEA13DFA
Copy CRC DEA13DFA
Accurately ripped (confidence 27) [2498C1A4]
Copy OK

Track 4

Filename F:\EAC Rips\Gram Parsons - 1973 - GP_Grievous Angel\04 - Streets Of Baltimore.wav

Pre-gap length 0:00:02.00

Peak level 73.1 %
Track quality 99.9 %
Test CRC D2DF2DD6
Copy CRC D2DF2DD6
Accurately ripped (confidence 27) [C43A760C]
Copy OK

Track 5

Filename F:\EAC Rips\Gram Parsons - 1973 - GP_Grievous Angel\05 - She.wav

Pre-gap length 0:00:02.16

Peak level 81.8 %
Track quality 100.0 %
Test CRC 83BC2394
Copy CRC 83BC2394
Accurately ripped (confidence 27) [6488A62B]
Copy OK

Track 6

Filename F:\EAC Rips\Gram Parsons - 1973 - GP_Grievous Angel\06 - That's All It Took.wav

Pre-gap length 0:00:02.36

Peak level 82.9 %
Track quality 100.0 %
Test CRC FBC24307
Copy CRC FBC24307
Accurately ripped (confidence 27) [15858DD9]
Copy OK

Track 7

Filename F:\EAC Rips\Gram Parsons - 1973 - GP_Grievous Angel\07 - The New Soft Shoe.wav

Pre-gap length 0:00:02.22

Peak level 82.3 %
Track quality 100.0 %
Test CRC FA3D8562
Copy CRC FA3D8562
Accurately ripped (confidence 27) [6B9DAF99]
Copy OK

Track 8

Filename F:\EAC Rips\Gram Parsons - 1973 - GP_Grievous Angel\08 - Kiss The Children.wav

Pre-gap length 0:00:02.33

Peak level 84.6 %
Track quality 100.0 %
Test CRC 889ACDAB
Copy CRC 889ACDAB
Accurately ripped (confidence 27) [0D3E10A1]
Copy OK

Track 9

Filename F:\EAC Rips\Gram Parsons - 1973 - GP_Grievous Angel\09 - Cry One More Time.wav

Pre-gap length 0:00:01.88

Peak level 91.9 %
Track quality 99.9 %
Test CRC 0B30D01A
Copy CRC 0B30D01A
Accurately ripped (confidence 27) [14342153]
Copy OK

Track 10

Filename F:\EAC Rips\Gram Parsons - 1973 - GP_Grievous Angel\10 - How Much I've Lied.wav

Pre-gap length 0:00:01.76

Peak level 81.3 %
Track quality 100.0 %
Test CRC 82A06268
Copy CRC 82A06268
Accurately ripped (confidence 27) [F5E301B6]
Copy OK

Track 11

Filename F:\EAC Rips\Gram Parsons - 1973 - GP_Grievous Angel\11 - Big Mouth Blues.wav

Pre-gap length 0:00:01.82

Peak level 92.0 %
Track quality 100.0 %
Test CRC A08827B1
Copy CRC A08827B1
Accurately ripped (confidence 25) [EF64D471]
Copy OK

Track 12

Filename F:\EAC Rips\Gram Parsons - 1973 - GP_Grievous Angel\12 - Return Of The Grievous Angel.wav

Pre-gap length 0:00:01.64

Peak level 81.6 %
Track quality 100.0 %
Test CRC E9A36577
Copy CRC E9A36577
Accurately ripped (confidence 26) [602D1E7C]
Copy OK

Track 13

Filename F:\EAC Rips\Gram Parsons - 1973 - GP_Grievous Angel\13 - Hearts On Fire.wav

Pre-gap length 0:00:02.22

Peak level 88.2 %
Track quality 100.0 %
Test CRC C72E4EAB
Copy CRC C72E4EAB
Accurately ripped (confidence 25) [2EB11598]
Copy OK

Track 14

Filename F:\EAC Rips\Gram Parsons - 1973 - GP_Grievous Angel\14 - I Can't Dance.wav

Pre-gap length 0:00:02.46

Peak level 89.1 %
Track quality 100.0 %
Test CRC F6B625B9
Copy CRC F6B625B9
Accurately ripped (confidence 25) [3E81933C]
Copy OK

Track 15

Filename F:\EAC Rips\Gram Parsons - 1973 - GP_Grievous Angel\15 - Brass Buttons.wav

Pre-gap length 0:00:02.06

Peak level 72.8 %
Track quality 99.9 %
Test CRC 1534E98E
Copy CRC 1534E98E
Accurately ripped (confidence 25) [79E24823]
Copy OK

Track 16

Filename F:\EAC Rips\Gram Parsons - 1973 - GP_Grievous Angel\16 - $1000 Wedding.wav

Pre-gap length 0:00:03.66

Peak level 80.1 %
Track quality 100.0 %
Test CRC 91360993
Copy CRC 91360993
Accurately ripped (confidence 25) [042C538C]
Copy OK

Track 17

Filename F:\EAC Rips\Gram Parsons - 1973 - GP_Grievous Angel\17 - Medley Live from Northern Quebec- (A) Cash On The Barrelhead , Hickory Wind.wav

Pre-gap length 0:00:02.13

Peak level 89.1 %
Track quality 100.0 %
Test CRC 8EE815FD
Copy CRC 8EE815FD
Accurately ripped (confidence 23) [45D08707]
Copy OK

Track 18

Filename F:\EAC Rips\Gram Parsons - 1973 - GP_Grievous Angel\18 - Love Hurts.wav

Pre-gap length 0:00:01.89

Peak level 85.4 %
Track quality 100.0 %
Test CRC 6905CCD8
Copy CRC 6905CCD8
Accurately ripped (confidence 26) [AE68B67A]
Copy OK

Track 19

Filename F:\EAC Rips\Gram Parsons - 1973 - GP_Grievous Angel\19 - Ooh Las Vegas.wav

Pre-gap length 0:00:02.60

Peak level 90.2 %
Track quality 100.0 %
Test CRC ED2A9A9B
Copy CRC ED2A9A9B
Accurately ripped (confidence 25) [707BE3CC]
Copy OK

Track 20

Filename F:\EAC Rips\Gram Parsons - 1973 - GP_Grievous Angel\20 - In My Hour Of Darkness.wav

Pre-gap length 0:00:02.06

Peak level 78.8 %
Track quality 100.0 %
Test CRC 578A734A
Copy CRC 578A734A
Accurately ripped (confidence 22) [5CFAB003]
Copy OK


All tracks accurately ripped

No errors occurred

End of status report


Hotfile Links




Rapid Share Links



Links Are Interchangeable


mr. magoo