Subcategories

Grant Green - Live At The Lighthouse (1972) {Blue Note CDP 7243 4 93381 2 8 rel 1998}

Posted By: ruskaval
Grant Green - Live At The Lighthouse (1972) {Blue Note CDP 7243 4 93381 2 8 rel 1998}

Grant Green - Live At The Lighthouse (1972) {Blue Note CDP 7243 4 93381 2 8 rel 1998}
EAC rip (secure mode) | FLAC (tracks)+CUE+LOG -> 496 Mb | MP3 @320 -> 166 Mb
Full Artwork @ 300 dpi (jpg) -> 16 Mb | 5% repair rar
© 1972, 1998 Blue Note / Capitol | CDP 7243 4 93381 2 8
Jazz / Soul Jazz / Jazz Funk / Guitar

Some of Grant Green's hottest moments as a jazz-funk bandleader came on his live records of the era, which were filled with extended, smoking grooves and gritty ensemble interplay. Live at the Lighthouse makes a fine companion piece to the excellent Alive!, though there are some subtle differences which give the album its own distinct flavor. For starters, the average track length is even greater, with four of the six jams clocking in at over 12 minutes. That makes it easy to get lost in the grooves as the musicians ride and work them over.

What's more, the rhythmic foundation of the group is noticeably altered. Live at the Lighthouse is one of the few Green albums of the period not to feature loose-limbed funky drummer Idris Muhammad, and his spare, booming sound and direct James Brown inspiration give way to the busy, bubbling, frequently up-tempo polyrhythms of drummer Greg Williams and extra percussionist Bobbye Porter Hall. They push the rest of the group to cook up a storm on tracks like "Windjammer" (which is taken at a madly up-tempo pace compared to the version on Green Is Beautiful), Donald Byrd's modal piece "Fancy Free" (which features some of Green's best soloing of the date), and organist Shelton Laster's soulful original "Flood in Franklin Park." Laster winds up as probably the most impassioned soloist, breaking out of the pocket for some spiralling, hard-swinging flights. For his part, Green works the grooves with the ease of a soul-jazz veteran used to the concept. The results make Live at the Lighthouse one of his best, most organic jazz-funk outings. [The CD reissue excises four spoken DJ intros from the original double LP in order to fit all the music on one disc.]

Personnel:
Grant Green - guitar
Claude Bartee - soprano saxophone, tenor saxophone
Gary Coleman - vibes
Shelton Laster - organ
Wilton Felder - electric bass
Greg Williams - drums
Bobbye Porter Hall - percussion
Hank Stewart - announcer

tracklist:
01 - Introduction By Hank Stewart
02 - Windjammer
03 - Betcha By Golly Wow
04 - Fancy Free
05 - Flood In Franklin Park
06 - Jan Jan
07 - Walk In The Night

Exact Audio Copy V1.0 beta 3 from 29. August 2011

EAC extraction logfile from 14. August 2014, 8:43

Grant Green / Live At The Lighthouse

Used drive : SONY DVD RW DRU-810A Adapter: 1 ID: 0

Read mode : Secure
Utilize accurate stream : Yes
Defeat audio cache : Yes
Make use of C2 pointers : No

Read offset correction : 618
Overread into Lead-In and Lead-Out : No
Fill up missing offset samples with silence : Yes
Delete leading and trailing silent blocks : No
Null samples used in CRC calculations : Yes
Used interface : Native Win32 interface for Win NT & 2000
Gap handling : Appended to previous track

Used output format : User Defined Encoder
Selected bitrate : 128 kBit/s
Quality : High
Add ID3 tag : No
Command line compressor : C:\Program Files (x86)\Exact Audio Copy\Flac\flac.exe
Additional command line options : -8 -V -T "ARTIST=%artist%" -T "TITLE=%title%" -T "ALBUM=%albumtitle%" -T "DATE=%year%" -T "TRACKNUMBER=%tracknr%" -T "TOTALTRACKS=%numtracks%" -T "GENRE=%genre%" -T "ALBUMARTIST=%albumartist%" -T "ALBUM ARTIST=%albumartist%" -T "COMMENT=EAC Secure Mode, Test & Copy, AccurateRip, FLAC -8" %source%


TOC of the extracted CD

Track | Start | Length | Start sector | End sector
––––––––––––––––––––––––––––-
1 | 0:00.00 | 2:30.45 | 0 | 11294
2 | 2:30.45 | 12:15.45 | 11295 | 66464
3 | 14:46.15 | 7:41.05 | 66465 | 101044
4 | 22:27.20 | 14:44.52 | 101045 | 167396
5 | 37:11.72 | 15:00.55 | 167397 | 234951
6 | 52:12.52 | 12:18.15 | 234952 | 290316
7 | 64:30.67 | 6:37.18 | 290317 | 320109


Track 1

Filename F:\New Rips\Grant Green - Live At The Lighthouse (1972) [FLAC]\01 - Introduction By Hank Stewart.wav

Pre-gap length 0:00:02.00

Peak level 97.4 %
Extraction speed 4.3 X
Track quality 100.0 %
Test CRC 5D7F5E9C
Copy CRC 5D7F5E9C
Accurately ripped (confidence 5) [54C1F6BD] (AR v2)
Copy OK

Track 2

Filename F:\New Rips\Grant Green - Live At The Lighthouse (1972) [FLAC]\02 - Windjammer.wav

Peak level 99.1 %
Extraction speed 5.9 X
Track quality 100.0 %
Test CRC 49B07DBE
Copy CRC 49B07DBE
Accurately ripped (confidence 5) [984A57D6] (AR v2)
Copy OK

Track 3

Filename F:\New Rips\Grant Green - Live At The Lighthouse (1972) [FLAC]\03 - Betcha By Golly Wow.wav

Peak level 98.9 %
Extraction speed 6.7 X
Track quality 100.0 %
Test CRC 5D11E732
Copy CRC 5D11E732
Accurately ripped (confidence 5) [AAD9C9D9] (AR v2)
Copy OK

Track 4

Filename F:\New Rips\Grant Green - Live At The Lighthouse (1972) [FLAC]\04 - Fancy Free.wav

Peak level 97.7 %
Extraction speed 7.9 X
Track quality 100.0 %
Test CRC 0984DAF7
Copy CRC 0984DAF7
Accurately ripped (confidence 5) [F74414CD] (AR v2)
Copy OK

Track 5

Filename F:\New Rips\Grant Green - Live At The Lighthouse (1972) [FLAC]\05 - Flood In Franklin Park.wav

Peak level 98.0 %
Extraction speed 8.5 X
Track quality 99.9 %
Test CRC 59F4AE96
Copy CRC 59F4AE96
Accurately ripped (confidence 5) [6F59FE1C] (AR v2)
Copy OK

Track 6

Filename F:\New Rips\Grant Green - Live At The Lighthouse (1972) [FLAC]\06 - Jan Jan.wav

Peak level 98.8 %
Extraction speed 9.7 X
Track quality 100.0 %
Test CRC 07603109
Copy CRC 07603109
Accurately ripped (confidence 5) [1CC2CC6C] (AR v2)
Copy OK

Track 7

Filename F:\New Rips\Grant Green - Live At The Lighthouse (1972) [FLAC]\07 - Walk In The Night.wav

Peak level 97.2 %
Extraction speed 9.8 X
Track quality 100.0 %
Test CRC 76944EDD
Copy CRC 76944EDD
Accurately ripped (confidence 5) [E25AB3AA] (AR v2)
Copy OK


All tracks accurately ripped

No errors occurred

End of status report

–– CUETools DB Plugin V2.1.3

[CTDB TOCID: E6w9nKlJYAvREYffYqxvlOvgmiQ-] found, Submit result: E6w9nKlJYAvREYffYqxvlOvgmiQ- has been confirmed
[aebe29f9] (34/36) Accurately ripped
[427a92bc] (01/36) No match
[1a87622e] (01/36) No match


==== Log checksum 6B315D912CC5EC8F8472EB0ABC68398E162A221C229F8B0E4BB57E61EC50A891 ====


Grant Green - Live At The Lighthouse (1972) {Blue Note CDP 7243 4 93381 2 8 rel 1998}

Grant Green - Live At The Lighthouse (1972) {Blue Note CDP 7243 4 93381 2 8 rel 1998}


All thanks goes to the original releaser!

===