Subcategories

Grateful Dead - Dave’s Picks Vol. 24 (2017)

Posted By: delpotro
Grateful Dead - Dave’s Picks Vol. 24 (2017)

Grateful Dead - Dave’s Picks Vol. 24 (2017)
EAC Rip | FLAC (tracks+log+.cue) - 925 Mb | Scans - 32 Mb | 02:44:56
Rock, Classic Rock, Psychedelic Rock | Label: Rhino Entertainment

Dave's Picks Volume 24 is a three-CD live album by the rock band the Grateful Dead. It contains the complete concert recorded at the Berkeley Community Theatre in Berkeley, California on August 25, 1972. It was produced as a limited edition of 16,500 copies, and is scheduled to be released on November 1, 2017.

We're wrapping up this year's Dave's Picks series with one from the Grateful Dead's beloved Bay Area. An often overlooked gem from '72 (who's to blame with that rich pool of excellence), 8/25/72 Berkeley Community Theatre finds the Dead laid back and in the comfort zone of home. While one might think this would make the night too relaxed, the band fall in line with their "West Coast best" paradigm. The output is fresh, reaching the outer depths on repertoire classics like "The Other One" and "Playing In The Band" and finding the intricately nuanced heart of emotive numbers like "He's Gone" and "Bird Song." Fans of Europe '72 and Veneta, Oregon will not be disappointed!

This complete show was recorded by Owsley "Bear" Stanley, has been mastered to HDCD specs by Jeffrey Norman, and features photos by Michael Parrish, tour notes from the road, and original illustrations from Dave Van Patten.
Tracklist:
Disc 1
1. Cold Rain And Snow [7:46]
2. Black-Throated Wind [6:19]
3. He's Gone [10:16]
4. Beat It On Down The Line[3:26]
5. Loser [8:29]
6. El Paso [4:56]
7. Black Peter [9:12]
8. Jack Straw [5:01]

Disc 2
1. Friend Of The Devil [4:10]
2. Promised Land [3:37]
3. Bird Song [11:25]
4. PLaying In The Band [16:48]
5. Bertha [6:40]

Disc 3
1. Truckin' [16:02]
2. The Other One [28:03]
3. Stella Blue [9:03]
4. One More Saturday Night [5:46]
5. Sugar Magnolia [7:57]

Exact Audio Copy V1.0 beta 3 from 29. August 2011

EAC extraction logfile from 27. October 2017, 17:07

Grateful Dead / Dave's Picks, Volume 24

Used drive : hp DVD A DH16ABSH Adapter: 0 ID: 0

Read mode : Secure
Utilize accurate stream : Yes
Defeat audio cache : Yes
Make use of C2 pointers : No

Read offset correction : 6
Overread into Lead-In and Lead-Out : No
Fill up missing offset samples with silence : Yes
Delete leading and trailing silent blocks : No
Null samples used in CRC calculations : Yes
Used interface : Native Win32 interface for Win NT & 2000
Gap handling : Appended to previous track

Used output format : User Defined Encoder
Selected bitrate : 1024 kBit/s
Quality : High
Add ID3 tag : No
Command line compressor : C:\Program Files (x86)\Exact Audio Copy\Flac\flac.exe
Additional command line options : -8 -V -T "ARTIST=%artist%" -T "TITLE=%title%" -T "ALBUM=%albumtitle%" -T "DATE=%year%" -T "TRACKNUMBER=%tracknr%" -T "GENRE=%genre%" -T "PERFORMER=%albuminterpret%" -T "COMPOSER=%composer%" %haslyrics%–tag-from-file=LYRICS="%lyricsfile%"%haslyrics% -T "ALBUMARTIST=%albumartist%" -T "DISCNUMBER=%cdnumber%" -T "TOTALDISCS=%totalcds%" -T "TOTALTRACKS=%numtracks%" -T "COMMENT=%comment%" %source% -o %dest%


TOC of the extracted CD

Track | Start | Length | Start sector | End sector
––––––––––––––––––––––––––––-
1 | 0:00.00 | 7:46.34 | 0 | 34983
2 | 7:46.34 | 6:18.70 | 34984 | 63403
3 | 14:05.29 | 10:15.64 | 63404 | 109592
4 | 24:21.18 | 3:25.49 | 109593 | 125016
5 | 27:46.67 | 8:29.19 | 125017 | 163210
6 | 36:16.11 | 4:56.05 | 163211 | 185415
7 | 41:12.16 | 9:12.34 | 185416 | 226849
8 | 50:24.50 | 5:01.03 | 226850 | 249427


Track 1

Filename C:\Users\Bill\Desktop\Grateful Dead - Dave's Picks, Volume 24 (FLAC)\01 - Cold Rain and Snow.wav

Pre-gap length 0:00:02.00

Peak level 97.7 %
Extraction speed 3.4 X
Track quality 99.9 %
Test CRC C31E514D
Copy CRC C31E514D
Track not present in AccurateRip database
Copy OK

Track 2

Filename C:\Users\Bill\Desktop\Grateful Dead - Dave's Picks, Volume 24 (FLAC)\02 - Black-Throated Wind.wav

Peak level 97.7 %
Extraction speed 4.4 X
Track quality 100.0 %
Test CRC 1AC52D10
Copy CRC 1AC52D10
Track not present in AccurateRip database
Copy OK

Track 3

Filename C:\Users\Bill\Desktop\Grateful Dead - Dave's Picks, Volume 24 (FLAC)\03 - He's Gone.wav

Peak level 97.7 %
Extraction speed 4.7 X
Track quality 99.9 %
Test CRC B5EBC709
Copy CRC B5EBC709
Track not present in AccurateRip database
Copy OK

Track 4

Filename C:\Users\Bill\Desktop\Grateful Dead - Dave's Picks, Volume 24 (FLAC)\04 - Beat it on Down the Line.wav

Peak level 97.7 %
Extraction speed 5.1 X
Track quality 100.0 %
Test CRC 203A2E1A
Copy CRC 203A2E1A
Track not present in AccurateRip database
Copy OK

Track 5

Filename C:\Users\Bill\Desktop\Grateful Dead - Dave's Picks, Volume 24 (FLAC)\05 - Loser.wav

Peak level 97.7 %
Extraction speed 5.4 X
Track quality 99.9 %
Test CRC 6A1D1025
Copy CRC 6A1D1025
Track not present in AccurateRip database
Copy OK

Track 6

Filename C:\Users\Bill\Desktop\Grateful Dead - Dave's Picks, Volume 24 (FLAC)\06 - El Paso.wav

Peak level 97.7 %
Extraction speed 6.2 X
Track quality 100.0 %
Test CRC 639BFADA
Copy CRC 639BFADA
Track not present in AccurateRip database
Copy OK

Track 7

Filename C:\Users\Bill\Desktop\Grateful Dead - Dave's Picks, Volume 24 (FLAC)\07 - Black Peter.wav

Peak level 97.7 %
Extraction speed 6.2 X
Track quality 99.9 %
Test CRC 7F9A41D1
Copy CRC 7F9A41D1
Track not present in AccurateRip database
Copy OK

Track 8

Filename C:\Users\Bill\Desktop\Grateful Dead - Dave's Picks, Volume 24 (FLAC)\08 - Jack Straw.wav

Peak level 97.7 %
Extraction speed 6.8 X
Track quality 100.0 %
Test CRC DE4BD2B3
Copy CRC DE4BD2B3
Track not present in AccurateRip database
Copy OK


None of the tracks are present in the AccurateRip database

No errors occurred

End of status report

–– CUETools DB Plugin V2.1.3

[CTDB TOCID: 0EtUMVFoEkMLAFR4IgJoCRQjqi8-] found, Submit result: 0EtUMVFoEkMLAFR4IgJoCRQjqi8- has been confirmed
[fde297d6] (4/4) Accurately ripped


==== Log checksum 9202CC57FBEB8171320A85B2C7E5B248FC4ADA7E9764109836FA333F2D418DD5 ====

Exact Audio Copy V1.0 beta 3 from 29. August 2011

EAC extraction logfile from 27. October 2017, 17:27

Grateful Dead / Dave's Picks, Volume 24

Used drive : hp DVD A DH16ABSH Adapter: 0 ID: 0

Read mode : Secure
Utilize accurate stream : Yes
Defeat audio cache : Yes
Make use of C2 pointers : No

Read offset correction : 6
Overread into Lead-In and Lead-Out : No
Fill up missing offset samples with silence : Yes
Delete leading and trailing silent blocks : No
Null samples used in CRC calculations : Yes
Used interface : Native Win32 interface for Win NT & 2000
Gap handling : Appended to previous track

Used output format : User Defined Encoder
Selected bitrate : 1024 kBit/s
Quality : High
Add ID3 tag : No
Command line compressor : C:\Program Files (x86)\Exact Audio Copy\Flac\flac.exe
Additional command line options : -8 -V -T "ARTIST=%artist%" -T "TITLE=%title%" -T "ALBUM=%albumtitle%" -T "DATE=%year%" -T "TRACKNUMBER=%tracknr%" -T "GENRE=%genre%" -T "PERFORMER=%albuminterpret%" -T "COMPOSER=%composer%" %haslyrics%–tag-from-file=LYRICS="%lyricsfile%"%haslyrics% -T "ALBUMARTIST=%albumartist%" -T "DISCNUMBER=%cdnumber%" -T "TOTALDISCS=%totalcds%" -T "TOTALTRACKS=%numtracks%" -T "COMMENT=%comment%" %source% -o %dest%


TOC of the extracted CD

Track | Start | Length | Start sector | End sector
––––––––––––––––––––––––––––-
1 | 0:00.00 | 4:10.34 | 0 | 18783
2 | 4:10.34 | 3:36.38 | 18784 | 35021
3 | 7:46.72 | 11:25.10 | 35022 | 86406
4 | 19:12.07 | 16:48.09 | 86407 | 162015
5 | 36:00.16 | 6:39.71 | 162016 | 192011


Track 1

Filename C:\Users\Bill\Desktop\Grateful Dead - Dave's Picks, Volume 24 (FLAC)\01 - Friend of the Devil.wav

Pre-gap length 0:00:02.00

Peak level 97.7 %
Extraction speed 3.4 X
Track quality 100.0 %
Test CRC 208E9114
Copy CRC 208E9114
Track not present in AccurateRip database
Copy OK

Track 2

Filename C:\Users\Bill\Desktop\Grateful Dead - Dave's Picks, Volume 24 (FLAC)\02 - Promised Land.wav

Peak level 97.7 %
Extraction speed 3.7 X
Track quality 100.0 %
Test CRC 9740B097
Copy CRC 9740B097
Track not present in AccurateRip database
Copy OK

Track 3

Filename C:\Users\Bill\Desktop\Grateful Dead - Dave's Picks, Volume 24 (FLAC)\03 - Bird Song.wav

Peak level 97.7 %
Extraction speed 4.8 X
Track quality 100.0 %
Test CRC 915C47B1
Copy CRC 915C47B1
Track not present in AccurateRip database
Copy OK

Track 4

Filename C:\Users\Bill\Desktop\Grateful Dead - Dave's Picks, Volume 24 (FLAC)\04 - Playing in the Band.wav

Peak level 97.7 %
Extraction speed 5.9 X
Track quality 100.0 %
Test CRC AE7DC6BC
Copy CRC AE7DC6BC
Track not present in AccurateRip database
Copy OK

Track 5

Filename C:\Users\Bill\Desktop\Grateful Dead - Dave's Picks, Volume 24 (FLAC)\05 - Bertha.wav

Peak level 97.7 %
Extraction speed 6.3 X
Track quality 100.0 %
Test CRC 2356CDB7
Copy CRC 2356CDB7
Track not present in AccurateRip database
Copy OK


None of the tracks are present in the AccurateRip database

No errors occurred

End of status report

–– CUETools DB Plugin V2.1.3

[CTDB TOCID: m90pbHy2L5FZLeRZydBp6tgeRro-] found, Submit result: m90pbHy2L5FZLeRZydBp6tgeRro- has been confirmed
[f8e08383] (4/4) Accurately ripped


==== Log checksum 58F63169F0DC8825EADBD0CDC23F8BD2F4765AE212757FA3D83CB614F3293066 ====

Exact Audio Copy V1.0 beta 3 from 29. August 2011

EAC extraction logfile from 27. October 2017, 17:54

Grateful Dead / Dave's Picks, Volume 24

Used drive : hp DVD A DH16ABSH Adapter: 0 ID: 0

Read mode : Secure
Utilize accurate stream : Yes
Defeat audio cache : Yes
Make use of C2 pointers : No

Read offset correction : 6
Overread into Lead-In and Lead-Out : No
Fill up missing offset samples with silence : Yes
Delete leading and trailing silent blocks : No
Null samples used in CRC calculations : Yes
Used interface : Native Win32 interface for Win NT & 2000
Gap handling : Appended to previous track

Used output format : User Defined Encoder
Selected bitrate : 1024 kBit/s
Quality : High
Add ID3 tag : No
Command line compressor : C:\Program Files (x86)\Exact Audio Copy\Flac\flac.exe
Additional command line options : -8 -V -T "ARTIST=%artist%" -T "TITLE=%title%" -T "ALBUM=%albumtitle%" -T "DATE=%year%" -T "TRACKNUMBER=%tracknr%" -T "GENRE=%genre%" -T "PERFORMER=%albuminterpret%" -T "COMPOSER=%composer%" %haslyrics%–tag-from-file=LYRICS="%lyricsfile%"%haslyrics% -T "ALBUMARTIST=%albumartist%" -T "DISCNUMBER=%cdnumber%" -T "TOTALDISCS=%totalcds%" -T "TOTALTRACKS=%numtracks%" -T "COMMENT=%comment%" %source% -o %dest%


TOC of the extracted CD

Track | Start | Length | Start sector | End sector
––––––––––––––––––––––––––––-
1 | 0:00.00 | 16:02.16 | 0 | 72165
2 | 16:02.16 | 28:03.31 | 72166 | 198421
3 | 44:05.47 | 9:02.58 | 198422 | 239129
4 | 53:08.30 | 5:45.46 | 239130 | 265050
5 | 58:54.01 | 7:56.38 | 265051 | 300788


Track 1

Filename C:\Users\Bill\Desktop\Grateful Dead - Dave's Picks, Volume 24 (FLAC)\01 - Truckin' ].wav

Pre-gap length 0:00:02.00

Peak level 97.7 %
Extraction speed 4.2 X
Track quality 100.0 %
Test CRC 438581F1
Copy CRC 438581F1
Track not present in AccurateRip database
Copy OK

Track 2

Filename C:\Users\Bill\Desktop\Grateful Dead - Dave's Picks, Volume 24 (FLAC)\02 - The Other One ].wav

Peak level 97.7 %
Extraction speed 5.9 X
Track quality 100.0 %
Test CRC 07258280
Copy CRC 07258280
Track not present in AccurateRip database
Copy OK

Track 3

Filename C:\Users\Bill\Desktop\Grateful Dead - Dave's Picks, Volume 24 (FLAC)\03 - Stella Blue.wav

Peak level 97.7 %
Extraction speed 6.7 X
Track quality 100.0 %
Test CRC B95EEE20
Copy CRC B95EEE20
Track not present in AccurateRip database
Copy OK

Track 4

Filename C:\Users\Bill\Desktop\Grateful Dead - Dave's Picks, Volume 24 (FLAC)\04 - One More Saturday Night.wav

Peak level 97.7 %
Extraction speed 5.7 X
Track quality 99.9 %
Test CRC 2F1EFE67
Copy CRC 2F1EFE67
Track not present in AccurateRip database
Copy OK

Track 5

Filename C:\Users\Bill\Desktop\Grateful Dead - Dave's Picks, Volume 24 (FLAC)\05 - Sugar Magnolia.wav

Peak level 97.7 %
Extraction speed 7.3 X
Track quality 100.0 %
Test CRC E712EE4E
Copy CRC E712EE4E
Track not present in AccurateRip database
Copy OK


None of the tracks are present in the AccurateRip database

No errors occurred

End of status report

–– CUETools DB Plugin V2.1.3

[CTDB TOCID: hK6WtyxWgtA4PUYuzVOX7FgniYQ-] found, Submit result: hK6WtyxWgtA4PUYuzVOX7FgniYQ- has been confirmed
[6e8ac802] (1/4) No match
[79a3b6fb] (3/4) Accurately ripped


==== Log checksum 4D6BB670537C0DB141B544A020E38A2294A2F6331B19A7ADF40ECA1A981F32B6 ====


Grateful Dead - Dave’s Picks Vol. 24 (2017)

Thanks to the Original ripper whwendt !