Tags
Language
Tags

Grateful Dead - Dave's Picks Volume 36: Hartford Civic Center, Hartford, CT 3/26/87 & 3/27/87 (2020)

Posted By: delpotro
Grateful Dead - Dave's Picks Volume 36: Hartford Civic Center, Hartford, CT 3/26/87 & 3/27/87 (2020)

Grateful Dead - Dave's Picks Volume 36: Hartford Civic Center, Hartford, CT 3/26/87 & 3/27/87 (2020)
EAC Rip | FLAC (tracks+log+.cue) - 1,6 Gb | MP3 CBR 320 kbps - 633 Mb | 04:35:48
Psychedelic Rock, Jam Band | Label: Grateful Dead Records, Rhino Entertainment

"And with this incredibly tight batch of prime 1987 Grateful Dead, we’re thrilled to bring you Dave’s Picks Vol. 36, matching the number that will be forever tied to Dick’s legacy. Thanks for sticking around this long, and for joining us through these past nine years of archival live Grateful Dead releases." - David Lemieux

We're doing things a bit different for this one - two complete shows on four CDs, bringing you one of Dave's faves and what very well could have been one of Dick's Picks. Yep, back-to-back nights from peak era 80s - the furthest we've gone into the decade, in fact - that will bring you to joyful tears. DAVE’S PICKS VOLUME 36: HARTFORD CIVIC CENTER, HARTFORD, CT (3/26/87 & 3/27/87) delivers emotional takes on tracks like "Row Jimmy," "Black Peter," Uncle John's Band," and serves up a hit list of covers ("In The Midnight Hour," "Good Lovin'," "Desolation Row," "Promised Land," "Little Red Rooster," "Morning Dew," "Johnny B. Goode") that'll have you hootin' and hollerin'.
Tracklist:
Disc 1 (01:04:55)
1. In The Midnight Hour (04:35)
2. Cold Rain And Snow (06:56)
3. C. C. Rider (08:28)
4. Row Jimmy (11:28)
5. My Brother Esau (04:49)
6. When Push Comes To Shove (04:42)
7. Desolation Row (08:55)
8. Bird Song (10:33)
9. Promised Land (04:29)

Disc 2 (01:19:44)
1. China Cat Sunflower (06:03)
2. I Know You Rider (05:28)
3. Looks Like Rain (08:25)
4. He's Gone (13:24)
5. Drums (08:41)
6. Space (07:41)
7. I Need A Miracle (04:14)
8. Black Peter (09:26)
9. Around And Around (03:47)
10. Good Lovin' (08:07)
11. The Mighty Quinn (Quinn The Eskimo) (04:28)

Disc 3 (01:11:59)
1. Alabama Getaway (05:08)
2. Greatest Story Ever Told (04:32)
3. West L.A. Fadeaway (07:34)
4. Little Red Rooster (08:21)
5. Brown-Eyed Women (05:43)
6. Beat It On Down The Line (03:24)
7. Tennessee Jed (09:03)
8. The Music Never Stopped (08:26)
9. Touch Of Grey (06:24)
10. Samson And Delilah (08:06)
11. Cumberland Blues (05:18)

Disc 4 (58:50)
1. Estimated Prophet (10:39)
2. Eyes Of The World (08:28)
3. Drums (09:08)
4. Space (07:06)
5. Uncle John's Band (07:19)
6. Morning Dew (11:23)
7. Johnny B. Goode (04:47)

Exact Audio Copy V1.5 from 20. February 2020

EAC extraction logfile from 2. November 2020, 17:06

Grateful Dead / Dave’s Picks, Volume 36: Hartford Civic Center, Hartford, CT • 3/26/1987 & 3/27/1987

Used drive : HL-DT-STBD-RE BP50NB40 Adapter: 1 ID: 0

Read mode : Secure
Utilize accurate stream : Yes
Defeat audio cache : Yes
Make use of C2 pointers : No

Read offset correction : 6
Overread into Lead-In and Lead-Out : No
Fill up missing offset samples with silence : Yes
Delete leading and trailing silent blocks : No
Null samples used in CRC calculations : Yes
Used interface : Native Win32 interface for Win NT & 2000
Gap handling : Appended to previous track

Used output format : User Defined Encoder
Selected bitrate : 1024 kBit/s
Quality : High
Add ID3 tag : No
Command line compressor : C:\Program Files (x86)\Exact Audio Copy\Flac\flac.exe
Additional command line options : -8 -V -T "ARTIST=%artist%" -T "TITLE=%title%" -T "ALBUM=%albumtitle%" -T "DATE=%year%" -T "TRACKNUMBER=%tracknr%" -T "GENRE=%genre%" -T "PERFORMER=%albuminterpret%" -T "COMPOSER=%composer%" -T "ALBUMARTIST=%albumartist%" -T "DISCNUMBER=%cdnumber%" -T "TOTALDISCS=%totalcds%" -T "TOTALTRACKS=%numtracks%" -T "COMMENT=%comment%" %source% -o %dest%


TOC of the extracted CD

Track | Start | Length | Start sector | End sector
––––––––––––––––––––––––––––-
1 | 0:00.00 | 4:35.67 | 0 | 20691
2 | 4:35.67 | 6:56.55 | 20692 | 51946
3 | 11:32.47 | 8:28.46 | 51947 | 90092
4 | 20:01.18 | 11:28.71 | 90093 | 141763
5 | 31:30.14 | 4:49.30 | 141764 | 163468
6 | 36:19.44 | 4:42.58 | 163469 | 184676
7 | 41:02.27 | 8:55.16 | 184677 | 224817
8 | 49:57.43 | 10:33.39 | 224818 | 272331
9 | 60:31.07 | 4:29.37 | 272332 | 292543


Track 1

Filename C:\eacrips\Grateful Dead - Dave's Picks Volume 36 - Hartford Civic Center, Hartford, CT 3-26-87 and 3-27-87 (2020) [FLAC]\Disc 01\01 - In the Midnight Hour.wav

Pre-gap length 0:00:02.00

Peak level 97.7 %
Extraction speed 2.7 X
Track quality 99.9 %
Test CRC 13FE0C9D
Copy CRC 13FE0C9D
Track not present in AccurateRip database
Copy OK

Track 2

Filename C:\eacrips\Grateful Dead - Dave's Picks Volume 36 - Hartford Civic Center, Hartford, CT 3-26-87 and 3-27-87 (2020) [FLAC]\Disc 01\02 - Cold Rain and Snow.wav

Peak level 97.7 %
Extraction speed 3.7 X
Track quality 100.0 %
Test CRC 97963B02
Copy CRC 97963B02
Track not present in AccurateRip database
Copy OK

Track 3

Filename C:\eacrips\Grateful Dead - Dave's Picks Volume 36 - Hartford Civic Center, Hartford, CT 3-26-87 and 3-27-87 (2020) [FLAC]\Disc 01\03 - C.C. Rider.wav

Peak level 97.7 %
Extraction speed 3.8 X
Track quality 99.9 %
Test CRC 744981A2
Copy CRC 744981A2
Track not present in AccurateRip database
Copy OK

Track 4

Filename C:\eacrips\Grateful Dead - Dave's Picks Volume 36 - Hartford Civic Center, Hartford, CT 3-26-87 and 3-27-87 (2020) [FLAC]\Disc 01\04 - Row Jimmy.wav

Peak level 97.7 %
Extraction speed 5.0 X
Track quality 100.0 %
Test CRC DBCB95E3
Copy CRC DBCB95E3
Track not present in AccurateRip database
Copy OK

Track 5

Filename C:\eacrips\Grateful Dead - Dave's Picks Volume 36 - Hartford Civic Center, Hartford, CT 3-26-87 and 3-27-87 (2020) [FLAC]\Disc 01\05 - My Brother Esau.wav

Peak level 97.7 %
Extraction speed 5.0 X
Track quality 100.0 %
Test CRC 00D62453
Copy CRC 00D62453
Track not present in AccurateRip database
Copy OK

Track 6

Filename C:\eacrips\Grateful Dead - Dave's Picks Volume 36 - Hartford Civic Center, Hartford, CT 3-26-87 and 3-27-87 (2020) [FLAC]\Disc 01\06 - When Push Comes to Shove.wav

Peak level 97.7 %
Extraction speed 5.2 X
Track quality 100.0 %
Test CRC E4A0CC8F
Copy CRC E4A0CC8F
Track not present in AccurateRip database
Copy OK

Track 7

Filename C:\eacrips\Grateful Dead - Dave's Picks Volume 36 - Hartford Civic Center, Hartford, CT 3-26-87 and 3-27-87 (2020) [FLAC]\Disc 01\07 - Desolation Row ].wav

Peak level 97.7 %
Extraction speed 5.9 X
Track quality 100.0 %
Test CRC E18946AB
Copy CRC E18946AB
Track not present in AccurateRip database
Copy OK

Track 8

Filename C:\eacrips\Grateful Dead - Dave's Picks Volume 36 - Hartford Civic Center, Hartford, CT 3-26-87 and 3-27-87 (2020) [FLAC]\Disc 01\08 - Bird Song.wav

Peak level 97.7 %
Extraction speed 6.3 X
Track quality 100.0 %
Test CRC AEF661CD
Copy CRC AEF661CD
Track not present in AccurateRip database
Copy OK

Track 9

Filename C:\eacrips\Grateful Dead - Dave's Picks Volume 36 - Hartford Civic Center, Hartford, CT 3-26-87 and 3-27-87 (2020) [FLAC]\Disc 01\09 - Promised Land.wav

Peak level 97.7 %
Extraction speed 6.1 X
Track quality 100.0 %
Test CRC F8A93336
Copy CRC F8A93336
Track not present in AccurateRip database
Copy OK


None of the tracks are present in the AccurateRip database

No errors occurred

End of status report

–– CUETools DB Plugin V2.1.6

[CTDB TOCID: pPus.pfbs38HLQX9mYunRqNSwNY-] found
Submit result: pPus.pfbs38HLQX9mYunRqNSwNY- has been confirmed
Track | CTDB Status
1 | (50/50) Accurately ripped
2 | (50/50) Accurately ripped
3 | (50/50) Accurately ripped
4 | (50/50) Accurately ripped
5 | (50/50) Accurately ripped
6 | (50/50) Accurately ripped
7 | (50/50) Accurately ripped
8 | (50/50) Accurately ripped
9 | (50/50) Accurately ripped


==== Log checksum 4ABCA34ABA40AC2DC0D1E775248C757D3F00C013966F85CFBDE78756B0A4C9AC ====
Exact Audio Copy V1.5 from 20. February 2020

EAC extraction logfile from 2. November 2020, 17:59

Grateful Dead / Dave’s Picks, Volume 36: Hartford Civic Center, Hartford, CT • 3/26/1987 & 3/27/1987

Used drive : HL-DT-STBD-RE BP50NB40 Adapter: 1 ID: 0

Read mode : Secure
Utilize accurate stream : Yes
Defeat audio cache : Yes
Make use of C2 pointers : No

Read offset correction : 6
Overread into Lead-In and Lead-Out : No
Fill up missing offset samples with silence : Yes
Delete leading and trailing silent blocks : No
Null samples used in CRC calculations : Yes
Used interface : Native Win32 interface for Win NT & 2000
Gap handling : Appended to previous track

Used output format : User Defined Encoder
Selected bitrate : 1024 kBit/s
Quality : High
Add ID3 tag : No
Command line compressor : C:\Program Files (x86)\Exact Audio Copy\Flac\flac.exe
Additional command line options : -8 -V -T "ARTIST=%artist%" -T "TITLE=%title%" -T "ALBUM=%albumtitle%" -T "DATE=%year%" -T "TRACKNUMBER=%tracknr%" -T "GENRE=%genre%" -T "PERFORMER=%albuminterpret%" -T "COMPOSER=%composer%" -T "ALBUMARTIST=%albumartist%" -T "DISCNUMBER=%cdnumber%" -T "TOTALDISCS=%totalcds%" -T "TOTALTRACKS=%numtracks%" -T "COMMENT=%comment%" %source% -o %dest%


TOC of the extracted CD

Track | Start | Length | Start sector | End sector
––––––––––––––––––––––––––––-
1 | 0:00.00 | 6:03.50 | 0 | 27274
2 | 6:03.50 | 5:28.23 | 27275 | 51897
3 | 11:31.73 | 8:25.59 | 51898 | 89831
4 | 19:57.57 | 13:24.51 | 89832 | 150182
5 | 33:22.33 | 8:41.57 | 150183 | 189314
6 | 42:04.15 | 7:41.26 | 189315 | 223915
7 | 49:45.41 | 4:14.65 | 223916 | 243030
8 | 54:00.31 | 9:26.09 | 243031 | 285489
9 | 63:26.40 | 3:47.60 | 285490 | 302574
10 | 67:14.25 | 8:07.33 | 302575 | 339132
11 | 75:21.58 | 4:28.35 | 339133 | 359267


Track 1

Filename C:\eacrips\Grateful Dead - Dave's Picks Volume 36 - Hartford Civic Center, Hartford, CT 3-26-87 and 3-27-87 (2020) [FLAC]\Disc 02\01 - China Cat Sunflower ].wav

Pre-gap length 0:00:02.00

Peak level 97.7 %
Extraction speed 2.2 X
Track quality 100.0 %
Test CRC 52F4DACF
Copy CRC 52F4DACF
Track not present in AccurateRip database
Copy OK

Track 2

Filename C:\eacrips\Grateful Dead - Dave's Picks Volume 36 - Hartford Civic Center, Hartford, CT 3-26-87 and 3-27-87 (2020) [FLAC]\Disc 02\02 - I Know You Rider.wav

Peak level 97.7 %
Extraction speed 2.0 X
Track quality 99.9 %
Test CRC 4DF21D01
Copy CRC 4DF21D01
Track not present in AccurateRip database
Copy OK

Track 3

Filename C:\eacrips\Grateful Dead - Dave's Picks Volume 36 - Hartford Civic Center, Hartford, CT 3-26-87 and 3-27-87 (2020) [FLAC]\Disc 02\03 - Looks Like Rain.wav

Peak level 97.7 %
Extraction speed 2.8 X
Track quality 100.0 %
Test CRC B07863B2
Copy CRC B07863B2
Track not present in AccurateRip database
Copy OK

Track 4

Filename C:\eacrips\Grateful Dead - Dave's Picks Volume 36 - Hartford Civic Center, Hartford, CT 3-26-87 and 3-27-87 (2020) [FLAC]\Disc 02\04 - He's Gone ].wav

Peak level 97.7 %
Extraction speed 3.3 X
Track quality 100.0 %
Test CRC 3D206EE5
Copy CRC 3D206EE5
Track not present in AccurateRip database
Copy OK

Track 5

Filename C:\eacrips\Grateful Dead - Dave's Picks Volume 36 - Hartford Civic Center, Hartford, CT 3-26-87 and 3-27-87 (2020) [FLAC]\Disc 02\05 - Drums ].wav

Peak level 97.7 %
Extraction speed 3.6 X
Track quality 100.0 %
Test CRC 7A572F46
Copy CRC 7A572F46
Track not present in AccurateRip database
Copy OK

Track 6

Filename C:\eacrips\Grateful Dead - Dave's Picks Volume 36 - Hartford Civic Center, Hartford, CT 3-26-87 and 3-27-87 (2020) [FLAC]\Disc 02\06 - Space ].wav

Peak level 97.7 %
Extraction speed 3.8 X
Track quality 100.0 %
Test CRC 9DD992B1
Copy CRC 9DD992B1
Track not present in AccurateRip database
Copy OK

Track 7

Filename C:\eacrips\Grateful Dead - Dave's Picks Volume 36 - Hartford Civic Center, Hartford, CT 3-26-87 and 3-27-87 (2020) [FLAC]\Disc 02\07 - I Need a Miracle ].wav

Peak level 97.7 %
Extraction speed 3.6 X
Track quality 100.0 %
Test CRC 27380567
Copy CRC 27380567
Track not present in AccurateRip database
Copy OK

Track 8

Filename C:\eacrips\Grateful Dead - Dave's Picks Volume 36 - Hartford Civic Center, Hartford, CT 3-26-87 and 3-27-87 (2020) [FLAC]\Disc 02\08 - Black Peter ].wav

Peak level 97.7 %
Extraction speed 4.1 X
Track quality 100.0 %
Test CRC 27CEAB65
Copy CRC 27CEAB65
Track not present in AccurateRip database
Copy OK

Track 9

Filename C:\eacrips\Grateful Dead - Dave's Picks Volume 36 - Hartford Civic Center, Hartford, CT 3-26-87 and 3-27-87 (2020) [FLAC]\Disc 02\09 - Around and Around.wav

Peak level 97.7 %
Extraction speed 3.6 X
Track quality 100.0 %
Test CRC FCF820DA
Copy CRC FCF820DA
Track not present in AccurateRip database
Copy OK

Track 10

Filename C:\eacrips\Grateful Dead - Dave's Picks Volume 36 - Hartford Civic Center, Hartford, CT 3-26-87 and 3-27-87 (2020) [FLAC]\Disc 02\10 - Good Lovin'.wav

Peak level 97.7 %
Extraction speed 4.3 X
Track quality 100.0 %
Test CRC 9D4A7C5D
Copy CRC 9D4A7C5D
Track not present in AccurateRip database
Copy OK

Track 11

Filename C:\eacrips\Grateful Dead - Dave's Picks Volume 36 - Hartford Civic Center, Hartford, CT 3-26-87 and 3-27-87 (2020) [FLAC]\Disc 02\11 - The Mighty Quinn (Quinn the Eskimo).wav

Peak level 97.7 %
Extraction speed 4.4 X
Track quality 100.0 %
Test CRC ED2EA0DF
Copy CRC ED2EA0DF
Track not present in AccurateRip database
Copy OK


None of the tracks are present in the AccurateRip database

No errors occurred

End of status report

–– CUETools DB Plugin V2.1.6

[CTDB TOCID: n7hYUkfEymPrFMp39.PNGo1jK.Y-] found
Submit result: n7hYUkfEymPrFMp39.PNGo1jK.Y- has been confirmed
Track | CTDB Status
1 | (48/48) Accurately ripped
2 | (48/48) Accurately ripped
3 | (48/48) Accurately ripped
4 | (48/48) Accurately ripped
5 | (48/48) Accurately ripped
6 | (48/48) Accurately ripped
7 | (48/48) Accurately ripped
8 | (48/48) Accurately ripped
9 | (48/48) Accurately ripped
10 | (48/48) Accurately ripped
11 | (48/48) Accurately ripped


==== Log checksum 79F9BDF5623CE4ADDF220C72B032F0E16F2DE731AD90263AC9D7670890446FD9 ====
Exact Audio Copy V1.5 from 20. February 2020

EAC extraction logfile from 2. November 2020, 18:50

Grateful Dead / Dave’s Picks, Volume 36: Hartford Civic Center, Hartford, CT • 3/26/1987 & 3/27/1987

Used drive : HL-DT-STBD-RE BP50NB40 Adapter: 1 ID: 0

Read mode : Secure
Utilize accurate stream : Yes
Defeat audio cache : Yes
Make use of C2 pointers : No

Read offset correction : 6
Overread into Lead-In and Lead-Out : No
Fill up missing offset samples with silence : Yes
Delete leading and trailing silent blocks : No
Null samples used in CRC calculations : Yes
Used interface : Native Win32 interface for Win NT & 2000
Gap handling : Appended to previous track

Used output format : User Defined Encoder
Selected bitrate : 1024 kBit/s
Quality : High
Add ID3 tag : No
Command line compressor : C:\Program Files (x86)\Exact Audio Copy\Flac\flac.exe
Additional command line options : -8 -V -T "ARTIST=%artist%" -T "TITLE=%title%" -T "ALBUM=%albumtitle%" -T "DATE=%year%" -T "TRACKNUMBER=%tracknr%" -T "GENRE=%genre%" -T "PERFORMER=%albuminterpret%" -T "COMPOSER=%composer%" -T "ALBUMARTIST=%albumartist%" -T "DISCNUMBER=%cdnumber%" -T "TOTALDISCS=%totalcds%" -T "TOTALTRACKS=%numtracks%" -T "COMMENT=%comment%" %source% -o %dest%


TOC of the extracted CD

Track | Start | Length | Start sector | End sector
––––––––––––––––––––––––––––-
1 | 0:00.00 | 5:08.56 | 0 | 23155
2 | 5:08.56 | 4:32.09 | 23156 | 43564
3 | 9:40.65 | 7:34.28 | 43565 | 77642
4 | 17:15.18 | 8:21.10 | 77643 | 115227
5 | 25:36.28 | 5:43.54 | 115228 | 141006
6 | 31:20.07 | 3:24.70 | 141007 | 156376
7 | 34:45.02 | 9:03.43 | 156377 | 197144
8 | 43:48.45 | 8:26.41 | 197145 | 235135
9 | 52:15.11 | 6:24.07 | 235136 | 263942
10 | 58:39.18 | 8:06.53 | 263943 | 300445
11 | 66:45.71 | 5:18.74 | 300446 | 324369


Track 1

Filename C:\eacrips\Grateful Dead - Dave's Picks Volume 36 - Hartford Civic Center, Hartford, CT 3-26-87 and 3-27-87 (2020) [FLAC]\Disc 03\01 - Alabama Getaway ].wav

Pre-gap length 0:00:02.00

Peak level 97.7 %
Extraction speed 1.7 X
Track quality 99.9 %
Test CRC E2CA6637
Copy CRC E2CA6637
Track not present in AccurateRip database
Copy OK

Track 2

Filename C:\eacrips\Grateful Dead - Dave's Picks Volume 36 - Hartford Civic Center, Hartford, CT 3-26-87 and 3-27-87 (2020) [FLAC]\Disc 03\02 - Greatest Story Ever Told.wav

Peak level 97.7 %
Extraction speed 2.3 X
Track quality 100.0 %
Test CRC 7A6820E3
Copy CRC 7A6820E3
Track not present in AccurateRip database
Copy OK

Track 3

Filename C:\eacrips\Grateful Dead - Dave's Picks Volume 36 - Hartford Civic Center, Hartford, CT 3-26-87 and 3-27-87 (2020) [FLAC]\Disc 03\03 - West L.A. Fadeaway.wav

Peak level 97.7 %
Extraction speed 2.7 X
Track quality 100.0 %
Test CRC 8099747A
Copy CRC 8099747A
Track not present in AccurateRip database
Copy OK

Track 4

Filename C:\eacrips\Grateful Dead - Dave's Picks Volume 36 - Hartford Civic Center, Hartford, CT 3-26-87 and 3-27-87 (2020) [FLAC]\Disc 03\04 - Little Red Rooster.wav

Peak level 97.7 %
Extraction speed 3.0 X
Track quality 100.0 %
Test CRC 7E941F16
Copy CRC 7E941F16
Track not present in AccurateRip database
Copy OK

Track 5

Filename C:\eacrips\Grateful Dead - Dave's Picks Volume 36 - Hartford Civic Center, Hartford, CT 3-26-87 and 3-27-87 (2020) [FLAC]\Disc 03\05 - Brown-Eyed Women.wav

Peak level 97.7 %
Extraction speed 3.1 X
Track quality 100.0 %
Test CRC 87C40E6A
Copy CRC 87C40E6A
Track not present in AccurateRip database
Copy OK

Track 6

Filename C:\eacrips\Grateful Dead - Dave's Picks Volume 36 - Hartford Civic Center, Hartford, CT 3-26-87 and 3-27-87 (2020) [FLAC]\Disc 03\06 - Beat It on Down the Line.wav

Peak level 97.7 %
Extraction speed 3.1 X
Track quality 100.0 %
Test CRC 17BA0200
Copy CRC 17BA0200
Track not present in AccurateRip database
Copy OK

Track 7

Filename C:\eacrips\Grateful Dead - Dave's Picks Volume 36 - Hartford Civic Center, Hartford, CT 3-26-87 and 3-27-87 (2020) [FLAC]\Disc 03\07 - Tennessee Jed.wav

Peak level 97.7 %
Extraction speed 3.7 X
Track quality 100.0 %
Test CRC 3B7110E0
Copy CRC 3B7110E0
Track not present in AccurateRip database
Copy OK

Track 8

Filename C:\eacrips\Grateful Dead - Dave's Picks Volume 36 - Hartford Civic Center, Hartford, CT 3-26-87 and 3-27-87 (2020) [FLAC]\Disc 03\08 - The Music Never Stopped.wav

Peak level 97.7 %
Extraction speed 3.9 X
Track quality 100.0 %
Test CRC 52E4CCC4
Copy CRC 52E4CCC4
Track not present in AccurateRip database
Copy OK

Track 9

Filename C:\eacrips\Grateful Dead - Dave's Picks Volume 36 - Hartford Civic Center, Hartford, CT 3-26-87 and 3-27-87 (2020) [FLAC]\Disc 03\09 - Touch of Grey ].wav

Peak level 97.7 %
Extraction speed 3.4 X
Track quality 99.9 %
Test CRC D5D1B41B
Copy CRC D5D1B41B
Track not present in AccurateRip database
Copy OK

Track 10

Filename C:\eacrips\Grateful Dead - Dave's Picks Volume 36 - Hartford Civic Center, Hartford, CT 3-26-87 and 3-27-87 (2020) [FLAC]\Disc 03\10 - Samson and Delilah ].wav

Peak level 97.7 %
Extraction speed 3.7 X
Track quality 99.9 %
Test CRC A79D725F
Copy CRC A79D725F
Track not present in AccurateRip database
Copy OK

Track 11

Filename C:\eacrips\Grateful Dead - Dave's Picks Volume 36 - Hartford Civic Center, Hartford, CT 3-26-87 and 3-27-87 (2020) [FLAC]\Disc 03\11 - Cumberland Blues.wav

Peak level 97.7 %
Extraction speed 4.3 X
Track quality 100.0 %
Test CRC C03F716F
Copy CRC C03F716F
Track not present in AccurateRip database
Copy OK


None of the tracks are present in the AccurateRip database

No errors occurred

End of status report

–– CUETools DB Plugin V2.1.6

[CTDB TOCID: 9vUtGrhx7rUOesJzDnK6Jl8_z.g-] found
Submit result: 9vUtGrhx7rUOesJzDnK6Jl8_z.g- has been confirmed
Track | CTDB Status
1 | (48/48) Accurately ripped
2 | (48/48) Accurately ripped
3 | (48/48) Accurately ripped
4 | (48/48) Accurately ripped
5 | (48/48) Accurately ripped
6 | (48/48) Accurately ripped
7 | (48/48) Accurately ripped
8 | (48/48) Accurately ripped
9 | (48/48) Accurately ripped
10 | (48/48) Accurately ripped
11 | (48/48) Accurately ripped


==== Log checksum 45CCF22A5958DBF0567865D82649CAAD6B55C91971DCD00EF18C0ECAA0635EDF ====
Exact Audio Copy V1.5 from 20. February 2020

EAC extraction logfile from 2. November 2020, 19:34

Grateful Dead / Dave’s Picks, Volume 36: Hartford Civic Center, Hartford, CT • 3/26/1987 & 3/27/1987

Used drive : HL-DT-STBD-RE BP50NB40 Adapter: 1 ID: 0

Read mode : Secure
Utilize accurate stream : Yes
Defeat audio cache : Yes
Make use of C2 pointers : No

Read offset correction : 6
Overread into Lead-In and Lead-Out : No
Fill up missing offset samples with silence : Yes
Delete leading and trailing silent blocks : No
Null samples used in CRC calculations : Yes
Used interface : Native Win32 interface for Win NT & 2000
Gap handling : Appended to previous track

Used output format : User Defined Encoder
Selected bitrate : 1024 kBit/s
Quality : High
Add ID3 tag : No
Command line compressor : C:\Program Files (x86)\Exact Audio Copy\Flac\flac.exe
Additional command line options : -8 -V -T "ARTIST=%artist%" -T "TITLE=%title%" -T "ALBUM=%albumtitle%" -T "DATE=%year%" -T "TRACKNUMBER=%tracknr%" -T "GENRE=%genre%" -T "PERFORMER=%albuminterpret%" -T "COMPOSER=%composer%" -T "ALBUMARTIST=%albumartist%" -T "DISCNUMBER=%cdnumber%" -T "TOTALDISCS=%totalcds%" -T "TOTALTRACKS=%numtracks%" -T "COMMENT=%comment%" %source% -o %dest%


TOC of the extracted CD

Track | Start | Length | Start sector | End sector
––––––––––––––––––––––––––––-
1 | 0:00.00 | 10:39.08 | 0 | 47932
2 | 10:39.08 | 8:28.00 | 47933 | 86032
3 | 19:07.08 | 9:08.08 | 86033 | 127140
4 | 28:15.16 | 7:06.61 | 127141 | 159151
5 | 35:22.02 | 7:19.35 | 159152 | 192111
6 | 42:41.37 | 11:23.56 | 192112 | 243392
7 | 54:05.18 | 4:47.25 | 243393 | 264942


Track 1

Filename C:\eacrips\Grateful Dead - Dave's Picks Volume 36 - Hartford Civic Center, Hartford, CT 3-26-87 and 3-27-87 (2020) [FLAC]\Disc 04\01 - Estimated Prophet ].wav

Pre-gap length 0:00:02.00

Peak level 97.7 %
Extraction speed 1.9 X
Track quality 99.9 %
Test CRC 5B807984
Copy CRC 5B807984
Track not present in AccurateRip database
Copy OK

Track 2

Filename C:\eacrips\Grateful Dead - Dave's Picks Volume 36 - Hartford Civic Center, Hartford, CT 3-26-87 and 3-27-87 (2020) [FLAC]\Disc 04\02 - Eyes of the World ].wav

Peak level 97.7 %
Extraction speed 2.6 X
Track quality 100.0 %
Test CRC BCB45F36
Copy CRC BCB45F36
Track not present in AccurateRip database
Copy OK

Track 3

Filename C:\eacrips\Grateful Dead - Dave's Picks Volume 36 - Hartford Civic Center, Hartford, CT 3-26-87 and 3-27-87 (2020) [FLAC]\Disc 04\03 - Drums ].wav

Peak level 97.7 %
Extraction speed 2.6 X
Track quality 99.9 %
Test CRC BD661AD1
Copy CRC BD661AD1
Track not present in AccurateRip database
Copy OK

Track 4

Filename C:\eacrips\Grateful Dead - Dave's Picks Volume 36 - Hartford Civic Center, Hartford, CT 3-26-87 and 3-27-87 (2020) [FLAC]\Disc 04\04 - Space ].wav

Peak level 61.0 %
Extraction speed 3.1 X
Track quality 100.0 %
Test CRC F510F9FE
Copy CRC F510F9FE
Track not present in AccurateRip database
Copy OK

Track 5

Filename C:\eacrips\Grateful Dead - Dave's Picks Volume 36 - Hartford Civic Center, Hartford, CT 3-26-87 and 3-27-87 (2020) [FLAC]\Disc 04\05 - Uncle John's Band ].wav

Peak level 97.7 %
Extraction speed 3.4 X
Track quality 100.0 %
Test CRC 81426D2D
Copy CRC 81426D2D
Track not present in AccurateRip database
Copy OK

Track 6

Filename C:\eacrips\Grateful Dead - Dave's Picks Volume 36 - Hartford Civic Center, Hartford, CT 3-26-87 and 3-27-87 (2020) [FLAC]\Disc 04\06 - Morning Dew.wav

Peak level 97.7 %
Extraction speed 3.8 X
Track quality 100.0 %
Test CRC 0F5A9A9D
Copy CRC 0F5A9A9D
Track not present in AccurateRip database
Copy OK

Track 7

Filename C:\eacrips\Grateful Dead - Dave's Picks Volume 36 - Hartford Civic Center, Hartford, CT 3-26-87 and 3-27-87 (2020) [FLAC]\Disc 04\07 - Johnny B. Goode.wav

Peak level 97.7 %
Extraction speed 3.7 X
Track quality 100.0 %
Test CRC C70DE288
Copy CRC C70DE288
Track not present in AccurateRip database
Copy OK


None of the tracks are present in the AccurateRip database

No errors occurred

End of status report

–– CUETools DB Plugin V2.1.6

[CTDB TOCID: 1GKeIOyHh6hGhmLoXqUA.33Rgis-] found
Submit result: 1GKeIOyHh6hGhmLoXqUA.33Rgis- has been confirmed
Track | CTDB Status
1 | (48/48) Accurately ripped
2 | (48/48) Accurately ripped
3 | (48/48) Accurately ripped
4 | (48/48) Accurately ripped
5 | (48/48) Accurately ripped
6 | (48/48) Accurately ripped
7 | (48/48) Accurately ripped


==== Log checksum 09F5A92282C4AD83B1008046B2C7014772EFC7EA8F03C8C9290610D75C170EFA ====

Thanks to the Original ripper !