Subcategories

Grateful Dead - Frost Amphitheatre, Palo Alto, California May 7 1989 (2016) {2CD Mojo Filter MFRCD2004}

Posted By: ruskaval
Grateful Dead - Frost Amphitheatre, Palo Alto, California May 7 1989 (2016) {2CD Mojo Filter MFRCD2004}

Grateful Dead - Frost Amphitheatre, Palo Alto, California May 7 1989 (2016) {2CD Mojo Filter MFRCD2004}
EAC rip (secure mode) | FLAC (tracks)+CUE+LOG -> 712 Mb | MP3 @320 -> 352 Mb
Full Artwork @ 300 dpi (jpg) -> 8 Mb | 5% repair rar
© 1989, 2016 Mojo Filter Records | MFRCD2004
Rock / Classic Rock / Psychedelic / Folk Rock / Jam Band

Fine, energetic show on the day of Bill Kreutzman's 43rd birthday! Highlights include killer version of "Foolish Heart and a mighty "Other One".

Broadcast by KZSU-FM and remastered for pristine audio quality.
Grateful Dead - Frost Amphitheatre, Palo Alto, California May 7 1989 (2016) {2CD Mojo Filter MFRCD2004}


Track listing

Disc: 1

1. Iko, Iko
2. Little Red Rooster
3. Bertha
4. Me & My Uncle
5. Mexicali Blues
6. Built to Last
7. Picasso Moon
8. Birdsong
9. Foolish Heart
10. Victim Or the Crime

Grateful Dead - Frost Amphitheatre, Palo Alto, California May 7 1989 (2016) {2CD Mojo Filter MFRCD2004}


Disc: 2
1. Crazy Fingers
2. Man Smart, Woman Smarter
3. He's Gone
4. Drums
5. Space
6. The Other One
7. Black Peter
8. Turn On Your Lovelight
9. Knocking On Heaven's Door

Grateful Dead - Frost Amphitheatre, Palo Alto, California May 7 1989 (2016) {2CD Mojo Filter MFRCD2004}


Exact Audio Copy V1.2 from 12. August 2016

EAC extraction logfile from 17. October 2017, 12:24

Grateful Dead / Frost Amphitheatre May 7 1989 CD1

Used drive : TSSTcorpCDDVDW SE-S084F Adapter: 1 ID: 1

Read mode : Secure
Utilize accurate stream : Yes
Defeat audio cache : Yes
Make use of C2 pointers : No

Read offset correction : 6
Overread into Lead-In and Lead-Out : No
Fill up missing offset samples with silence : Yes
Delete leading and trailing silent blocks : No
Null samples used in CRC calculations : Yes
Used interface : Native Win32 interface for Win NT & 2000
Gap handling : Appended to previous track

Used output format : User Defined Encoder
Selected bitrate : 1024 kBit/s
Quality : High
Add ID3 tag : No
Command line compressor : C:\Program Files (x86)\Exact Audio Copy\Flac\flac.exe
Additional command line options : -8 -V -T "ARTIST=%artist%" -T "TITLE=%title%" -T "ALBUM=%albumtitle%" -T "DATE=%year%" -T "TRACKNUMBER=%tracknr%" -T "GENRE=%genre%" -T "PERFORMER=%albuminterpret%" -T "COMPOSER=%composer%" %haslyrics%–tag-from-file=LYRICS="%lyricsfile%"%haslyrics% -T "ALBUMARTIST=%albumartist%" -T "DISCNUMBER=%cdnumber%" -T "TOTALDISCS=%totalcds%" -T "TOTALTRACKS=%numtracks%" -T "COMMENT=%comment%" %source% -o %dest%


TOC of the extracted CD

Track | Start | Length | Start sector | End sector
––––––––––––––––––––––––––––-
1 | 0:00.00 | 7:16.37 | 0 | 32736
2 | 7:16.37 | 8:20.37 | 32737 | 70273
3 | 15:36.74 | 9:20.00 | 70274 | 112273
4 | 24:56.74 | 2:59.00 | 112274 | 125698
5 | 27:55.74 | 5:38.37 | 125699 | 151085
6 | 33:34.36 | 5:47.00 | 151086 | 177110
7 | 39:21.36 | 6:34.00 | 177111 | 206660
8 | 45:55.36 | 12:08.37 | 206661 | 261297
9 | 58:03.73 | 9:30.28 | 261298 | 304075
10 | 67:34.26 | 6:03.42 | 304076 | 331342


Track 1

Filename C:\Users\ian\Desktop\Grateful Dead - Frost Amphitheatre May 7 1989 (2016) [FLAC] {KZSU-FM BOOT}\Frost Amphitheatre CD1\01 - Iko Iko.wav

Pre-gap length 0:00:02.00

Peak level 100.0 %
Extraction speed 1.3 X
Track quality 100.0 %
Test CRC 8DC40334
Copy CRC 8DC40334
Track not present in AccurateRip database
Copy OK

Track 2

Filename C:\Users\ian\Desktop\Grateful Dead - Frost Amphitheatre May 7 1989 (2016) [FLAC] {KZSU-FM BOOT}\Frost Amphitheatre CD1\02 - Little Red Rooster.wav

Peak level 100.0 %
Extraction speed 1.5 X
Track quality 100.0 %
Test CRC 6F7F934B
Copy CRC 6F7F934B
Track not present in AccurateRip database
Copy OK

Track 3

Filename C:\Users\ian\Desktop\Grateful Dead - Frost Amphitheatre May 7 1989 (2016) [FLAC] {KZSU-FM BOOT}\Frost Amphitheatre CD1\03 - Bertha.wav

Peak level 100.0 %
Extraction speed 1.7 X
Track quality 100.0 %
Test CRC 8ADEB953
Copy CRC 8ADEB953
Track not present in AccurateRip database
Copy OK

Track 4

Filename C:\Users\ian\Desktop\Grateful Dead - Frost Amphitheatre May 7 1989 (2016) [FLAC] {KZSU-FM BOOT}\Frost Amphitheatre CD1\04 - Me & My Uncle.wav

Peak level 100.0 %
Extraction speed 1.6 X
Track quality 100.0 %
Test CRC 11ADFB98
Copy CRC 11ADFB98
Track not present in AccurateRip database
Copy OK

Track 5

Filename C:\Users\ian\Desktop\Grateful Dead - Frost Amphitheatre May 7 1989 (2016) [FLAC] {KZSU-FM BOOT}\Frost Amphitheatre CD1\05 - Mexicali Blues.wav

Peak level 100.0 %
Extraction speed 1.8 X
Track quality 100.0 %
Test CRC 34517CF6
Copy CRC 34517CF6
Track not present in AccurateRip database
Copy OK

Track 6

Filename C:\Users\ian\Desktop\Grateful Dead - Frost Amphitheatre May 7 1989 (2016) [FLAC] {KZSU-FM BOOT}\Frost Amphitheatre CD1\06 - Built to Last.wav

Peak level 100.0 %
Extraction speed 2.0 X
Track quality 100.0 %
Test CRC 958436B8
Copy CRC 958436B8
Track not present in AccurateRip database
Copy OK

Track 7

Filename C:\Users\ian\Desktop\Grateful Dead - Frost Amphitheatre May 7 1989 (2016) [FLAC] {KZSU-FM BOOT}\Frost Amphitheatre CD1\07 - Picasso Moon.wav

Peak level 100.0 %
Extraction speed 2.1 X
Track quality 100.0 %
Test CRC 10130E9F
Copy CRC 10130E9F
Track not present in AccurateRip database
Copy OK

Track 8

Filename C:\Users\ian\Desktop\Grateful Dead - Frost Amphitheatre May 7 1989 (2016) [FLAC] {KZSU-FM BOOT}\Frost Amphitheatre CD1\08 - Birdsong.wav

Peak level 100.0 %
Extraction speed 2.3 X
Track quality 100.0 %
Test CRC 6CF8711E
Copy CRC 6CF8711E
Track not present in AccurateRip database
Copy OK

Track 9

Filename C:\Users\ian\Desktop\Grateful Dead - Frost Amphitheatre May 7 1989 (2016) [FLAC] {KZSU-FM BOOT}\Frost Amphitheatre CD1\09 - Foolish Heart.wav

Peak level 100.0 %
Extraction speed 2.3 X
Track quality 99.9 %
Test CRC 579D380D
Copy CRC 579D380D
Track not present in AccurateRip database
Copy OK

Track 10

Filename C:\Users\ian\Desktop\Grateful Dead - Frost Amphitheatre May 7 1989 (2016) [FLAC] {KZSU-FM BOOT}\Frost Amphitheatre CD1\10 - Victim Or the Crime.wav

Peak level 100.0 %
Extraction speed 2.3 X
Track quality 99.9 %
Test CRC 7C76ADAC
Copy CRC 7C76ADAC
Track not present in AccurateRip database
Copy OK


None of the tracks are present in the AccurateRip database

No errors occurred

End of status report

–– CUETools DB Plugin V2.1.6

[CTDB TOCID: yS59WQB_I1lhn7UkMZEflj.5y_Y-] disk not present in database
Submit result: yS59WQB_I1lhn7UkMZEflj.5y_Y- has been uploaded


==== Log checksum 555581DE9464716323AD7A348C4D29322F2B73C6495E88ECD465C53AF68DEE5D ====

Exact Audio Copy V1.2 from 12. August 2016

EAC extraction logfile from 17. October 2017, 13:31

Grateful Dead / Frost Amphitheatre May 7 1989 CD2

Used drive : TSSTcorpCDDVDW SE-S084F Adapter: 1 ID: 1

Read mode : Secure
Utilize accurate stream : Yes
Defeat audio cache : Yes
Make use of C2 pointers : No

Read offset correction : 6
Overread into Lead-In and Lead-Out : No
Fill up missing offset samples with silence : Yes
Delete leading and trailing silent blocks : No
Null samples used in CRC calculations : Yes
Used interface : Native Win32 interface for Win NT & 2000
Gap handling : Appended to previous track

Used output format : User Defined Encoder
Selected bitrate : 1024 kBit/s
Quality : High
Add ID3 tag : No
Command line compressor : C:\Program Files (x86)\Exact Audio Copy\Flac\flac.exe
Additional command line options : -8 -V -T "ARTIST=%artist%" -T "TITLE=%title%" -T "ALBUM=%albumtitle%" -T "DATE=%year%" -T "TRACKNUMBER=%tracknr%" -T "GENRE=%genre%" -T "PERFORMER=%albuminterpret%" -T "COMPOSER=%composer%" %haslyrics%–tag-from-file=LYRICS="%lyricsfile%"%haslyrics% -T "ALBUMARTIST=%albumartist%" -T "DISCNUMBER=%cdnumber%" -T "TOTALDISCS=%totalcds%" -T "TOTALTRACKS=%numtracks%" -T "COMMENT=%comment%" %source% -o %dest%


TOC of the extracted CD

Track | Start | Length | Start sector | End sector
––––––––––––––––––––––––––––-
1 | 0:00.00 | 8:15.37 | 0 | 37161
2 | 8:15.37 | 7:07.37 | 37162 | 69223
3 | 15:22.74 | 13:40.37 | 69224 | 130760
4 | 29:03.36 | 7:53.18 | 130761 | 166253
5 | 36:56.54 | 7:50.56 | 166254 | 201559
6 | 44:47.35 | 7:14.00 | 201560 | 234109
7 | 52:01.35 | 9:29.37 | 234110 | 276821
8 | 61:30.72 | 7:45.00 | 276822 | 311696
9 | 69:15.72 | 6:50.00 | 311697 | 342446


Track 1

Filename C:\Users\ian\Desktop\Grateful Dead - Frost Amphitheatre May 7 1989 (2016) [FLAC] {KZSU-FM BOOT}\Frost Amphitheatre CD2\01 - Crazy Fingers.wav

Pre-gap length 0:00:02.00

Peak level 100.0 %
Extraction speed 2.1 X
Track quality 100.0 %
Test CRC 0537729A
Copy CRC 0537729A
Track not present in AccurateRip database
Copy OK

Track 2

Filename C:\Users\ian\Desktop\Grateful Dead - Frost Amphitheatre May 7 1989 (2016) [FLAC] {KZSU-FM BOOT}\Frost Amphitheatre CD2\02 - Man Smart Woman Smarter.wav

Peak level 100.0 %
Extraction speed 2.4 X
Track quality 100.0 %
Test CRC 9670C037
Copy CRC 9670C037
Track not present in AccurateRip database
Copy OK

Track 3

Filename C:\Users\ian\Desktop\Grateful Dead - Frost Amphitheatre May 7 1989 (2016) [FLAC] {KZSU-FM BOOT}\Frost Amphitheatre CD2\03 - Hes Gone.wav

Peak level 100.0 %
Extraction speed 2.8 X
Track quality 100.0 %
Test CRC FDF208EA
Copy CRC FDF208EA
Track not present in AccurateRip database
Copy OK

Track 4

Filename C:\Users\ian\Desktop\Grateful Dead - Frost Amphitheatre May 7 1989 (2016) [FLAC] {KZSU-FM BOOT}\Frost Amphitheatre CD2\04 - Drums.wav

Peak level 100.0 %
Extraction speed 3.1 X
Track quality 100.0 %
Test CRC B486D704
Copy CRC B486D704
Track not present in AccurateRip database
Copy OK

Track 5

Filename C:\Users\ian\Desktop\Grateful Dead - Frost Amphitheatre May 7 1989 (2016) [FLAC] {KZSU-FM BOOT}\Frost Amphitheatre CD2\05 - Space.wav

Peak level 100.0 %
Extraction speed 2.8 X
Track quality 99.9 %
Test CRC 786B6536
Copy CRC 786B6536
Track not present in AccurateRip database
Copy OK

Track 6

Filename C:\Users\ian\Desktop\Grateful Dead - Frost Amphitheatre May 7 1989 (2016) [FLAC] {KZSU-FM BOOT}\Frost Amphitheatre CD2\06 - The Other One.wav

Peak level 100.0 %
Extraction speed 3.4 X
Track quality 100.0 %
Test CRC F0B1EBAB
Copy CRC F0B1EBAB
Track not present in AccurateRip database
Copy OK

Track 7

Filename C:\Users\ian\Desktop\Grateful Dead - Frost Amphitheatre May 7 1989 (2016) [FLAC] {KZSU-FM BOOT}\Frost Amphitheatre CD2\07 - Black Peter.wav

Peak level 100.0 %
Extraction speed 3.7 X
Track quality 100.0 %
Test CRC 1466680E
Copy CRC 1466680E
Track not present in AccurateRip database
Copy OK

Track 8

Filename C:\Users\ian\Desktop\Grateful Dead - Frost Amphitheatre May 7 1989 (2016) [FLAC] {KZSU-FM BOOT}\Frost Amphitheatre CD2\08 - Turn On Your Lovelight.wav

Peak level 100.0 %
Extraction speed 3.9 X
Track quality 100.0 %
Test CRC 7F0D639B
Copy CRC 7F0D639B
Track not present in AccurateRip database
Copy OK

Track 9

Filename C:\Users\ian\Desktop\Grateful Dead - Frost Amphitheatre May 7 1989 (2016) [FLAC] {KZSU-FM BOOT}\Frost Amphitheatre CD2\09 - Knocking On Heavens Door.wav

Peak level 100.0 %
Extraction speed 1.7 X
Track quality 99.8 %
Test CRC 1CA7C6FC
Copy CRC 1CA7C6FC
Track not present in AccurateRip database
Copy OK


None of the tracks are present in the AccurateRip database

No errors occurred

End of status report

–– CUETools DB Plugin V2.1.6

[CTDB TOCID: Q2on32qqBQC9Z8F1dnCySD49U5M-] disk not present in database
Submit result: Q2on32qqBQC9Z8F1dnCySD49U5M- has been uploaded


==== Log checksum DC09356C3FAAAB0BFBDC788D20D570C96CB7F5370A177D94CC8BD16CACBE6B80 ====


Grateful Dead - Frost Amphitheatre, Palo Alto, California May 7 1989 (2016) {2CD Mojo Filter MFRCD2004}



===