Subcategories

Grateful Dead - May 1977: Get Shown The Light (2017)

Posted By: delpotro
Grateful Dead - May 1977: Get Shown The Light (2017)

Grateful Dead - May 1977: Get Shown The Light (2017)
XLD Rip | FLAC (tracks+log+.cue) | 10:39:02 | 3,57 Gb
Jam Band, Rock, Classic Rock, Pyschedelic Rock | Label: Rhino Entertainment

"MAY 1977: GET SHOWN THE LIGHT is a collection of what is unanimously believed to be the most sought-after previously unreleased complete shows the Grateful Dead ever played. Collected, traded, and debated for decades, "the beloved Golden Trinity" of Boston, Ithaca, and Buffalo, along with their New Haven prelude, have inspired fans to "get on the bus," converted critics, and even garnered national attention (Cornell was added to the Library of Congress’ National Recording Registry). But until now, you've never really heard them quite like this!

The Dead is in the details… how serendipitous is it that the notorious Betty Cantor-Jackson soundboard recordings were returned to the archive just in time for the 40th anniversaries of these shows? Lovingly sourced from these well-reputed recordings, we invite you to experience four utopian shows just like they happened, to "be inside the music" as engineer Betty Cantor-Jackson intended. Whether you listen to each night on its own or imbibe the whole lot at once, we suspect you'll hear why every note mattered. Much like we were, you will be hard-pressed to determine which of these fine documents - will it be the understated but nuanced New Haven, Boston's festive fantasy vibes, the monumental catharsis of Ithaca, or Buffalo’s dreamy exuberance - is truly "the best." Does it really matter? We think not."
Tracklist:
Show #1
Veterans' Memorial Coliseum - New Haven, CT (5/5/77)

Disc 1
1. Promised Land
2. Sugaree
3. Mama Tried
4. El Paso
5. Tennessee Jed
6. Looks Like Rain
7. Deal
8. Lazy Lightning>
9. Supplication
10. Peggy-O
11. The Music Never Stopped

Disc 2
1. Bertha
2. Estimated Prophet
3. Scarlet Begonias>
4. Fire On The Mountain>
5. Good Lovin’
6. St. Stephen>
7. Sugar Magnolia
8. Johnny B. Goode

Show #2
Boston Garden - Boston, MA (5/7/77)

Disc 1
1. Bertha
2. Cassidy
3. Deal
4. Jack Straw
5. Peggy-O
6. New Minglewood Blues
7. Mississippi Half-Step Uptown Toodeloo>
8. Big River
9. Tennessee Jed
10. The Music Never Stopped

Disc 2
1. Terrapin Station
2. Samson And Delilah
3. Friend Of The Devil
4. Estimated Prophet

Disc 3
1. Eyes Of The World>
2. Drums>
3. The Wheel>
4. Wharf Rat>
5. Around And Around
6. U.S. Blues

Show #3
Barton Hall, Cornell University - Ithaca, NY (5/8/77)

Disc 1
1. New Minglewood Blues
2. Loser
3. El Paso
4. They Love Each Other
5. Jack Straw
6. Deal
7. Lazy Lightning>
8. Supplication
9. Brown-Eyed Women
10. Mama Tried
11. Row Jimmy

Disc 2
1. Dancing In The Street
2. Scarlet Begonias>
3. Fire On The Mountain
4. Estimated Prophet

Disc 3
1. St. Stephen>
2. Not Fade Away>
3. St. Stephen>
4. Morning Dew
5. One More Saturday Night

Show #4
Buffalo Memorial Auditorium - Buffalo, NY (5/9/77)

Disc 1
1. Help On The Way>
2. Slipknot>
3. Franklin’s Tower
4. Cassidy
5. Brown-Eyed Women
6. Mexicali Blues
7. Tennessee Jed
8. Big River
9. Peggy-O
10. Sunrise
11. The Music Never Stopped

Disc 2
1. Bertha>
2. Good Lovin’
3. Ship Of Fools

Disc 3
1. Estimated Prophet>
2. The Other One>
3. Drums>
4. Not Fade Away>
5. Comes A Time>
6. Sugar Magnolia
7. Uncle Johns Band

X Lossless Decoder version 20161007 (149.3)

XLD extraction logfile from 2017-05-04 20:44:01 -0500

/ Disc 1

Used drive : HL-DT-ST DVDRAM GE24NU40 (revision 3.00)
Media type : Pressed CD

Ripper mode : XLD Secure Ripper
Disable audio cache : OK for the drive with a cache less than 1375KiB
Make use of C2 pointers : NO
Read offset correction : 6
Max retry count : 20
Gap status : Analyzed, Appended (except HTOA)

TOC of the extracted CD
Track | Start | Length | Start sector | End sector
––––––––––––––––––––––––––––-
1 | 00:00:00 | 05:44:70 | 0 | 25869
2 | 05:44:70 | 15:36:13 | 25870 | 96082
3 | 21:21:08 | 02:38:50 | 96083 | 107982
4 | 23:59:58 | 05:07:55 | 107983 | 131062
5 | 29:07:38 | 09:24:23 | 131063 | 173385
6 | 38:31:61 | 09:19:17 | 173386 | 215327
7 | 47:51:03 | 06:15:16 | 215328 | 243468
8 | 54:06:19 | 03:34:09 | 243469 | 259527
9 | 57:40:28 | 05:31:28 | 259528 | 284380
10 | 63:11:56 | 08:10:06 | 284381 | 321136
11 | 71:21:62 | 06:52:49 | 321137 | 352085

AccurateRip Summary
Disc not found in AccurateRip DB.

All Tracks
Album gain : -3.36 dB
Peak : 0.977295
Statistics
Read error : 0
Jitter error (maybe fixed) : 0
Retry sector count : 0
Damaged sector count : 0

Track 01
Filename : /Users/Desktop/Desktop/Unknown Artist - Disc 1 (Unknown Year) [FLAC]/01 Promised Land.flac
Pre-gap length : 00:02:00

Track gain : -3.55 dB
Peak : 0.977264
CRC32 hash (test run) : 41363835
CRC32 hash : 41363835
CRC32 hash (skip zero) : E333DDC8
AccurateRip v1 signature : D1BDE10F
AccurateRip v2 signature : 01680025
->Track not present in AccurateRip database.
Statistics
Read error : 0
Jitter error (maybe fixed) : 0
Retry sector count : 0
Damaged sector count : 0

Track 02
Filename : /Users/Desktop/Desktop/Unknown Artist - Disc 1 (Unknown Year) [FLAC]/02 Sugaree.flac

Track gain : -2.62 dB
Peak : 0.977295
CRC32 hash (test run) : 5B92F388
CRC32 hash : 5B92F388
CRC32 hash (skip zero) : 60B45F14
AccurateRip v1 signature : 60B512A0
AccurateRip v2 signature : 37917775
->Track not present in AccurateRip database.
Statistics
Read error : 0
Jitter error (maybe fixed) : 0
Retry sector count : 0
Damaged sector count : 0

Track 03
Filename : /Users/Desktop/Desktop/Unknown Artist - Disc 1 (Unknown Year) [FLAC]/03 Mama Tried>.flac

Track gain : -2.83 dB
Peak : 0.977264
CRC32 hash (test run) : 3194739B
CRC32 hash : 3194739B
CRC32 hash (skip zero) : 90436686
AccurateRip v1 signature : ACA00A0B
AccurateRip v2 signature : C083218F
->Track not present in AccurateRip database.
Statistics
Read error : 0
Jitter error (maybe fixed) : 0
Retry sector count : 0
Damaged sector count : 0

Track 04
Filename : /Users/Desktop/Desktop/Unknown Artist - Disc 1 (Unknown Year) [FLAC]/04 El Paso.flac

Track gain : -1.10 dB
Peak : 0.977234
CRC32 hash (test run) : 4FD5CFBB
CRC32 hash : 4FD5CFBB
CRC32 hash (skip zero) : 2916F750
AccurateRip v1 signature : 579E90BE
AccurateRip v2 signature : AB6B4CE6
->Track not present in AccurateRip database.
Statistics
Read error : 0
Jitter error (maybe fixed) : 0
Retry sector count : 0
Damaged sector count : 0

Track 05
Filename : /Users/Desktop/Desktop/Unknown Artist - Disc 1 (Unknown Year) [FLAC]/05 Tennessee Jed.flac

Track gain : -4.26 dB
Peak : 0.977264
CRC32 hash (test run) : 2E5BE32A
CRC32 hash : 2E5BE32A
CRC32 hash (skip zero) : C957D961
AccurateRip v1 signature : FAB3395F
AccurateRip v2 signature : 810DAA42
->Track not present in AccurateRip database.
Statistics
Read error : 0
Jitter error (maybe fixed) : 0
Retry sector count : 0
Damaged sector count : 0

Track 06
Filename : /Users/Desktop/Desktop/Unknown Artist - Disc 1 (Unknown Year) [FLAC]/06 Looks Like Rain.flac

Track gain : -1.95 dB
Peak : 0.977264
CRC32 hash (test run) : 1F3BD6D3
CRC32 hash : 1F3BD6D3
CRC32 hash (skip zero) : A4AADC13
AccurateRip v1 signature : 4AB53AB6
AccurateRip v2 signature : 73A88C2C
->Track not present in AccurateRip database.
Statistics
Read error : 0
Jitter error (maybe fixed) : 0
Retry sector count : 0
Damaged sector count : 0

Track 07
Filename : /Users/Desktop/Desktop/Unknown Artist - Disc 1 (Unknown Year) [FLAC]/07 Deal.flac

Track gain : -4.70 dB
Peak : 0.977264
CRC32 hash (test run) : 2DE63DB2
CRC32 hash : 2DE63DB2
CRC32 hash (skip zero) : DE828119
AccurateRip v1 signature : D5BC4459
AccurateRip v2 signature : 432F0172
->Track not present in AccurateRip database.
Statistics
Read error : 0
Jitter error (maybe fixed) : 0
Retry sector count : 0
Damaged sector count : 0

Track 08
Filename : /Users/Desktop/Desktop/Unknown Artist - Disc 1 (Unknown Year) [FLAC]/08 Lazy Lightning>.flac

Track gain : -3.23 dB
Peak : 0.977264
CRC32 hash (test run) : D6E886A5
CRC32 hash : D6E886A5
CRC32 hash (skip zero) : DECD0814
AccurateRip v1 signature : 63F3FEB3
AccurateRip v2 signature : C10D14D2
->Track not present in AccurateRip database.
Statistics
Read error : 0
Jitter error (maybe fixed) : 0
Retry sector count : 0
Damaged sector count : 0

Track 09
Filename : /Users/Desktop/Desktop/Unknown Artist - Disc 1 (Unknown Year) [FLAC]/09 Supplication.flac

Track gain : -2.55 dB
Peak : 0.977295
CRC32 hash (test run) : E4ADEE62
CRC32 hash : E4ADEE62
CRC32 hash (skip zero) : 81A627A1
AccurateRip v1 signature : AA001FAA
AccurateRip v2 signature : CA0F4D3F
->Track not present in AccurateRip database.
Statistics
Read error : 0
Jitter error (maybe fixed) : 0
Retry sector count : 0
Damaged sector count : 0

Track 10
Filename : /Users/Desktop/Desktop/Unknown Artist - Disc 1 (Unknown Year) [FLAC]/10 Peggy-O.flac

Track gain : -2.89 dB
Peak : 0.977234
CRC32 hash (test run) : 6C19787D
CRC32 hash : 6C19787D
CRC32 hash (skip zero) : 3DE2C931
AccurateRip v1 signature : A5E7C1C9
AccurateRip v2 signature : 1B7ADF8B
->Track not present in AccurateRip database.
Statistics
Read error : 0
Jitter error (maybe fixed) : 0
Retry sector count : 0
Damaged sector count : 0

Track 11
Filename : /Users/Desktop/Desktop/Unknown Artist - Disc 1 (Unknown Year) [FLAC]/11 The Music Never Stopped.flac

Track gain : -4.06 dB
Peak : 0.977264
CRC32 hash (test run) : 90956895
CRC32 hash : 90956895
CRC32 hash (skip zero) : 14B25168
AccurateRip v1 signature : 875877B0
AccurateRip v2 signature : 4F51F174
->Track not present in AccurateRip database.
Statistics
Read error : 0
Jitter error (maybe fixed) : 0
Retry sector count : 0
Damaged sector count : 0

No errors occurred

End of status report

––-BEGIN XLD SIGNATURE––-
mQax_IcuVPTciDar3cJ2Kcsp3ucgidGjJCazy.OcX.YmaFOTw7JSH6cDFQ_SCBiT2OjlnBX_b.Sa6VwKfM6exjpH6aKMKyKOsw7R3fa
––-END XLD SIGNATURE––-

X Lossless Decoder version 20161007 (149.3)

XLD extraction logfile from 2017-05-04 21:08:01 -0500

/ Disc 2

Used drive : HL-DT-ST DVDRAM GE24NU40 (revision 3.00)
Media type : Pressed CD

Ripper mode : XLD Secure Ripper
Disable audio cache : OK for the drive with a cache less than 1375KiB
Make use of C2 pointers : NO
Read offset correction : 6
Max retry count : 20
Gap status : Analyzed, Appended (except HTOA)

TOC of the extracted CD
Track | Start | Length | Start sector | End sector
––––––––––––––––––––––––––––-
1 | 00:00:00 | 07:51:52 | 0 | 35376
2 | 07:51:52 | 09:09:42 | 35377 | 76593
3 | 17:01:19 | 10:50:37 | 76594 | 125380
4 | 27:51:56 | 12:04:43 | 125381 | 179723
5 | 39:56:24 | 06:48:54 | 179724 | 210377
6 | 46:45:03 | 11:48:38 | 210378 | 263515
7 | 58:33:41 | 08:58:52 | 263516 | 303917
8 | 67:32:18 | 04:34:69 | 303918 | 324536

AccurateRip Summary
Disc not found in AccurateRip DB.

All Tracks
Album gain : -3.76 dB
Peak : 0.977295
Statistics
Read error : 0
Jitter error (maybe fixed) : 0
Retry sector count : 0
Damaged sector count : 0

Track 01
Filename : /Users/Desktop/Desktop/Unknown Artist - Disc 2 (Unknown Year) [FLAC]/01 Bertha.flac
Pre-gap length : 00:02:00

Track gain : -5.02 dB
Peak : 0.977264
CRC32 hash (test run) : C36DAE93
CRC32 hash : C36DAE93
CRC32 hash (skip zero) : C60C7907
AccurateRip v1 signature : 6DD36B1C
AccurateRip v2 signature : C82A87FE
->Track not present in AccurateRip database.
Statistics
Read error : 0
Jitter error (maybe fixed) : 0
Retry sector count : 0
Damaged sector count : 0

Track 02
Filename : /Users/Desktop/Desktop/Unknown Artist - Disc 2 (Unknown Year) [FLAC]/02 Estimated Prophet.flac

Track gain : -2.45 dB
Peak : 0.977264
CRC32 hash (test run) : 8A56FBC4
CRC32 hash : 8A56FBC4
CRC32 hash (skip zero) : F39361B7
AccurateRip v1 signature : 803F3806
AccurateRip v2 signature : 55F4EF04
->Track not present in AccurateRip database.
Statistics
Read error : 0
Jitter error (maybe fixed) : 0
Retry sector count : 0
Damaged sector count : 0

Track 03
Filename : /Users/Desktop/Desktop/Unknown Artist - Disc 2 (Unknown Year) [FLAC]/03 Scarlet Begonias>.flac

Track gain : -3.31 dB
Peak : 0.977264
CRC32 hash (test run) : 7E7F252D
CRC32 hash : 7E7F252D
CRC32 hash (skip zero) : E71CE164
AccurateRip v1 signature : B5F98AB5
AccurateRip v2 signature : 0FB722D5
->Track not present in AccurateRip database.
Statistics
Read error : 0
Jitter error (maybe fixed) : 0
Retry sector count : 0
Damaged sector count : 0

Track 04
Filename : /Users/Desktop/Desktop/Unknown Artist - Disc 2 (Unknown Year) [FLAC]/04 Fire On The Mountain>.flac

Track gain : -2.84 dB
Peak : 0.977264
CRC32 hash (test run) : B7CB6C23
CRC32 hash : B7CB6C23
CRC32 hash (skip zero) : D3019EA5
AccurateRip v1 signature : 47586313
AccurateRip v2 signature : BEDC1595
->Track not present in AccurateRip database.
Statistics
Read error : 0
Jitter error (maybe fixed) : 0
Retry sector count : 0
Damaged sector count : 0

Track 05
Filename : /Users/Desktop/Desktop/Unknown Artist - Disc 2 (Unknown Year) [FLAC]/05 Good Lovin'.flac

Track gain : -3.93 dB
Peak : 0.977264
CRC32 hash (test run) : D18B02C3
CRC32 hash : D18B02C3
CRC32 hash (skip zero) : 94BBDA9C
AccurateRip v1 signature : 91C6F994
AccurateRip v2 signature : ED8448EB
->Track not present in AccurateRip database.
Statistics
Read error : 0
Jitter error (maybe fixed) : 0
Retry sector count : 0
Damaged sector count : 0

Track 06
Filename : /Users/Desktop/Desktop/Unknown Artist - Disc 2 (Unknown Year) [FLAC]/06 St. Stephen>.flac

Track gain : -2.91 dB
Peak : 0.977295
CRC32 hash (test run) : A518C044
CRC32 hash : A518C044
CRC32 hash (skip zero) : CB6CB4D2
AccurateRip v1 signature : 2D46BFB1
AccurateRip v2 signature : 4BB81B2B
->Track not present in AccurateRip database.
Statistics
Read error : 0
Jitter error (maybe fixed) : 0
Retry sector count : 0
Damaged sector count : 0

Track 07
Filename : /Users/Desktop/Desktop/Unknown Artist - Disc 2 (Unknown Year) [FLAC]/07 Sugar Magnolia.flac

Track gain : -3.93 dB
Peak : 0.977264
CRC32 hash (test run) : 11E3C39A
CRC32 hash : 11E3C39A
CRC32 hash (skip zero) : F5DAC3EB
AccurateRip v1 signature : 42B1D12A
AccurateRip v2 signature : 6FA7DAED
->Track not present in AccurateRip database.
Statistics
Read error : 0
Jitter error (maybe fixed) : 0
Retry sector count : 0
Damaged sector count : 0

Track 08
Filename : /Users/Desktop/Desktop/Unknown Artist - Disc 2 (Unknown Year) [FLAC]/08 Johnny B. Goode.flac

Track gain : -5.73 dB
Peak : 0.977264
CRC32 hash (test run) : BD0B3C1A
CRC32 hash : BD0B3C1A
CRC32 hash (skip zero) : 3BDDFA63
AccurateRip v1 signature : CC82ADCA
AccurateRip v2 signature : 82D716F2
->Track not present in AccurateRip database.
Statistics
Read error : 0
Jitter error (maybe fixed) : 0
Retry sector count : 0
Damaged sector count : 0

No errors occurred

End of status report

––-BEGIN XLD SIGNATURE––-
U4JBBOnu6CvkE4psmi7Uh6X6R4S1wfHC_PFnmPeYAssrbF_ctmN7cCG.vl.3Uz95za1MGExL9UGIbQ.2neS4p.VNzDHAMo593rw5WDO
––-END XLD SIGNATURE––-

X Lossless Decoder version 20161007 (149.3)

XLD extraction logfile from 2017-05-04 21:25:33 -0500

/ Disc 3

Used drive : HL-DT-ST DVDRAM GE24NU40 (revision 3.00)
Media type : Pressed CD

Ripper mode : XLD Secure Ripper
Disable audio cache : OK for the drive with a cache less than 1375KiB
Make use of C2 pointers : NO
Read offset correction : 6
Max retry count : 20
Gap status : Analyzed, Appended (except HTOA)

TOC of the extracted CD
Track | Start | Length | Start sector | End sector
––––––––––––––––––––––––––––-
1 | 00:00:00 | 08:06:31 | 0 | 36480
2 | 08:06:31 | 05:08:27 | 36481 | 59607
3 | 13:14:58 | 06:08:40 | 59608 | 87247
4 | 19:23:23 | 05:29:06 | 87248 | 111928
5 | 24:52:29 | 08:20:09 | 111929 | 149437
6 | 33:12:38 | 06:54:56 | 149438 | 180543
7 | 40:07:19 | 12:30:28 | 180544 | 236821
8 | 52:37:47 | 07:24:63 | 236822 | 270184
9 | 60:02:35 | 08:11:15 | 270185 | 307024
10 | 68:13:50 | 07:48:12 | 307025 | 342136

AccurateRip Summary
Disc not found in AccurateRip DB.

All Tracks
Album gain : -3.85 dB
Peak : 0.977295
Statistics
Read error : 0
Jitter error (maybe fixed) : 0
Retry sector count : 0
Damaged sector count : 0

Track 01
Filename : /Users/Desktop/Desktop/Unknown Artist - Disc 3 (Unknown Year) [FLAC]/01 Bertha.flac
Pre-gap length : 00:02:00

Track gain : -4.68 dB
Peak : 0.977264
CRC32 hash (test run) : 40ADF5F6
CRC32 hash : 40ADF5F6
CRC32 hash (skip zero) : B3CC6A65
AccurateRip v1 signature : 27F7A541
AccurateRip v2 signature : C1F9C1D9
->Track not present in AccurateRip database.
Statistics
Read error : 0
Jitter error (maybe fixed) : 0
Retry sector count : 0
Damaged sector count : 0

Track 02
Filename : /Users/Desktop/Desktop/Unknown Artist - Disc 3 (Unknown Year) [FLAC]/02 Cassidy.flac

Track gain : -3.14 dB
Peak : 0.977264
CRC32 hash (test run) : 06A134D1
CRC32 hash : 06A134D1
CRC32 hash (skip zero) : 72EB483B
AccurateRip v1 signature : 8658473E
AccurateRip v2 signature : 9847290E
->Track not present in AccurateRip database.
Statistics
Read error : 0
Jitter error (maybe fixed) : 0
Retry sector count : 0
Damaged sector count : 0

Track 03
Filename : /Users/Desktop/Desktop/Unknown Artist - Disc 3 (Unknown Year) [FLAC]/03 Deal.flac

Track gain : -5.03 dB
Peak : 0.977264
CRC32 hash (test run) : 5691E9AE
CRC32 hash : 5691E9AE
CRC32 hash (skip zero) : CE2FA365
AccurateRip v1 signature : 280E75C6
AccurateRip v2 signature : 3325348B
->Track not present in AccurateRip database.
Statistics
Read error : 0
Jitter error (maybe fixed) : 0
Retry sector count : 0
Damaged sector count : 0

Track 04
Filename : /Users/Desktop/Desktop/Unknown Artist - Disc 3 (Unknown Year) [FLAC]/04 Jack Straw.flac

Track gain : -2.83 dB
Peak : 0.977264
CRC32 hash (test run) : A1C8CC01
CRC32 hash : A1C8CC01
CRC32 hash (skip zero) : 04B3CB0D
AccurateRip v1 signature : AC659526
AccurateRip v2 signature : CD8D406D
->Track not present in AccurateRip database.
Statistics
Read error : 0
Jitter error (maybe fixed) : 0
Retry sector count : 0
Damaged sector count : 0

Track 05
Filename : /Users/Desktop/Desktop/Unknown Artist - Disc 3 (Unknown Year) [FLAC]/05 Peggy-O.flac

Track gain : -2.63 dB
Peak : 0.977234
CRC32 hash (test run) : 39945B07
CRC32 hash : 39945B07
CRC32 hash (skip zero) : CE0FD7D2
AccurateRip v1 signature : BC35A5E3
AccurateRip v2 signature : 24366317
->Track not present in AccurateRip database.
Statistics
Read error : 0
Jitter error (maybe fixed) : 0
Retry sector count : 0
Damaged sector count : 0

Track 06
Filename : /Users/Desktop/Desktop/Unknown Artist - Disc 3 (Unknown Year) [FLAC]/06 New Minglewood Blues.flac

Track gain : -4.00 dB
Peak : 0.977295
CRC32 hash (test run) : 1086912F
CRC32 hash : 1086912F
CRC32 hash (skip zero) : 6E35A5EB
AccurateRip v1 signature : EDBF0CDD
AccurateRip v2 signature : 5CAA73EF
->Track not present in AccurateRip database.
Statistics
Read error : 0
Jitter error (maybe fixed) : 0
Retry sector count : 0
Damaged sector count : 0

Track 07
Filename : /Users/Desktop/Desktop/Unknown Artist - Disc 3 (Unknown Year) [FLAC]/07 Mississippi Half-Step Uptown Toodeloo>.flac

Track gain : -3.34 dB
Peak : 0.977234
CRC32 hash (test run) : 101084A8
CRC32 hash : 101084A8
CRC32 hash (skip zero) : 0B353A55
AccurateRip v1 signature : E5A14B23
AccurateRip v2 signature : 0526B20F
->Track not present in AccurateRip database.
Statistics
Read error : 0
Jitter error (maybe fixed) : 0
Retry sector count : 0
Damaged sector count : 0

Track 08
Filename : /Users/Desktop/Desktop/Unknown Artist - Disc 3 (Unknown Year) [FLAC]/08 Big River.flac

Track gain : -3.49 dB
Peak : 0.977234
CRC32 hash (test run) : 35E518C1
CRC32 hash : 35E518C1
CRC32 hash (skip zero) : 0ED3728F
AccurateRip v1 signature : A32AB0D1
AccurateRip v2 signature : 8BF45605
->Track not present in AccurateRip database.
Statistics
Read error : 0
Jitter error (maybe fixed) : 0
Retry sector count : 0
Damaged sector count : 0

Track 09
Filename : /Users/Desktop/Desktop/Unknown Artist - Disc 3 (Unknown Year) [FLAC]/09 Tennessee Jed.flac

Track gain : -3.36 dB
Peak : 0.977264
CRC32 hash (test run) : 1A6F2FD6
CRC32 hash : 1A6F2FD6
CRC32 hash (skip zero) : 4C303292
AccurateRip v1 signature : 6EDAB5D0
AccurateRip v2 signature : DDFB67F6
->Track not present in AccurateRip database.
Statistics
Read error : 0
Jitter error (maybe fixed) : 0
Retry sector count : 0
Damaged sector count : 0

Track 10
Filename : /Users/Desktop/Desktop/Unknown Artist - Disc 3 (Unknown Year) [FLAC]/10 The Music Never Stopped.flac

Track gain : -4.35 dB
Peak : 0.977264
CRC32 hash (test run) : 1038F787
CRC32 hash : 1038F787
CRC32 hash (skip zero) : F2050E8B
AccurateRip v1 signature : 967A7E25
AccurateRip v2 signature : 42ACA6AB
->Track not present in AccurateRip database.
Statistics
Read error : 0
Jitter error (maybe fixed) : 0
Retry sector count : 0
Damaged sector count : 0

No errors occurred

End of status report

––-BEGIN XLD SIGNATURE––-
2o7UN0Nz8KdUR7qApjo5SSAup6odZnoH2UeXcRTpwZYl7HAVK8vLNbDh2oLP5zNIeDPtu0YlMWjfMiAWyY82.lXc06Rva34ufI48jkq
––-END XLD SIGNATURE––-

X Lossless Decoder version 20161007 (149.3)

XLD extraction logfile from 2017-05-04 21:40:43 -0500

/ Disc 4

Used drive : HL-DT-ST DVDRAM GE24NU40 (revision 3.00)
Media type : Pressed CD

Ripper mode : XLD Secure Ripper
Disable audio cache : OK for the drive with a cache less than 1375KiB
Make use of C2 pointers : NO
Read offset correction : 6
Max retry count : 20
Gap status : Analyzed, Appended (except HTOA)

TOC of the extracted CD
Track | Start | Length | Start sector | End sector
––––––––––––––––––––––––––––-
1 | 00:00:00 | 11:04:25 | 0 | 49824
2 | 11:04:25 | 07:37:72 | 49825 | 84171
3 | 18:42:22 | 08:17:39 | 84172 | 121485
4 | 26:59:61 | 08:24:10 | 121486 | 159295

AccurateRip Summary
Disc not found in AccurateRip DB.

All Tracks
Album gain : -4.11 dB
Peak : 0.977295
Statistics
Read error : 0
Jitter error (maybe fixed) : 0
Retry sector count : 0
Damaged sector count : 0

Track 01
Filename : /Users/Desktop/Desktop/Unknown Artist - Disc 4 (Unknown Year) [FLAC]/01 Terrapin Station.flac
Pre-gap length : 00:02:00

Track gain : -3.89 dB
Peak : 0.977295
CRC32 hash (test run) : 0238174B
CRC32 hash : 0238174B
CRC32 hash (skip zero) : 65652B3F
AccurateRip v1 signature : 4A19F767
AccurateRip v2 signature : 4EEB39D5
->Track not present in AccurateRip database.
Statistics
Read error : 0
Jitter error (maybe fixed) : 0
Retry sector count : 0
Damaged sector count : 0

Track 02
Filename : /Users/Desktop/Desktop/Unknown Artist - Disc 4 (Unknown Year) [FLAC]/02 Samson and Delilah.flac

Track gain : -5.23 dB
Peak : 0.977295
CRC32 hash (test run) : 5D7F5234
CRC32 hash : 5D7F5234
CRC32 hash (skip zero) : 632C3B37
AccurateRip v1 signature : 8B252272
AccurateRip v2 signature : 3BEB27BC
->Track not present in AccurateRip database.
Statistics
Read error : 0
Jitter error (maybe fixed) : 0
Retry sector count : 0
Damaged sector count : 0

Track 03
Filename : /Users/Desktop/Desktop/Unknown Artist - Disc 4 (Unknown Year) [FLAC]/03 Friend of the Devil.flac

Track gain : -3.35 dB
Peak : 0.977264
CRC32 hash (test run) : 37AEF640
CRC32 hash : 37AEF640
CRC32 hash (skip zero) : 089F7BD4
AccurateRip v1 signature : 156AFCFC
AccurateRip v2 signature : 374BC33B
->Track not present in AccurateRip database.
Statistics
Read error : 0
Jitter error (maybe fixed) : 0
Retry sector count : 0
Damaged sector count : 0

Track 04
Filename : /Users/Desktop/Desktop/Unknown Artist - Disc 4 (Unknown Year) [FLAC]/04 Estimated Prophet.flac

Track gain : -3.06 dB
Peak : 0.977295
CRC32 hash (test run) : EA44A77B
CRC32 hash : EA44A77B
CRC32 hash (skip zero) : 193DB09E
AccurateRip v1 signature : CEB7C882
AccurateRip v2 signature : B95D795D
->Track not present in AccurateRip database.
Statistics
Read error : 0
Jitter error (maybe fixed) : 0
Retry sector count : 0
Damaged sector count : 0

No errors occurred

End of status report

––-BEGIN XLD SIGNATURE––-
CPqWhZdr85hAWI3F_WPdBy_LzgainLQ9dqxsKYbFb8FOhvG9lk3C2qRO1OKUcbvYjB92bXPGzTDkCFlMhmL2h.k0_DL06jiHE49i02C
––-END XLD SIGNATURE––-

X Lossless Decoder version 20161007 (149.3)

XLD extraction logfile from 2017-05-04 21:50:12 -0500

/ Disc 5

Used drive : HL-DT-ST DVDRAM GE24NU40 (revision 3.00)
Media type : Pressed CD

Ripper mode : XLD Secure Ripper
Disable audio cache : OK for the drive with a cache less than 1375KiB
Make use of C2 pointers : NO
Read offset correction : 6
Max retry count : 20
Gap status : Analyzed, Appended (except HTOA)

TOC of the extracted CD
Track | Start | Length | Start sector | End sector
––––––––––––––––––––––––––––-
1 | 00:00:00 | 11:20:41 | 0 | 51040
2 | 11:20:41 | 03:16:34 | 51041 | 65774
3 | 14:37:00 | 10:34:43 | 65775 | 113367
4 | 25:11:43 | 14:20:33 | 113368 | 177900
5 | 39:32:01 | 08:47:03 | 177901 | 217428
6 | 48:19:04 | 05:40:06 | 217429 | 242934

AccurateRip Summary
Disc not found in AccurateRip DB.

All Tracks
Album gain : -3.29 dB
Peak : 0.977295
Statistics
Read error : 0
Jitter error (maybe fixed) : 0
Retry sector count : 0
Damaged sector count : 0

Track 01
Filename : /Users/Desktop/Desktop/Unknown Artist - Disc 5 (Unknown Year) [FLAC]/01 Eyes Of The World>.flac
Pre-gap length : 00:02:00

Track gain : -4.24 dB
Peak : 0.977295
CRC32 hash (test run) : A933747E
CRC32 hash : A933747E
CRC32 hash (skip zero) : C0A1D3AC
AccurateRip v1 signature : 7F941F92
AccurateRip v2 signature : 9F430B3B
->Track not present in AccurateRip database.
Statistics
Read error : 0
Jitter error (maybe fixed) : 0
Retry sector count : 0
Damaged sector count : 0

Track 02
Filename : /Users/Desktop/Desktop/Unknown Artist - Disc 5 (Unknown Year) [FLAC]/02 Drums>.flac

Track gain : -0.27 dB
Peak : 0.977264
CRC32 hash (test run) : 11E0C9B5
CRC32 hash : 11E0C9B5
CRC32 hash (skip zero) : ACF32C87
AccurateRip v1 signature : D37B2525
AccurateRip v2 signature : 8DFF050D
->Track not present in AccurateRip database.
Statistics
Read error : 0
Jitter error (maybe fixed) : 0
Retry sector count : 0
Damaged sector count : 0

Track 03
Filename : /Users/Desktop/Desktop/Unknown Artist - Disc 5 (Unknown Year) [FLAC]/03 The Wheel>.flac

Track gain : -2.78 dB
Peak : 0.977295
CRC32 hash (test run) : 4F8AFCA0
CRC32 hash : 4F8AFCA0
CRC32 hash (skip zero) : E797ACF8
AccurateRip v1 signature : 5AFDE84B
AccurateRip v2 signature : BD7D7F4D
->Track not present in AccurateRip database.
Statistics
Read error : 0
Jitter error (maybe fixed) : 0
Retry sector count : 0
Damaged sector count : 0

Track 04
Filename : /Users/Desktop/Desktop/Unknown Artist - Disc 5 (Unknown Year) [FLAC]/04 Wharf Rat>.flac

Track gain : -2.18 dB
Peak : 0.977264
CRC32 hash (test run) : 628A687F
CRC32 hash : 628A687F
CRC32 hash (skip zero) : 0A44EAC3
AccurateRip v1 signature : 5A3C0A76
AccurateRip v2 signature : CF4999F3
->Track not present in AccurateRip database.
Statistics
Read error : 0
Jitter error (maybe fixed) : 0
Retry sector count : 0
Damaged sector count : 0

Track 05
Filename : /Users/Desktop/Desktop/Unknown Artist - Disc 5 (Unknown Year) [FLAC]/05 Around and Around.flac

Track gain : -3.59 dB
Peak : 0.977295
CRC32 hash (test run) : 41F144DB
CRC32 hash : 41F144DB
CRC32 hash (skip zero) : 0621BB07
AccurateRip v1 signature : F5CEAA16
AccurateRip v2 signature : 5F5B3D89
->Track not present in AccurateRip database.
Statistics
Read error : 0
Jitter error (maybe fixed) : 0
Retry sector count : 0
Damaged sector count : 0

Track 06
Filename : /Users/Desktop/Desktop/Unknown Artist - Disc 5 (Unknown Year) [FLAC]/06 U.S. Blues.flac

Track gain : -3.52 dB
Peak : 0.977295
CRC32 hash (test run) : E996583F
CRC32 hash : E996583F
CRC32 hash (skip zero) : CC4A7905
AccurateRip v1 signature : 6D62312E
AccurateRip v2 signature : 5D29C227
->Track not present in AccurateRip database.
Statistics
Read error : 0
Jitter error (maybe fixed) : 0
Retry sector count : 0
Damaged sector count : 0

No errors occurred

End of status report

––-BEGIN XLD SIGNATURE––-
SlW3kpfOolVpUKYMKQtGMokXaJUHeLaKTTf7QIBcduNSpCSgJMiyK4BnIuH8gJbn2PUhwIlOvxbNoVAJ.SEBPn31E8DZLWJJfR7AVA4
––-END XLD SIGNATURE––-

X Lossless Decoder version 20161007 (149.3)

XLD extraction logfile from 2017-05-04 22:02:30 -0500

/ Disc 6

Used drive : HL-DT-ST DVDRAM GE24NU40 (revision 3.00)
Media type : Pressed CD

Ripper mode : XLD Secure Ripper
Disable audio cache : OK for the drive with a cache less than 1375KiB
Make use of C2 pointers : NO
Read offset correction : 6
Max retry count : 20
Gap status : Analyzed, Appended (except HTOA)

TOC of the extracted CD
Track | Start | Length | Start sector | End sector
––––––––––––––––––––––––––––-
1 | 00:00:00 | 05:34:20 | 0 | 25069
2 | 05:34:20 | 07:58:05 | 25070 | 60924
3 | 13:32:25 | 04:50:65 | 60925 | 82739
4 | 18:23:15 | 07:29:34 | 82740 | 116448
5 | 25:52:49 | 06:29:28 | 116449 | 145651
6 | 32:22:02 | 06:10:23 | 145652 | 173424
7 | 38:32:25 | 03:25:66 | 173425 | 188865
8 | 41:58:16 | 04:47:37 | 188866 | 210427
9 | 46:45:53 | 05:48:71 | 210428 | 236598
10 | 52:34:49 | 03:11:47 | 236599 | 250970
11 | 55:46:21 | 11:14:10 | 250971 | 301530

AccurateRip Summary
Disc not found in AccurateRip DB.

All Tracks
Album gain : -2.96 dB
Peak : 0.977295
Statistics
Read error : 0
Jitter error (maybe fixed) : 0
Retry sector count : 0
Damaged sector count : 0

Track 01
Filename : /Users/Desktop/Desktop/Unknown Artist - Disc 6 (Unknown Year) [FLAC]/01 New Minglewood Blues.flac
Pre-gap length : 00:02:00

Track gain : -2.77 dB
Peak : 0.977264
CRC32 hash (test run) : 0F92A09B
CRC32 hash : 0F92A09B
CRC32 hash (skip zero) : D68A5EE5
AccurateRip v1 signature : 341302FA
AccurateRip v2 signature : FE9589F7
->Track not present in AccurateRip database.
Statistics
Read error : 0
Jitter error (maybe fixed) : 0
Retry sector count : 0
Damaged sector count : 0

Track 02
Filename : /Users/Desktop/Desktop/Unknown Artist - Disc 6 (Unknown Year) [FLAC]/02 Loser.flac

Track gain : -1.61 dB
Peak : 0.977234
CRC32 hash (test run) : 2F28D0A0
CRC32 hash : 2F28D0A0
CRC32 hash (skip zero) : E5B7F912
AccurateRip v1 signature : F696111C
AccurateRip v2 signature : 0E8C28FD
->Track not present in AccurateRip database.
Statistics
Read error : 0
Jitter error (maybe fixed) : 0
Retry sector count : 0
Damaged sector count : 0

Track 03
Filename : /Users/Desktop/Desktop/Unknown Artist - Disc 6 (Unknown Year) [FLAC]/03 El Paso.flac

Track gain : -0.99 dB
Peak : 0.977112
CRC32 hash (test run) : FFEA4BC5
CRC32 hash : FFEA4BC5
CRC32 hash (skip zero) : 0A3DCFB7
AccurateRip v1 signature : FECEDFF5
AccurateRip v2 signature : 9146D90C
->Track not present in AccurateRip database.
Statistics
Read error : 0
Jitter error (maybe fixed) : 0
Retry sector count : 0
Damaged sector count : 0

Track 04
Filename : /Users/Desktop/Desktop/Unknown Artist - Disc 6 (Unknown Year) [FLAC]/04 They Love Each Other.flac

Track gain : -3.11 dB
Peak : 0.977234
CRC32 hash (test run) : 53915E47
CRC32 hash : 53915E47
CRC32 hash (skip zero) : 03F8AA2D
AccurateRip v1 signature : 9A375A79
AccurateRip v2 signature : 71064F85
->Track not present in AccurateRip database.
Statistics
Read error : 0
Jitter error (maybe fixed) : 0
Retry sector count : 0
Damaged sector count : 0

Track 05
Filename : /Users/Desktop/Desktop/Unknown Artist - Disc 6 (Unknown Year) [FLAC]/05 Jack Straw.flac

Track gain : -3.83 dB
Peak : 0.977264
CRC32 hash (test run) : 94262D85
CRC32 hash : 94262D85
CRC32 hash (skip zero) : 0D02ECA5
AccurateRip v1 signature : 8E686183
AccurateRip v2 signature : 30682ED3
->Track not present in AccurateRip database.
Statistics
Read error : 0
Jitter error (maybe fixed) : 0
Retry sector count : 0
Damaged sector count : 0

Track 06
Filename : /Users/Desktop/Desktop/Unknown Artist - Disc 6 (Unknown Year) [FLAC]/06 Deal.flac

Track gain : -4.25 dB
Peak : 0.977234
CRC32 hash (test run) : CBF2E1A9
CRC32 hash : CBF2E1A9
CRC32 hash (skip zero) : F72C572F
AccurateRip v1 signature : 356BCC62
AccurateRip v2 signature : 98BE21A0
->Track not present in AccurateRip database.
Statistics
Read error : 0
Jitter error (maybe fixed) : 0
Retry sector count : 0
Damaged sector count : 0

Track 07
Filename : /Users/Desktop/Desktop/Unknown Artist - Disc 6 (Unknown Year) [FLAC]/07 Lazy Lightning>.flac

Track gain : -2.81 dB
Peak : 0.977295
CRC32 hash (test run) : BEEDA93D
CRC32 hash : BEEDA93D
CRC32 hash (skip zero) : 1B344D4B
AccurateRip v1 signature : C05A9A54
AccurateRip v2 signature : B07A430B
->Track not present in AccurateRip database.
Statistics
Read error : 0
Jitter error (maybe fixed) : 0
Retry sector count : 0
Damaged sector count : 0

Track 08
Filename : /Users/Desktop/Desktop/Unknown Artist - Disc 6 (Unknown Year) [FLAC]/08 Supplication.flac

Track gain : -2.51 dB
Peak : 0.977264
CRC32 hash (test run) : C0AEA9EE
CRC32 hash : C0AEA9EE
CRC32 hash (skip zero) : 8AD3C300
AccurateRip v1 signature : 59D8E30F
AccurateRip v2 signature : 184EEA3A
->Track not present in AccurateRip database.
Statistics
Read error : 0
Jitter error (maybe fixed) : 0
Retry sector count : 0
Damaged sector count : 0

Track 09
Filename : /Users/Desktop/Desktop/Unknown Artist - Disc 6 (Unknown Year) [FLAC]/09 Brown-Eyed Women.flac

Track gain : -2.73 dB
Peak : 0.977203
CRC32 hash (test run) : B17504AD
CRC32 hash : B17504AD
CRC32 hash (skip zero) : 235B7890
AccurateRip v1 signature : 7508C03F
AccurateRip v2 signature : 55413FC3
->Track not present in AccurateRip database.
Statistics
Read error : 0
Jitter error (maybe fixed) : 0
Retry sector count : 0
Damaged sector count : 0

Track 10
Filename : /Users/Desktop/Desktop/Unknown Artist - Disc 6 (Unknown Year) [FLAC]/10 Mama Tried.flac

Track gain : -2.73 dB
Peak : 0.977234
CRC32 hash (test run) : B77C91D9
CRC32 hash : B77C91D9
CRC32 hash (skip zero) : DF22F631
AccurateRip v1 signature : CB2D71FF
AccurateRip v2 signature : 1CC08A6F
->Track not present in AccurateRip database.
Statistics
Read error : 0
Jitter error (maybe fixed) : 0
Retry sector count : 0
Damaged sector count : 0

Track 11
Filename : /Users/Desktop/Desktop/Unknown Artist - Disc 6 (Unknown Year) [FLAC]/11 Row Jimmy.flac

Track gain : -2.72 dB
Peak : 0.977264
CRC32 hash (test run) : 6EB504E1
CRC32 hash : 6EB504E1
CRC32 hash (skip zero) : 7DAA4F32
AccurateRip v1 signature : A943A421
AccurateRip v2 signature : 30A24A35
->Track not present in AccurateRip database.
Statistics
Read error : 0
Jitter error (maybe fixed) : 0
Retry sector count : 0
Damaged sector count : 0

No errors occurred

End of status report

––-BEGIN XLD SIGNATURE––-
u.HKC5rX_ap3OD2iBDAXPslRgdE_zDIA.F0J5RGnXYdK0XGodExQm8T1ww6DUxxZbGM05oHxlyj2cb3fsTdAVq8ploIWjKU6OqShydm
––-END XLD SIGNATURE––-

X Lossless Decoder version 20161007 (149.3)

XLD extraction logfile from 2017-05-04 22:17:02 -0500

/ Disc 7

Used drive : HL-DT-ST DVDRAM GE24NU40 (revision 3.00)
Media type : Pressed CD

Ripper mode : XLD Secure Ripper
Disable audio cache : OK for the drive with a cache less than 1375KiB
Make use of C2 pointers : NO
Read offset correction : 6
Max retry count : 20
Gap status : Analyzed, Appended (except HTOA)

TOC of the extracted CD
Track | Start | Length | Start sector | End sector
––––––––––––––––––––––––––––-
1 | 00:00:00 | 16:31:41 | 0 | 74365
2 | 16:31:41 | 11:15:22 | 74366 | 125012
3 | 27:46:63 | 15:40:32 | 125013 | 195544
4 | 43:27:20 | 08:48:42 | 195545 | 235186

AccurateRip Summary
Disc not found in AccurateRip DB.

All Tracks
Album gain : -4.12 dB
Peak : 0.977295
Statistics
Read error : 0
Jitter error (maybe fixed) : 0
Retry sector count : 0
Damaged sector count : 0

Track 01
Filename : /Users/Desktop/Desktop/Unknown Artist - Disc 7 (Unknown Year) [FLAC]/01 Dancing In The Street.flac
Pre-gap length : 00:02:00

Track gain : -3.96 dB
Peak : 0.977295
CRC32 hash (test run) : 428032E4
CRC32 hash : 428032E4
CRC32 hash (skip zero) : 0AABC6A5
AccurateRip v1 signature : 83724475
AccurateRip v2 signature : 56354DA7
->Track not present in AccurateRip database.
Statistics
Read error : 0
Jitter error (maybe fixed) : 0
Retry sector count : 0
Damaged sector count : 0

Track 02
Filename : /Users/Desktop/Desktop/Unknown Artist - Disc 7 (Unknown Year) [FLAC]/02 Scarlet Begonias>.flac

Track gain : -3.26 dB
Peak : 0.977264
CRC32 hash (test run) : D329B5D5
CRC32 hash : D329B5D5
CRC32 hash (skip zero) : BB6C0416
AccurateRip v1 signature : CABEDC8C
AccurateRip v2 signature : 6F51EF6E
->Track not present in AccurateRip database.
Statistics
Read error : 0
Jitter error (maybe fixed) : 0
Retry sector count : 0
Damaged sector count : 0

Track 03
Filename : /Users/Desktop/Desktop/Unknown Artist - Disc 7 (Unknown Year) [FLAC]/03 Fire On The Mountain.flac

Track gain : -4.30 dB
Peak : 0.977295
CRC32 hash (test run) : 5D94CDB3
CRC32 hash : 5D94CDB3
CRC32 hash (skip zero) : 8D2F72FE
AccurateRip v1 signature : 17F820AD
AccurateRip v2 signature : 9369B15F
->Track not present in AccurateRip database.
Statistics
Read error : 0
Jitter error (maybe fixed) : 0
Retry sector count : 0
Damaged sector count : 0

Track 04
Filename : /Users/Desktop/Desktop/Unknown Artist - Disc 7 (Unknown Year) [FLAC]/04 Estimated Prophet.flac

Track gain : -4.60 dB
Peak : 0.977264
CRC32 hash (test run) : FDD2D8F6
CRC32 hash : FDD2D8F6
CRC32 hash (skip zero) : A484CEA8
AccurateRip v1 signature : 208C49BE
AccurateRip v2 signature : 182C0257
->Track not present in AccurateRip database.
Statistics
Read error : 0
Jitter error (maybe fixed) : 0
Retry sector count : 0
Damaged sector count : 0

No errors occurred

End of status report

––-BEGIN XLD SIGNATURE––-
WkgJnbcQ3U9t9cu6BmPRTWD3tj2y1rD2CN9vp9oZoKuUSjMlSPI9SilI_3Zm31B8RbjObUSggisX57zTKitQ56PQ5sZ_PgvRN5lCFZ4
––-END XLD SIGNATURE––-

X Lossless Decoder version 20161007 (149.3)

XLD extraction logfile from 2017-05-04 22:28:21 -0500

/ Disc 8

Used drive : HL-DT-ST DVDRAM GE24NU40 (revision 3.00)
Media type : Pressed CD

Ripper mode : XLD Secure Ripper
Disable audio cache : OK for the drive with a cache less than 1375KiB
Make use of C2 pointers : NO
Read offset correction : 6
Max retry count : 20
Gap status : Analyzed, Appended (except HTOA)

TOC of the extracted CD
Track | Start | Length | Start sector | End sector
––––––––––––––––––––––––––––-
1 | 00:00:00 | 05:02:68 | 0 | 22717
2 | 05:02:68 | 16:20:17 | 22718 | 96234
3 | 21:23:10 | 01:54:06 | 96235 | 104790
4 | 23:17:16 | 14:17:16 | 104791 | 169081
5 | 37:34:32 | 05:10:06 | 169082 | 192337

AccurateRip Summary
Disc not found in AccurateRip DB.

All Tracks
Album gain : -3.91 dB
Peak : 0.977295
Statistics
Read error : 0
Jitter error (maybe fixed) : 0
Retry sector count : 0
Damaged sector count : 0

Track 01
Filename : /Users/Desktop/Desktop/Unknown Artist - Disc 8 (Unknown Year) [FLAC]/01 St. Stephen>.flac
Pre-gap length : 00:02:00

Track gain : -3.52 dB
Peak : 0.977264
CRC32 hash (test run) : 8A0E9300
CRC32 hash : 8A0E9300
CRC32 hash (skip zero) : AC3CB506
AccurateRip v1 signature : 30A83B38
AccurateRip v2 signature : 0CD4354C
->Track not present in AccurateRip database.
Statistics
Read error : 0
Jitter error (maybe fixed) : 0
Retry sector count : 0
Damaged sector count : 0

Track 02
Filename : /Users/Desktop/Desktop/Unknown Artist - Disc 8 (Unknown Year) [FLAC]/02 Not Fade Away>.flac

Track gain : -3.56 dB
Peak : 0.977264
CRC32 hash (test run) : C25D941F
CRC32 hash : C25D941F
CRC32 hash (skip zero) : 4A82F00B
AccurateRip v1 signature : 44BB90F7
AccurateRip v2 signature : F753F862
->Track not present in AccurateRip database.
Statistics
Read error : 0
Jitter error (maybe fixed) : 0
Retry sector count : 0
Damaged sector count : 0

Track 03
Filename : /Users/Desktop/Desktop/Unknown Artist - Disc 8 (Unknown Year) [FLAC]/03 St. Stephen>.flac

Track gain : -4.80 dB
Peak : 0.977264
CRC32 hash (test run) : 88CA9373
CRC32 hash : 88CA9373
CRC32 hash (skip zero) : 13366BF9
AccurateRip v1 signature : 30334084
AccurateRip v2 signature : 81FE45C4
->Track not present in AccurateRip database.
Statistics
Read error : 0
Jitter error (maybe fixed) : 0
Retry sector count : 0
Damaged sector count : 0

Track 04
Filename : /Users/Desktop/Desktop/Unknown Artist - Disc 8 (Unknown Year) [FLAC]/04 Morning Dew.flac

Track gain : -3.81 dB
Peak : 0.977295
CRC32 hash (test run) : 5B38EB1C
CRC32 hash : 5B38EB1C
CRC32 hash (skip zero) : 7F522D2C
AccurateRip v1 signature : 82484EA6
AccurateRip v2 signature : 94E22CD4
->Track not present in AccurateRip database.
Statistics
Read error : 0
Jitter error (maybe fixed) : 0
Retry sector count : 0
Damaged sector count : 0

Track 05
Filename : /Users/Desktop/Desktop/Unknown Artist - Disc 8 (Unknown Year) [FLAC]/05 One More Saturday Night.flac

Track gain : -4.70 dB
Peak : 0.977264
CRC32 hash (test run) : 2A0892D0
CRC32 hash : 2A0892D0
CRC32 hash (skip zero) : 451DA464
AccurateRip v1 signature : C0147F17
AccurateRip v2 signature : 8CBCA9A9
->Track not present in AccurateRip database.
Statistics
Read error : 0
Jitter error (maybe fixed) : 0
Retry sector count : 0
Damaged sector count : 0

No errors occurred

End of status report

––-BEGIN XLD SIGNATURE––-
VNP__.fziVuix0TF4lZitblov.w9uaKBrzOkU3DzZSF.Peizw3a10YIJ4BwpdAG12UQ6GMe5s4fLB2t4NiV1GM67p_sN1LkadvgGF2q
––-END XLD SIGNATURE––-

X Lossless Decoder version 20161007 (149.3)

XLD extraction logfile from 2017-05-04 22:40:10 -0500

/ Disc 9

Used drive : HL-DT-ST DVDRAM GE24NU40 (revision 3.00)
Media type : Pressed CD

Ripper mode : XLD Secure Ripper
Disable audio cache : OK for the drive with a cache less than 1375KiB
Make use of C2 pointers : NO
Read offset correction : 6
Max retry count : 20
Gap status : Analyzed, Appended (except HTOA)

TOC of the extracted CD
Track | Start | Length | Start sector | End sector
––––––––––––––––––––––––––––-
1 | 00:00:00 | 06:00:34 | 0 | 27033
2 | 06:00:34 | 07:03:36 | 27034 | 58794
3 | 13:03:70 | 13:57:74 | 58795 | 121643
4 | 27:01:69 | 05:00:42 | 121644 | 144185
5 | 32:02:36 | 05:51:18 | 144186 | 170528
6 | 37:53:54 | 04:04:49 | 170529 | 188877
7 | 41:58:28 | 08:48:57 | 188878 | 228534
8 | 50:47:10 | 07:26:52 | 228535 | 262036
9 | 58:13:62 | 07:54:07 | 262037 | 297593
10 | 66:07:69 | 04:05:40 | 297594 | 316008
11 | 70:13:34 | 07:49:31 | 316009 | 351214

AccurateRip Summary
Disc not found in AccurateRip DB.

All Tracks
Album gain : -4.25 dB
Peak : 0.977325
Statistics
Read error : 0
Jitter error (maybe fixed) : 0
Retry sector count : 0
Damaged sector count : 0

Track 01
Filename : /Users/Desktop/Desktop/Unknown Artist - Disc 9 (Unknown Year) [FLAC]/01 Help On The Way>.flac
Pre-gap length : 00:02:00

Track gain : -3.03 dB
Peak : 0.977264
CRC32 hash (test run) : 7F404105
CRC32 hash : 7F404105
CRC32 hash (skip zero) : 272CFC69
AccurateRip v1 signature : F66B195F
AccurateRip v2 signature : 1C3383CE
->Track not present in AccurateRip database.
Statistics
Read error : 0
Jitter error (maybe fixed) : 0
Retry sector count : 0
Damaged sector count : 0

Track 02
Filename : /Users/Desktop/Desktop/Unknown Artist - Disc 9 (Unknown Year) [FLAC]/02 Slipknot>.flac

Track gain : -1.91 dB
Peak : 0.977264
CRC32 hash (test run) : 9D43EF34
CRC32 hash : 9D43EF34
CRC32 hash (skip zero) : 2CA1B02F
AccurateRip v1 signature : 263BE2F0
AccurateRip v2 signature : 521D03B5
->Track not present in AccurateRip database.
Statistics
Read error : 0
Jitter error (maybe fixed) : 0
Retry sector count : 0
Damaged sector count : 0

Track 03
Filename : /Users/Desktop/Desktop/Unknown Artist - Disc 9 (Unknown Year) [FLAC]/03 Franklins Tower.flac

Track gain : -3.30 dB
Peak : 0.977325
CRC32 hash (test run) : E1DCDEB6
CRC32 hash : E1DCDEB6
CRC32 hash (skip zero) : 0B65A066
AccurateRip v1 signature : 187F78F4
AccurateRip v2 signature : 97E60EF2
->Track not present in AccurateRip database.
Statistics
Read error : 0
Jitter error (maybe fixed) : 0
Retry sector count : 0
Damaged sector count : 0

Track 04
Filename : /Users/Desktop/Desktop/Unknown Artist - Disc 9 (Unknown Year) [FLAC]/04 Cassidy.flac

Track gain : -4.02 dB
Peak : 0.977264
CRC32 hash (test run) : 8367575E
CRC32 hash : 8367575E
CRC32 hash (skip zero) : EF44F122
AccurateRip v1 signature : 528D3616
AccurateRip v2 signature : 078A4393
->Track not present in AccurateRip database.
Statistics
Read error : 0
Jitter error (maybe fixed) : 0
Retry sector count : 0
Damaged sector count : 0

Track 05
Filename : /Users/Desktop/Desktop/Unknown Artist - Disc 9 (Unknown Year) [FLAC]/05 Brown-Eyed Women.flac

Track gain : -4.51 dB
Peak : 0.977264
CRC32 hash (test run) : 242C93B0
CRC32 hash : 242C93B0
CRC32 hash (skip zero) : 6BBD82E3
AccurateRip v1 signature : E75341DC
AccurateRip v2 signature : 554C37CE
->Track not present in AccurateRip database.
Statistics
Read error : 0
Jitter error (maybe fixed) : 0
Retry sector count : 0
Damaged sector count : 0

Track 06
Filename : /Users/Desktop/Desktop/Unknown Artist - Disc 9 (Unknown Year) [FLAC]/06 Mexicali Blues.flac

Track gain : -4.21 dB
Peak : 0.977264
CRC32 hash (test run) : 93820248
CRC32 hash : 93820248
CRC32 hash (skip zero) : A7697E97
AccurateRip v1 signature : A6A1D808
AccurateRip v2 signature : 6274BDC5
->Track not present in AccurateRip database.
Statistics
Read error : 0
Jitter error (maybe fixed) : 0
Retry sector count : 0
Damaged sector count : 0

Track 07
Filename : /Users/Desktop/Desktop/Unknown Artist - Disc 9 (Unknown Year) [FLAC]/07 Tennessee Jed.flac

Track gain : -4.57 dB
Peak : 0.977264
CRC32 hash (test run) : 253AC158
CRC32 hash : 253AC158
CRC32 hash (skip zero) : 1E663E19
AccurateRip v1 signature : FCA4E477
AccurateRip v2 signature : 3FF6AFE5
->Track not present in AccurateRip database.
Statistics
Read error : 0
Jitter error (maybe fixed) : 0
Retry sector count : 0
Damaged sector count : 0

Track 08
Filename : /Users/Desktop/Desktop/Unknown Artist - Disc 9 (Unknown Year) [FLAC]/08 Big River.flac

Track gain : -5.21 dB
Peak : 0.977264
CRC32 hash (test run) : 36560B34
CRC32 hash : 36560B34
CRC32 hash (skip zero) : 0A5F52FA
AccurateRip v1 signature : 127C9E15
AccurateRip v2 signature : 6D314EB2
->Track not present in AccurateRip database.
Statistics
Read error : 0
Jitter error (maybe fixed) : 0
Retry sector count : 0
Damaged sector count : 0

Track 09
Filename : /Users/Desktop/Desktop/Unknown Artist - Disc 9 (Unknown Year) [FLAC]/09 Peggy-O.flac

Track gain : -3.19 dB
Peak : 0.977264
CRC32 hash (test run) : 4532AF1D
CRC32 hash : 4532AF1D
CRC32 hash (skip zero) : FB8D35C8
AccurateRip v1 signature : 9C5A6D1B
AccurateRip v2 signature : 020A846E
->Track not present in AccurateRip database.
Statistics
Read error : 0
Jitter error (maybe fixed) : 0
Retry sector count : 0
Damaged sector count : 0

Track 10
Filename : /Users/Desktop/Desktop/Unknown Artist - Disc 9 (Unknown Year) [FLAC]/10 Sunrise.flac

Track gain : -3.34 dB
Peak : 0.977203
CRC32 hash (test run) : 72F37DFE
CRC32 hash : 72F37DFE
CRC32 hash (skip zero) : 0198B349
AccurateRip v1 signature : 27F133BC
AccurateRip v2 signature : 359AEBC4
->Track not present in AccurateRip database.
Statistics
Read error : 0
Jitter error (maybe fixed) : 0
Retry sector count : 0
Damaged sector count : 0

Track 11
Filename : /Users/Desktop/Desktop/Unknown Artist - Disc 9 (Unknown Year) [FLAC]/11 The Music Never Stopped.flac

Track gain : -5.31 dB
Peak : 0.977295
CRC32 hash (test run) : 460F3566
CRC32 hash : 460F3566
CRC32 hash (skip zero) : 291A34AE
AccurateRip v1 signature : 05D46ED0
AccurateRip v2 signature : CCE3AA6D
->Track not present in AccurateRip database.
Statistics
Read error : 0
Jitter error (maybe fixed) : 0
Retry sector count : 0
Damaged sector count : 0

No errors occurred

End of status report

––-BEGIN XLD SIGNATURE––-
YoejncfCNv8lCiVwWzMCTob.Y2vxKN.Fg3.8boLbczv4K9va3ZanAtAAHXIcGMNBBZTFIgyGdqzscF1gfgXE8T4LvrRRVaNwanVkjcm
––-END XLD SIGNATURE––-

X Lossless Decoder version 20161007 (149.3)

XLD extraction logfile from 2017-05-04 22:54:41 -0500

/ Disc 10

Used drive : HL-DT-ST DVDRAM GE24NU40 (revision 3.00)
Media type : Pressed CD

Ripper mode : XLD Secure Ripper
Disable audio cache : OK for the drive with a cache less than 1375KiB
Make use of C2 pointers : NO
Read offset correction : 6
Max retry count : 20
Gap status : Analyzed, Appended (except HTOA)

TOC of the extracted CD
Track | Start | Length | Start sector | End sector
––––––––––––––––––––––––––––-
1 | 00:00:00 | 07:25:48 | 0 | 33422
2 | 07:25:48 | 06:22:11 | 33423 | 62083
3 | 13:47:59 | 07:48:48 | 62084 | 97231

AccurateRip Summary
Disc not found in AccurateRip DB.

All Tracks
Album gain : -4.99 dB
Peak : 0.977295
Statistics
Read error : 0
Jitter error (maybe fixed) : 0
Retry sector count : 0
Damaged sector count : 0

Track 01
Filename : /Users/Desktop/Desktop/Unknown Artist - Disc 10 (Unknown Year) [FLAC]/01 Bertha>.flac
Pre-gap length : 00:02:00

Track gain : -4.29 dB
Peak : 0.977264
CRC32 hash (test run) : F1342E48
CRC32 hash : F1342E48
CRC32 hash (skip zero) : 63798DFF
AccurateRip v1 signature : EA55511F
AccurateRip v2 signature : EEB83E08
->Track not present in AccurateRip database.
Statistics
Read error : 0
Jitter error (maybe fixed) : 0
Retry sector count : 0
Damaged sector count : 0

Track 02
Filename : /Users/Desktop/Desktop/Unknown Artist - Disc 10 (Unknown Year) [FLAC]/02 Good Lovin'.flac

Track gain : -6.00 dB
Peak : 0.977295
CRC32 hash (test run) : 84E30078
CRC32 hash : 84E30078
CRC32 hash (skip zero) : F930759E
AccurateRip v1 signature : 40B8CC29
AccurateRip v2 signature : 5B05DA30
->Track not present in AccurateRip database.
Statistics
Read error : 0
Jitter error (maybe fixed) : 0
Retry sector count : 0
Damaged sector count : 0

Track 03
Filename : /Users/Desktop/Desktop/Unknown Artist - Disc 10 (Unknown Year) [FLAC]/03 Ship Of Fools.flac

Track gain : -3.91 dB
Peak : 0.977264
CRC32 hash (test run) : 1A5FA83C
CRC32 hash : 1A5FA83C
CRC32 hash (skip zero) : AE31AEC1
AccurateRip v1 signature : E3B9AEA8
AccurateRip v2 signature : EF94237E
->Track not present in AccurateRip database.
Statistics
Read error : 0
Jitter error (maybe fixed) : 0
Retry sector count : 0
Damaged sector count : 0

No errors occurred

End of status report

––-BEGIN XLD SIGNATURE––-
3TcVZo8_uMmVKQQ6VR5OPCMu60_sXdeOaWNC1CamkWcC7rpIhc7MzyJU27Tej0JWkzmbb4lQAzFbxY3Py_bhhA1iRRqbUdX2lL.Xj14
––-END XLD SIGNATURE––-

X Lossless Decoder version 20161007 (149.3)

XLD extraction logfile from 2017-05-04 23:01:49 -0500

/ Disc 11

Used drive : HL-DT-ST DVDRAM GE24NU40 (revision 3.00)
Media type : Pressed CD

Ripper mode : XLD Secure Ripper
Disable audio cache : OK for the drive with a cache less than 1375KiB
Make use of C2 pointers : NO
Read offset correction : 6
Max retry count : 20
Gap status : Analyzed, Appended (except HTOA)

TOC of the extracted CD
Track | Start | Length | Start sector | End sector
––––––––––––––––––––––––––––-
1 | 00:00:00 | 10:13:25 | 0 | 45999
2 | 10:13:25 | 06:16:18 | 46000 | 74217
3 | 16:29:43 | 03:32:25 | 74218 | 90142
4 | 20:01:68 | 10:13:21 | 90143 | 136138
5 | 30:15:14 | 11:33:52 | 136139 | 188165
6 | 41:48:66 | 10:16:55 | 188166 | 234420
7 | 52:05:46 | 09:30:36 | 234421 | 277206

AccurateRip Summary
Disc not found in AccurateRip DB.

All Tracks
Album gain : -3.71 dB
Peak : 0.977295
Statistics
Read error : 0
Jitter error (maybe fixed) : 0
Retry sector count : 0
Damaged sector count : 0

Track 01
Filename : /Users/Desktop/Desktop/Unknown Artist - Disc 11 (Unknown Year) [FLAC]/01 Estimated Prophet>.flac
Pre-gap length : 00:02:00

Track gain : -2.73 dB
Peak : 0.977234
CRC32 hash (test run) : 522D6CB5
CRC32 hash : 522D6CB5
CRC32 hash (skip zero) : CDB8F292
AccurateRip v1 signature : D1298C7D
AccurateRip v2 signature : E829E033
->Track not present in AccurateRip database.
Statistics
Read error : 0
Jitter error (maybe fixed) : 0
Retry sector count : 0
Damaged sector count : 0

Track 02
Filename : /Users/Desktop/Desktop/Unknown Artist - Disc 11 (Unknown Year) [FLAC]/02 The Other One>.flac

Track gain : -3.25 dB
Peak : 0.977264
CRC32 hash (test run) : B45B60A6
CRC32 hash : B45B60A6
CRC32 hash (skip zero) : B71F4B30
AccurateRip v1 signature : 58D93266
AccurateRip v2 signature : 95AB4855
->Track not present in AccurateRip database.
Statistics
Read error : 0
Jitter error (maybe fixed) : 0
Retry sector count : 0
Damaged sector count : 0

Track 03
Filename : /Users/Desktop/Desktop/Unknown Artist - Disc 11 (Unknown Year) [FLAC]/03 Drums>.flac

Track gain : 3.06 dB
Peak : 0.977234
CRC32 hash (test run) : AEF4BE93
CRC32 hash : AEF4BE93
CRC32 hash (skip zero) : 3624CAB9
AccurateRip v1 signature : D48C7CB0
AccurateRip v2 signature : 642E5151
->Track not present in AccurateRip database.
Statistics
Read error : 0
Jitter error (maybe fixed) : 0
Retry sector count : 0
Damaged sector count : 0

Track 04
Filename : /Users/Desktop/Desktop/Unknown Artist - Disc 11 (Unknown Year) [FLAC]/04 Not Fade Away>.flac

Track gain : -4.44 dB
Peak : 0.977264
CRC32 hash (test run) : 870EEA0A
CRC32 hash : 870EEA0A
CRC32 hash (skip zero) : FC310E20
AccurateRip v1 signature : 335B8945
AccurateRip v2 signature : A26F61A6
->Track not present in AccurateRip database.
Statistics
Read error : 0
Jitter error (maybe fixed) : 0
Retry sector count : 0
Damaged sector count : 0

Track 05
Filename : /Users/Desktop/Desktop/Unknown Artist - Disc 11 (Unknown Year) [FLAC]/05 Comes A Time>.flac

Track gain : -1.16 dB
Peak : 0.977264
CRC32 hash (test run) : D50AD69F
CRC32 hash : D50AD69F
CRC32 hash (skip zero) : 6933D03F
AccurateRip v1 signature : 051437EF
AccurateRip v2 signature : 35AAF982
->Track not present in AccurateRip database.
Statistics
Read error : 0
Jitter error (maybe fixed) : 0
Retry sector count : 0
Damaged sector count : 0

Track 06
Filename : /Users/Desktop/Desktop/Unknown Artist - Disc 11 (Unknown Year) [FLAC]/06 Sugar Magnolia.flac

Track gain : -5.26 dB
Peak : 0.977295
CRC32 hash (test run) : 2B40B90C
CRC32 hash : 2B40B90C
CRC32 hash (skip zero) : 6E41F6D9
AccurateRip v1 signature : A632201D
AccurateRip v2 signature : 0398860F
->Track not present in AccurateRip database.
Statistics
Read error : 0
Jitter error (maybe fixed) : 0
Retry sector count : 0
Damaged sector count : 0

Track 07
Filename : /Users/Desktop/Desktop/Unknown Artist - Disc 11 (Unknown Year) [FLAC]/07 Uncle Johns Band.flac

Track gain : -2.93 dB
Peak : 0.977264
CRC32 hash (test run) : 3B90BFD8
CRC32 hash : 3B90BFD8
CRC32 hash (skip zero) : 248FA143
AccurateRip v1 signature : 73E031E0
AccurateRip v2 signature : DE628D05
->Track not present in AccurateRip database.
Statistics
Read error : 0
Jitter error (maybe fixed) : 0
Retry sector count : 0
Damaged sector count : 0

No errors occurred

End of status report

––-BEGIN XLD SIGNATURE––-
ZI4ZdobmyuINBwhxxMVcnaB.lt.rfiWMBbvLZEob9bI7Rt.eH9.aDaHnrWfH3RVoc4TwsfSXgIL4OBDItsMKga2W1W_Fh8dSFkQKpSq
––-END XLD SIGNATURE––-

Thanks to the Original ripper BanjoMoon !