Subcategories

Grateful Dead - New Year's Eve 1982, Oakland Auditorium Arena (2016) {3CD Box Set Limited 1000 Mojo Filter MFRCD2006}

Posted By: ruskaval
Grateful Dead - New Year's Eve 1982, Oakland Auditorium Arena (2016) {3CD Box Set Limited 1000 Mojo Filter MFRCD2006}

Grateful Dead - New Year's Eve 1982, Oakland Auditorium Arena (2016) {3CD Box Set Limited 1000 Mojo Filter MFRCD2006}
EAC rip (secure mode) | FLAC (tracks)+CUE+LOG -> 1.03 Gb | MP3 @320 -> 390 Mb
Full Artwork @ 300 dpi (jpg) -> 6 Mb | 5% repair rar
© 1982, 2016 Mojo Filter Records | MFRCD2006
Rock / Classic Rock / Psychedelic / Folk Rock / Jam Band

Bill Graham rides in on a giant mushroom.

Etta James and Tower of Power Horns featured as well as the mercurial John Cipollina on "Not Fade Away", "Deal" and "Sunshine Daydream".

Acclaimed vocalist Etta James was born on this day in Los Angeles in 1938. The golden-voiced performer died in 2012 days before what would have been her 74th birthday, bringing to an end her Rock And Roll Hall Of Fame career. Known for such classic hits such as “At Last,” “I’d Rather Go Blind,” “Something’s Got a Hold on Me” and “Tell Mama” James’ sang alongside a diverse array of musicians during her time in the studio and on stage, including Harvey Fuqua, Dr. John, B.B. King, Chuck Berry and many others. For what would be Etta’s 78th birthday today, we’re looking back at the time she joined the Grateful Dead for a performance on New Year’s Eve in 1982.

In 1982 the Grateful Dead rang in the new year with five shows at the Oakland Auditorium Arena on December 26, 27, 28, 30 and 31. On December 30 the band treated fans to a special encore, busting out a cover of “Hard To Handle” for the first time since 1971 and debuting “Tell Mama” – both with the aid of Etta James and the Tower of Power horns. One night later on New Year’s Eve they dusted off more classics last played with Ron “Pigpen” McKernan acting as frontman, as the Dead’s entire third set featured a return of James and the horns for “Turn On Your Love Light,” “Tell Mama,” their first “Baby What You Want Me To Do” since 1969, “Hard To Handle” and a bust out of “Midnight Hour” which the group had last played in 1971.
Grateful Dead - New Year's Eve 1982, Oakland Auditorium Arena (2016) {3CD Box Set Limited 1000 Mojo Filter MFRCD2006}


tracklist:

Disc 1


Cold, Rain, & Snow C.C. Rider Cumberland Blues Far From Me Cassidy Ramble on Rose Looks Like Rain Day Job

Grateful Dead - New Year's Eve 1982, Oakland Auditorium Arena (2016) {3CD Box Set Limited 1000 Mojo Filter MFRCD2006}


Disc 2

Sugar Magnolia > Sugaree > Man Smart, Woman Smarter Ship of Fools Playing in the Band > Drums > Space > Not Fade Away Deal > Sunshine Daydream

Grateful Dead - New Year's Eve 1982, Oakland Auditorium Arena (2016) {3CD Box Set Limited 1000 Mojo Filter MFRCD2006}


Disc 3

Turn on Your Love Light > Tell Mama Baby What You Want Me To Do? Hard to Handle Midnight Hour ENCORE Brokedown Palace

Grateful Dead - New Year's Eve 1982, Oakland Auditorium Arena (2016) {3CD Box Set Limited 1000 Mojo Filter MFRCD2006}


Exact Audio Copy V1.2 from 12. August 2016

EAC extraction logfile from 18. October 2017, 11:28

Grateful Dead / New Years Eve 1982 CD1

Used drive : TSSTcorpCDDVDW SE-S084F Adapter: 1 ID: 1

Read mode : Secure
Utilize accurate stream : Yes
Defeat audio cache : Yes
Make use of C2 pointers : No

Read offset correction : 6
Overread into Lead-In and Lead-Out : No
Fill up missing offset samples with silence : Yes
Delete leading and trailing silent blocks : No
Null samples used in CRC calculations : Yes
Used interface : Native Win32 interface for Win NT & 2000
Gap handling : Appended to previous track

Used output format : User Defined Encoder
Selected bitrate : 1024 kBit/s
Quality : High
Add ID3 tag : No
Command line compressor : C:\Program Files (x86)\Exact Audio Copy\Flac\flac.exe
Additional command line options : -8 -V -T "ARTIST=%artist%" -T "TITLE=%title%" -T "ALBUM=%albumtitle%" -T "DATE=%year%" -T "TRACKNUMBER=%tracknr%" -T "GENRE=%genre%" -T "PERFORMER=%albuminterpret%" -T "COMPOSER=%composer%" %haslyrics%–tag-from-file=LYRICS="%lyricsfile%"%haslyrics% -T "ALBUMARTIST=%albumartist%" -T "DISCNUMBER=%cdnumber%" -T "TOTALDISCS=%totalcds%" -T "TOTALTRACKS=%numtracks%" -T "COMMENT=%comment%" %source% -o %dest%


TOC of the extracted CD

Track | Start | Length | Start sector | End sector
––––––––––––––––––––––––––––-
1 | 0:00.00 | 6:27.41 | 0 | 29065
2 | 6:27.41 | 9:06.58 | 29066 | 70073
3 | 15:34.24 | 5:13.45 | 70074 | 93593
4 | 20:47.69 | 4:39.04 | 93594 | 114522
5 | 25:26.73 | 5:35.26 | 114523 | 139673
6 | 31:02.24 | 7:17.12 | 139674 | 172460
7 | 38:19.36 | 7:36.04 | 172461 | 206664
8 | 45:55.40 | 5:43.20 | 206665 | 232409


Track 1

Filename C:\Users\ian\Desktop\Grateful Dead - New Years Eve 1982 (2016) [FLAC] {Limited1000 3CD)\New Years Eve 1982 CD1\01 - Cold, Rain, & Snow.wav

Pre-gap length 0:00:02.00

Peak level 100.0 %
Extraction speed 2.8 X
Track quality 100.0 %
Test CRC 4056B778
Copy CRC 4056B778
Track not present in AccurateRip database
Copy OK

Track 2

Filename C:\Users\ian\Desktop\Grateful Dead - New Years Eve 1982 (2016) [FLAC] {Limited1000 3CD)\New Years Eve 1982 CD1\02 - C.C. Rider.wav

Peak level 98.7 %
Extraction speed 3.1 X
Track quality 99.9 %
Test CRC 96DBCE64
Copy CRC 96DBCE64
Track not present in AccurateRip database
Copy OK

Track 3

Filename C:\Users\ian\Desktop\Grateful Dead - New Years Eve 1982 (2016) [FLAC] {Limited1000 3CD)\New Years Eve 1982 CD1\03 - Cumberland Blues.wav

Peak level 100.0 %
Extraction speed 3.6 X
Track quality 100.0 %
Test CRC C795270E
Copy CRC C795270E
Track not present in AccurateRip database
Copy OK

Track 4

Filename C:\Users\ian\Desktop\Grateful Dead - New Years Eve 1982 (2016) [FLAC] {Limited1000 3CD)\New Years Eve 1982 CD1\04 - Far From Me.wav

Peak level 100.0 %
Extraction speed 3.8 X
Track quality 100.0 %
Test CRC DB7E1016
Copy CRC DB7E1016
Track not present in AccurateRip database
Copy OK

Track 5

Filename C:\Users\ian\Desktop\Grateful Dead - New Years Eve 1982 (2016) [FLAC] {Limited1000 3CD)\New Years Eve 1982 CD1\05 - Cassidy.wav

Peak level 99.4 %
Extraction speed 4.1 X
Track quality 100.0 %
Test CRC FD1430C7
Copy CRC FD1430C7
Track not present in AccurateRip database
Copy OK

Track 6

Filename C:\Users\ian\Desktop\Grateful Dead - New Years Eve 1982 (2016) [FLAC] {Limited1000 3CD)\New Years Eve 1982 CD1\06 - Ramble on Rose.wav

Peak level 99.3 %
Extraction speed 4.5 X
Track quality 100.0 %
Test CRC 0742020C
Copy CRC 0742020C
Track not present in AccurateRip database
Copy OK

Track 7

Filename C:\Users\ian\Desktop\Grateful Dead - New Years Eve 1982 (2016) [FLAC] {Limited1000 3CD)\New Years Eve 1982 CD1\07 - Looks Like Rain.wav

Peak level 100.0 %
Extraction speed 2.9 X
Track quality 99.8 %
Test CRC BB640897
Copy CRC BB640897
Track not present in AccurateRip database
Copy OK

Track 8

Filename C:\Users\ian\Desktop\Grateful Dead - New Years Eve 1982 (2016) [FLAC] {Limited1000 3CD)\New Years Eve 1982 CD1\08 - Day Job.wav

Peak level 99.7 %
Extraction speed 3.2 X
Track quality 99.9 %
Test CRC 16A61C6F
Copy CRC 16A61C6F
Track not present in AccurateRip database
Copy OK


None of the tracks are present in the AccurateRip database

No errors occurred

End of status report

–– CUETools DB Plugin V2.1.6

[CTDB TOCID: TUQsYpKhMym4kqE3ixKX29a7tB4-] disk not present in database
Submit result: TUQsYpKhMym4kqE3ixKX29a7tB4- has been uploaded


==== Log checksum 8C83865D0DABC909C8152421480EA4CCD767AC86F7E9F0A2BB9332BD53D2F6D0 ====



Exact Audio Copy V1.2 from 12. August 2016

EAC extraction logfile from 18. October 2017, 13:25

Grateful Dead / New Years Eve 1982 CD2

Used drive : TSSTcorpCDDVDW SE-S084F Adapter: 1 ID: 1

Read mode : Secure
Utilize accurate stream : Yes
Defeat audio cache : Yes
Make use of C2 pointers : No

Read offset correction : 6
Overread into Lead-In and Lead-Out : No
Fill up missing offset samples with silence : Yes
Delete leading and trailing silent blocks : No
Null samples used in CRC calculations : Yes
Used interface : Native Win32 interface for Win NT & 2000
Gap handling : Appended to previous track

Used output format : User Defined Encoder
Selected bitrate : 1024 kBit/s
Quality : High
Add ID3 tag : No
Command line compressor : C:\Program Files (x86)\Exact Audio Copy\Flac\flac.exe
Additional command line options : -8 -V -T "ARTIST=%artist%" -T "TITLE=%title%" -T "ALBUM=%albumtitle%" -T "DATE=%year%" -T "TRACKNUMBER=%tracknr%" -T "GENRE=%genre%" -T "PERFORMER=%albuminterpret%" -T "COMPOSER=%composer%" %haslyrics%–tag-from-file=LYRICS="%lyricsfile%"%haslyrics% -T "ALBUMARTIST=%albumartist%" -T "DISCNUMBER=%cdnumber%" -T "TOTALDISCS=%totalcds%" -T "TOTALTRACKS=%numtracks%" -T "COMMENT=%comment%" %source% -o %dest%


TOC of the extracted CD

Track | Start | Length | Start sector | End sector
––––––––––––––––––––––––––––-
1 | 0:00.00 | 3:00.53 | 0 | 13552
2 | 3:00.53 | 6:02.09 | 13553 | 40711
3 | 9:02.62 | 10:28.31 | 40712 | 87842
4 | 19:31.18 | 6:45.52 | 87843 | 118269
5 | 26:16.70 | 8:02.63 | 118270 | 154482
6 | 34:19.58 | 9:26.16 | 154483 | 196948
7 | 43:45.74 | 7:42.41 | 196949 | 231639
8 | 51:28.40 | 5:20.36 | 231640 | 255675
9 | 56:49.01 | 10:29.74 | 255676 | 302924
10 | 67:19.00 | 6:30.63 | 302925 | 332237
11 | 73:49.63 | 3:37.11 | 332238 | 348523


Track 1

Filename C:\Users\ian\Desktop\Grateful Dead - New Years Eve 1982 (2016) [FLAC] {Limited1000 3CD)\New Years Eve 1982 CD2\01 - Midnight Madness.wav

Pre-gap length 0:00:02.00

Peak level 79.3 %
Extraction speed 1.0 X
Track quality 100.0 %
Test CRC 1899A22A
Copy CRC 1899A22A
Track not present in AccurateRip database
Copy OK

Track 2

Filename C:\Users\ian\Desktop\Grateful Dead - New Years Eve 1982 (2016) [FLAC] {Limited1000 3CD)\New Years Eve 1982 CD2\02 - Sugar Magnolia.wav

Peak level 99.8 %
Extraction speed 1.2 X
Track quality 100.0 %
Test CRC A0FC12AB
Copy CRC A0FC12AB
Track not present in AccurateRip database
Copy OK

Track 3

Filename C:\Users\ian\Desktop\Grateful Dead - New Years Eve 1982 (2016) [FLAC] {Limited1000 3CD)\New Years Eve 1982 CD2\03 - Sugaree.wav

Peak level 99.9 %
Extraction speed 1.4 X
Track quality 100.0 %
Test CRC 63BF4680
Copy CRC 63BF4680
Track not present in AccurateRip database
Copy OK

Track 4

Filename C:\Users\ian\Desktop\Grateful Dead - New Years Eve 1982 (2016) [FLAC] {Limited1000 3CD)\New Years Eve 1982 CD2\04 - Man Smart, Woman Smarter.wav

Peak level 99.4 %
Extraction speed 1.4 X
Track quality 99.9 %
Test CRC 28A0CE93
Copy CRC 28A0CE93
Track not present in AccurateRip database
Copy OK

Track 5

Filename C:\Users\ian\Desktop\Grateful Dead - New Years Eve 1982 (2016) [FLAC] {Limited1000 3CD)\New Years Eve 1982 CD2\05 - Ship of Fools.wav

Peak level 99.8 %
Extraction speed 1.7 X
Track quality 100.0 %
Test CRC 6C7C0D87
Copy CRC 6C7C0D87
Track not present in AccurateRip database
Copy OK

Track 6

Filename C:\Users\ian\Desktop\Grateful Dead - New Years Eve 1982 (2016) [FLAC] {Limited1000 3CD)\New Years Eve 1982 CD2\06 - Playing in the Band.wav

Peak level 100.0 %
Extraction speed 1.8 X
Track quality 100.0 %
Test CRC 15EFAAC2
Copy CRC 15EFAAC2
Track not present in AccurateRip database
Copy OK

Track 7

Filename C:\Users\ian\Desktop\Grateful Dead - New Years Eve 1982 (2016) [FLAC] {Limited1000 3CD)\New Years Eve 1982 CD2\07 - Drums.wav

Peak level 98.9 %
Extraction speed 1.9 X
Track quality 100.0 %
Test CRC 1A96E040
Copy CRC 1A96E040
Track not present in AccurateRip database
Copy OK

Track 8

Filename C:\Users\ian\Desktop\Grateful Dead - New Years Eve 1982 (2016) [FLAC] {Limited1000 3CD)\New Years Eve 1982 CD2\08 - Space.wav

Peak level 64.7 %
Extraction speed 1.9 X
Track quality 100.0 %
Test CRC A91D9DD0
Copy CRC A91D9DD0
Track not present in AccurateRip database
Copy OK

Track 9

Filename C:\Users\ian\Desktop\Grateful Dead - New Years Eve 1982 (2016) [FLAC] {Limited1000 3CD)\New Years Eve 1982 CD2\09 - Not Fade Away Deal.wav

Peak level 100.0 %
Extraction speed 2.1 X
Track quality 100.0 %
Test CRC EEDE6BFA
Copy CRC EEDE6BFA
Track not present in AccurateRip database
Copy OK

Track 10

Filename C:\Users\ian\Desktop\Grateful Dead - New Years Eve 1982 (2016) [FLAC] {Limited1000 3CD)\New Years Eve 1982 CD2\10 - Deal.wav

Peak level 99.5 %
Extraction speed 2.0 X
Track quality 100.0 %
Test CRC EC97855C
Copy CRC EC97855C
Track not present in AccurateRip database
Copy OK

Track 11

Filename C:\Users\ian\Desktop\Grateful Dead - New Years Eve 1982 (2016) [FLAC] {Limited1000 3CD)\New Years Eve 1982 CD2\11 - Sunshine Daydream.wav

Peak level 99.7 %
Extraction speed 1.6 X
Track quality 99.9 %
Test CRC 1A198303
Copy CRC 1A198303
Track not present in AccurateRip database
Copy OK


None of the tracks are present in the AccurateRip database

No errors occurred

End of status report

–– CUETools DB Plugin V2.1.6

[CTDB TOCID: yA3Zz75miPtpjTGF_Ba4tP7h4Ac-] disk not present in database
Submit result: yA3Zz75miPtpjTGF_Ba4tP7h4Ac- has been uploaded


==== Log checksum 63BED2CCE2174E4D98CBE9AD3DAD9071044155228E21606A036324AD3D1F4293 ====




Exact Audio Copy V1.2 from 12. August 2016

EAC extraction logfile from 18. October 2017, 14:16

Grateful Dead / New Years Eve 1982 CD3

Used drive : TSSTcorpCDDVDW SE-S084F Adapter: 1 ID: 1

Read mode : Secure
Utilize accurate stream : Yes
Defeat audio cache : Yes
Make use of C2 pointers : No

Read offset correction : 6
Overread into Lead-In and Lead-Out : No
Fill up missing offset samples with silence : Yes
Delete leading and trailing silent blocks : No
Null samples used in CRC calculations : Yes
Used interface : Native Win32 interface for Win NT & 2000
Gap handling : Appended to previous track

Used output format : User Defined Encoder
Selected bitrate : 1024 kBit/s
Quality : High
Add ID3 tag : No
Command line compressor : C:\Program Files (x86)\Exact Audio Copy\Flac\flac.exe
Additional command line options : -8 -V -T "ARTIST=%artist%" -T "TITLE=%title%" -T "ALBUM=%albumtitle%" -T "DATE=%year%" -T "TRACKNUMBER=%tracknr%" -T "GENRE=%genre%" -T "PERFORMER=%albuminterpret%" -T "COMPOSER=%composer%" %haslyrics%–tag-from-file=LYRICS="%lyricsfile%"%haslyrics% -T "ALBUMARTIST=%albumartist%" -T "DISCNUMBER=%cdnumber%" -T "TOTALDISCS=%totalcds%" -T "TOTALTRACKS=%numtracks%" -T "COMMENT=%comment%" %source% -o %dest%


TOC of the extracted CD

Track | Start | Length | Start sector | End sector
––––––––––––––––––––––––––––-
1 | 0:00.00 | 1:24.33 | 0 | 6332
2 | 1:24.33 | 5:00.68 | 6333 | 28900
3 | 6:25.26 | 4:29.08 | 28901 | 49083
4 | 10:54.34 | 8:30.22 | 49084 | 87355
5 | 19:24.56 | 5:44.73 | 87356 | 113228
6 | 25:09.54 | 4:17.21 | 113229 | 132524
7 | 29:27.00 | 6:04.63 | 132525 | 159887


Track 1

Filename C:\Users\ian\Desktop\Grateful Dead - New Years Eve 1982 (2016) [FLAC] {Limited1000 3CD)\New Years Eve 1982 CD3\01 - Intro.wav

Pre-gap length 0:00:02.00

Peak level 37.4 %
Extraction speed 1.9 X
Track quality 100.0 %
Test CRC F9117996
Copy CRC F9117996
Track not present in AccurateRip database
Copy OK

Track 2

Filename C:\Users\ian\Desktop\Grateful Dead - New Years Eve 1982 (2016) [FLAC] {Limited1000 3CD)\New Years Eve 1982 CD3\02 - Turn on Your Love Light.wav

Peak level 99.9 %
Extraction speed 2.7 X
Track quality 100.0 %
Test CRC A223A91F
Copy CRC A223A91F
Track not present in AccurateRip database
Copy OK

Track 3

Filename C:\Users\ian\Desktop\Grateful Dead - New Years Eve 1982 (2016) [FLAC] {Limited1000 3CD)\New Years Eve 1982 CD3\03 - Tell Mama.wav

Peak level 100.0 %
Extraction speed 3.0 X
Track quality 100.0 %
Test CRC 4DA2AAB3
Copy CRC 4DA2AAB3
Track not present in AccurateRip database
Copy OK

Track 4

Filename C:\Users\ian\Desktop\Grateful Dead - New Years Eve 1982 (2016) [FLAC] {Limited1000 3CD)\New Years Eve 1982 CD3\04 - Baby What You Want Me To Do.wav

Peak level 100.0 %
Extraction speed 3.3 X
Track quality 99.9 %
Test CRC 612B96EF
Copy CRC 612B96EF
Track not present in AccurateRip database
Copy OK

Track 5

Filename C:\Users\ian\Desktop\Grateful Dead - New Years Eve 1982 (2016) [FLAC] {Limited1000 3CD)\New Years Eve 1982 CD3\05 - Hard to Handle.wav

Peak level 99.7 %
Extraction speed 3.4 X
Track quality 99.9 %
Test CRC 8432EFAA
Copy CRC 8432EFAA
Track not present in AccurateRip database
Copy OK

Track 6

Filename C:\Users\ian\Desktop\Grateful Dead - New Years Eve 1982 (2016) [FLAC] {Limited1000 3CD)\New Years Eve 1982 CD3\06 - Midnight Hour.wav

Peak level 99.6 %
Extraction speed 3.3 X
Track quality 99.9 %
Test CRC F644BDD3
Copy CRC F644BDD3
Track not present in AccurateRip database
Copy OK

Track 7

Filename C:\Users\ian\Desktop\Grateful Dead - New Years Eve 1982 (2016) [FLAC] {Limited1000 3CD)\New Years Eve 1982 CD3\07 - Brokedown Palace.wav

Peak level 99.2 %
Extraction speed 4.3 X
Track quality 100.0 %
Test CRC C454F132
Copy CRC C454F132
Track not present in AccurateRip database
Copy OK


None of the tracks are present in the AccurateRip database

No errors occurred

End of status report

–– CUETools DB Plugin V2.1.6

[CTDB TOCID: 3Gva2W0zoVS6v486Jcv4lOx4Oyk-] disk not present in database
Submit result: 3Gva2W0zoVS6v486Jcv4lOx4Oyk- has been uploaded


==== Log checksum 46F8F43D6B1628EBE1AB4BE427E92781937002CD03AE0CF7F1DC22821F5EBDC7 ====


Grateful Dead - New Year's Eve 1982, Oakland Auditorium Arena (2016) {3CD Box Set Limited 1000 Mojo Filter MFRCD2006}


All thanks goes to the original releaser!


===