Subcategories

V.A. - More Greatest hits of the 80's (8CD Box, 2000)

Posted By: Speedyclick
V.A. - More Greatest hits of the 80's (8CD Box, 2000)

V.A. - More Greatest hits of the 80's (8CD Box, 2000)
EAC Rip | FLAC (image & cue & log) & mp3 @ 320 kbps | tracks: 143 | Scans | 9:54:35 | ~ 4,25 Gb & 1,38 Gb
Label: DISKY | Original recordings | Genre: Pop

One more 8CD BoxSet with hits of the 80's, that comes to complete the "Greatest hits of the 80's" collection. Together the two collections, with almost 20 hours of great music, are the perfect gift for all nostalgic lovers of the golden decade. Enjoy a wonderful musical experience in lossless.

V.A. - More Greatest hits of the 80's (8CD Box, 2000)

CD1 (1:14:10 | ~ 576 Mb & 173 Mb)

TRACKLIST
01. Frankie Goes To Hollywood - Relax
02. Eurythmics - Sexcrime (Nineteen Eighty Four)
03. Human League - Love Action (I Believe In Love)
04. Talk Talk - It's My Life
05. Duran Duran - Rio
06. Culture Club - Church Of The Poison Mind
07. UB40 - Many Rivers To Cross
08. Belouis Some - Some People
09. Spandau Ballet - I'll Fly For You
10. Denis Waterman - I Could Be So Good For You
11. Jane Wiedlin - Rush Hour
12. Adeva - Warning
13. Tracey Ullman - They Don't Know
14. Kim Wilde - Water On Glass
15. Huey Lewis & The News - The Power Of Love
16. Whitesnake - Is This Love
17. It Bites - Calling All The Heroes
18. Sigue Sigue Sputnik - Love Missile F1-11

Exact Audio Copy V1.0 beta 3 from 29. August 2011

EAC extraction logfile from 27. December 2011, 17:43

Various / More Greatest Hits Of The 80's

Used drive : HL-DT-STDVDRAM GH10N Adapter: 1 ID: 1

Read mode : Secure
Utilize accurate stream : Yes
Defeat audio cache : Yes
Make use of C2 pointers : No

Read offset correction : 667
Overread into Lead-In and Lead-Out : No
Fill up missing offset samples with silence : Yes
Delete leading and trailing silent blocks : No
Null samples used in CRC calculations : Yes
Used interface : Native Win32 interface for Win NT & 2000

Used output format : User Defined Encoder
Selected bitrate : 1024 kBit/s
Quality : High
Add ID3 tag : Yes
Command line compressor : C:\Program Files\Exact Audio Copy New\Flac\flac.exe
Additional command line options : -V -5 -T "artist=%artist%" -T "title=%title%" -T "album=%albumtitle%" -T "tracknumber=%tracknr2%" -T "genre=%genre%" -5 %source%


TOC of the extracted CD

Track | Start | Length | Start sector | End sector
––––––––––––––––––––––––––––-
1 | 0:00.00 | 3:56.34 | 0 | 17733
2 | 3:56.34 | 3:57.61 | 17734 | 35569
3 | 7:54.20 | 3:51.14 | 35570 | 52908
4 | 11:45.34 | 3:54.29 | 52909 | 70487
5 | 15:39.63 | 4:44.53 | 70488 | 91840
6 | 20:24.41 | 3:31.69 | 91841 | 107734
7 | 23:56.35 | 4:32.64 | 107735 | 128198
8 | 28:29.24 | 4:02.07 | 128199 | 146355
9 | 32:31.31 | 5:10.66 | 146356 | 169671
10 | 37:42.22 | 3:14.37 | 169672 | 184258
11 | 40:56.59 | 4:00.28 | 184259 | 202286
12 | 44:57.12 | 4:42.67 | 202287 | 223503
13 | 49:40.04 | 3:00.38 | 223504 | 237041
14 | 52:40.42 | 3:35.35 | 237042 | 253201
15 | 56:16.02 | 3:53.53 | 253202 | 270729
16 | 60:09.55 | 4:43.41 | 270730 | 291995
17 | 64:53.21 | 5:29.59 | 291996 | 316729
18 | 70:23.05 | 3:47.48 | 316730 | 333802


Range status and errors

Selected range

Filename R:\EAC Rips\TASOS\Hits Of The 80's\Hits Of The 80s Vol 2\H80-2-1\Various - More Greatest Hits Of The 80's.wav

Peak level 97.7 %
Extraction speed 2.1 X
Range quality 100.0 %
Test CRC 6FBBB10A
Copy CRC 6FBBB10A
Copy OK

No errors occurred


AccurateRip summary

Track 1 accurately ripped (confidence 8) [C355DCFF] (AR v2)
Track 2 accurately ripped (confidence 8) [D3B7C2E0] (AR v2)
Track 3 accurately ripped (confidence 8) [481D8308] (AR v2)
Track 4 accurately ripped (confidence 8) [C42CCA04] (AR v2)
Track 5 accurately ripped (confidence 8) [78012907] (AR v2)
Track 6 accurately ripped (confidence 8) [FB0713FA] (AR v2)
Track 7 accurately ripped (confidence 8) [8D6DB5D3] (AR v2)
Track 8 accurately ripped (confidence 8) [6AEC53AE] (AR v2)
Track 9 accurately ripped (confidence 8) [9AD3AEA9] (AR v2)
Track 10 accurately ripped (confidence 8) [C5B5AB78] (AR v2)
Track 11 accurately ripped (confidence 8) [94139E22] (AR v2)
Track 12 accurately ripped (confidence 8) [0CCE581C] (AR v2)
Track 13 accurately ripped (confidence 8) [4906CB6C] (AR v2)
Track 14 accurately ripped (confidence 8) [37E0A1E5] (AR v2)
Track 15 accurately ripped (confidence 8) [7AC64CA5] (AR v2)
Track 16 accurately ripped (confidence 8) [AA22623B] (AR v2)
Track 17 accurately ripped (confidence 8) [8E033BAD] (AR v2)
Track 18 accurately ripped (confidence 7) [313DA8F9] (AR v2)

All tracks accurately ripped

End of status report

–– CUETools DB Plugin V2.1.3

[CTDB TOCID: hehcpTCeiFD.EXdtpNv0leeWexE-] found, Submit result: hehcpTCeiFD.EXdtpNv0leeWexE- has been confirmed
[b157dbcd] (54/54) Accurately ripped


==== Log checksum 2090F9F91D83E78BD5D48AA359B19B4698004B3ACDB61C9B6E35C9BBE274EF2D ====

V.A. - More Greatest hits of the 80's (8CD Box, 2000)

CD2 (1:11:18 | ~ 538 Mb & 166 Mb)

TRACKLIST
01. Madness - Our House
02. Culture Club - I'll Tumble 4 Ya
03. Monie Love - Grandpa's Party
04. Spandau Ballet - Lifeline
05. Re-Flex - The Politics Of Dancing
06. Frankie Goes To Hollywood - The Power Of Love
07. Killing Joke - Love Like Blood
08. Go West - Call Me
09. Billy Idol - White Wedding
10. The Proclaimers - I'm Gonna Be 500 Miles
11. Sammy Hagar - I've Done Everything For You
12. Saxon - Ride Like The Wind
13. Huey Lewis & The News - Stuck With You
14. Light Of The World - I Shot The Sheriff
15. Phil Fearon & Galaxy - Dancing Tight
16. David Grant - Watching You Watching Me
17. Hot Chocolate - What Kinda Boy You're Lookin' For (Girl)
18. Kim Wilde - View From A Bridge

Exact Audio Copy V1.0 beta 3 from 29. August 2011

EAC extraction logfile from 27. December 2011, 18:13

Various / More Greatest Hits Of The 80's CD2

Used drive : HL-DT-STDVDRAM GH10N Adapter: 1 ID: 1

Read mode : Secure
Utilize accurate stream : Yes
Defeat audio cache : Yes
Make use of C2 pointers : No

Read offset correction : 667
Overread into Lead-In and Lead-Out : No
Fill up missing offset samples with silence : Yes
Delete leading and trailing silent blocks : No
Null samples used in CRC calculations : Yes
Used interface : Native Win32 interface for Win NT & 2000

Used output format : User Defined Encoder
Selected bitrate : 1024 kBit/s
Quality : High
Add ID3 tag : Yes
Command line compressor : C:\Program Files\Exact Audio Copy New\Flac\flac.exe
Additional command line options : -V -5 -T "artist=%artist%" -T "title=%title%" -T "album=%albumtitle%" -T "tracknumber=%tracknr2%" -T "genre=%genre%" -5 %source%


TOC of the extracted CD

Track | Start | Length | Start sector | End sector
––––––––––––––––––––––––––––-
1 | 0:00.00 | 3:12.34 | 0 | 14433
2 | 3:12.34 | 2:36.46 | 14434 | 26179
3 | 5:49.05 | 3:38.05 | 26180 | 42534
4 | 9:27.10 | 3:19.07 | 42535 | 57466
5 | 12:46.17 | 4:15.53 | 57467 | 76644
6 | 17:01.70 | 5:29.25 | 76645 | 101344
7 | 22:31.20 | 4:24.06 | 101345 | 121150
8 | 26:55.26 | 4:12.09 | 121151 | 140059
9 | 31:07.35 | 3:34.07 | 140060 | 156116
10 | 34:41.42 | 3:38.52 | 156117 | 172518
11 | 38:20.19 | 3:02.04 | 172519 | 186172
12 | 41:22.23 | 4:26.21 | 186173 | 206143
13 | 45:48.44 | 4:26.43 | 206144 | 226136
14 | 50:15.12 | 3:59.01 | 226137 | 244062
15 | 54:14.13 | 6:13.50 | 244063 | 272087
16 | 60:27.63 | 3:33.52 | 272088 | 288114
17 | 64:01.40 | 3:46.00 | 288115 | 305064
18 | 67:47.40 | 3:30.40 | 305065 | 320854


Range status and errors

Selected range

Filename R:\EAC Rips\TASOS\Hits Of The 80's\Hits Of The 80s Vol 2\H80-2-2\Various - More Greatest Hits Of The 80's CD2.wav

Peak level 99.9 %
Extraction speed 6.3 X
Range quality 100.0 %
Test CRC 2B35AC26
Copy CRC 2B35AC26
Copy OK

No errors occurred


AccurateRip summary

Track 1 accurately ripped (confidence 8) [06BDCCFA] (AR v2)
Track 2 accurately ripped (confidence 8) [B2B026C9] (AR v2)
Track 3 accurately ripped (confidence 8) [1B2C3AAE] (AR v2)
Track 4 accurately ripped (confidence 8) [589D6446] (AR v2)
Track 5 accurately ripped (confidence 8) [9516237E] (AR v2)
Track 6 accurately ripped (confidence 8) [F8A17071] (AR v2)
Track 7 accurately ripped (confidence 8) [39B5C92C] (AR v2)
Track 8 accurately ripped (confidence 8) [280AB67F] (AR v2)
Track 9 accurately ripped (confidence 8) [7A7A1FD2] (AR v2)
Track 10 accurately ripped (confidence 8) [F9D89F19] (AR v2)
Track 11 accurately ripped (confidence 8) [0A4A771B] (AR v2)
Track 12 accurately ripped (confidence 8) [39D193C3] (AR v2)
Track 13 accurately ripped (confidence 8) [A288DD3A] (AR v2)
Track 14 accurately ripped (confidence 8) [270A9083] (AR v2)
Track 15 accurately ripped (confidence 8) [DAB9C374] (AR v2)
Track 16 accurately ripped (confidence 8) [E778112E] (AR v2)
Track 17 accurately ripped (confidence 8) [EFCEC04D] (AR v2)
Track 18 accurately ripped (confidence 8) [2D22CDB7] (AR v2)

All tracks accurately ripped

End of status report

–– CUETools DB Plugin V2.1.3

[CTDB TOCID: tQxNoDM4yU5TRBoECohmFmt54TE-] found, Submit result: tQxNoDM4yU5TRBoECohmFmt54TE- has been confirmed
[9c0cd6bd] (51/51) Accurately ripped


==== Log checksum 2AF109C800424E3F14C1160F412FE13B48A02630C04FC712938EECAE5DC65DEB ====

V.A. - More Greatest hits of the 80's (8CD Box, 2000)

CD3 (1:16:32 | ~ 577 Mb & 178 Mb)

TRACKLIST
01. UB 40 - Cherry Oh Baby
02. Madness - Baggy Trousers
03. Living In A Box - Blow The House Down
04. Duran Duran - Is There Something I Should Know?
05. Linx - So This Is Romance
06. Jellybean - The Real Thing
07. Jaki Graham - Breaking Away
08. Katrina & The Waves - Sun Street
09. Huey Lewis & The News - If This Is It
10. Whitesnake - Here I Go Again
11. Fun Boy Three & Bananarama - It Ain't What You Do It's The Way That You Do It
12. Paul Hardcastle - The Wizzard
13. Adeva - I Thank You
14. Freddie Jackson - You Are My Lady
15. Marc Almond & Gene Pitney - Something's Gotten Hold Of My Heart
16. Arcadia - The Promise
17. 808 State - Pacific State
18. The Art Of Noise - Moments In Love

Exact Audio Copy V1.0 beta 3 from 29. August 2011

EAC extraction logfile from 27. December 2011, 19:17

Various / More Greatest Hits Of The 80's

Used drive : HL-DT-STDVDRAM GH10N Adapter: 1 ID: 1

Read mode : Secure
Utilize accurate stream : Yes
Defeat audio cache : Yes
Make use of C2 pointers : No

Read offset correction : 667
Overread into Lead-In and Lead-Out : No
Fill up missing offset samples with silence : Yes
Delete leading and trailing silent blocks : No
Null samples used in CRC calculations : Yes
Used interface : Native Win32 interface for Win NT & 2000

Used output format : User Defined Encoder
Selected bitrate : 1024 kBit/s
Quality : High
Add ID3 tag : Yes
Command line compressor : C:\Program Files\Exact Audio Copy New\Flac\flac.exe
Additional command line options : -V -5 -T "artist=%artist%" -T "title=%title%" -T "album=%albumtitle%" -T "tracknumber=%tracknr2%" -T "genre=%genre%" -5 %source%


TOC of the extracted CD

Track | Start | Length | Start sector | End sector
––––––––––––––––––––––––––––-
1 | 0:00.00 | 3:19.06 | 0 | 14930
2 | 3:19.06 | 2:35.09 | 14931 | 26564
3 | 5:54.15 | 4:17.61 | 26565 | 45900
4 | 10:12.01 | 4:09.67 | 45901 | 64642
5 | 14:21.68 | 3:59.34 | 64643 | 82601
6 | 18:21.27 | 7:41.53 | 82602 | 117229
7 | 26:03.05 | 3:33.71 | 117230 | 133275
8 | 29:37.01 | 3:12.49 | 133276 | 147724
9 | 32:49.50 | 3:51.07 | 147725 | 165056
10 | 36:40.57 | 4:33.70 | 165057 | 185601
11 | 41:14.52 | 2:48.07 | 185602 | 198208
12 | 44:02.59 | 3:23.41 | 198209 | 213474
13 | 47:26.25 | 3:44.25 | 213475 | 230299
14 | 51:10.50 | 4:43.08 | 230300 | 251532
15 | 55:53.58 | 4:41.00 | 251533 | 272607
16 | 60:34.58 | 7:29.09 | 272608 | 306291
17 | 68:03.67 | 3:54.11 | 306292 | 323852
18 | 71:58.03 | 4:34.49 | 323853 | 344451


Range status and errors

Selected range

Filename R:\EAC Rips\TASOS\Hits Of The 80's\Hits Of The 80s Vol 2\H80-2-3\Various - More Greatest Hits Of The 80's.wav

Peak level 97.7 %
Extraction speed 6.3 X
Range quality 100.0 %
Test CRC 0137A3B7
Copy CRC 0137A3B7
Copy OK

No errors occurred


AccurateRip summary

Track 1 accurately ripped (confidence 8) [783C1D99] (AR v2)
Track 2 accurately ripped (confidence 8) [ECA120A9] (AR v2)
Track 3 accurately ripped (confidence 8) [2FB46D6F] (AR v2)
Track 4 accurately ripped (confidence 8) [1C763DC3] (AR v2)
Track 5 accurately ripped (confidence 8) [7100EF20] (AR v2)
Track 6 accurately ripped (confidence 8) [E8958409] (AR v2)
Track 7 accurately ripped (confidence 8) [4E28D9AA] (AR v2)
Track 8 accurately ripped (confidence 8) [2517562B] (AR v2)
Track 9 accurately ripped (confidence 8) [A90736D1] (AR v2)
Track 10 accurately ripped (confidence 8) [99F75D5C] (AR v2)
Track 11 accurately ripped (confidence 8) [4FC2066D] (AR v2)
Track 12 accurately ripped (confidence 8) [DF3940DE] (AR v2)
Track 13 accurately ripped (confidence 8) [175260F9] (AR v2)
Track 14 accurately ripped (confidence 8) [B102E21E] (AR v2)
Track 15 accurately ripped (confidence 8) [0DF9FBEB] (AR v2)
Track 16 accurately ripped (confidence 8) [05C4D777] (AR v2)
Track 17 accurately ripped (confidence 8) [2AB92AD5] (AR v2)
Track 18 accurately ripped (confidence 8) [65C6A164] (AR v2)

All tracks accurately ripped

End of status report

–– CUETools DB Plugin V2.1.3

[CTDB TOCID: dytGG1a1Bh85h1yQl.m5Flif_uA-] found, Submit result: dytGG1a1Bh85h1yQl.m5Flif_uA- has been confirmed
[20553cc1] (51/51) Accurately ripped


==== Log checksum D23B1F2EA73AD401E7A0D3427762A837EDFEB3B4B44AA063B047F622F52BE5CB ====

V.A. - More Greatest hits of the 80's (8CD Box, 2000)

CD4 (1:13:29 | ~ 541 Mb & 171 Mb)

TRACKLIST
01. Frankie Goes To Hollywood - Two Tribes
02. Thomas Dolby - She Blinded Me With Science
03. OMD - Locomotion
04. Sandra - Everlasting Love
05. Marillion - Incommunicado
06. Sheena Easton - Modern Girl
07. Colourfield - Thinking Of You
08. China Crisis - Black Man Ray
09. Billy Idol - Mony Mony
10. Fun Boy Three - The Telephone Always Rings
11. Linx - Intuition
12. Dexy's Midnight Runners - There There My Dear
13. Jesus Loves You - After The Love
14. Kajagoogoo - Hang On Now
15. Kim Wilde - Love Blonde
16. Phil Fearon & Galaxy - What Do I Do?
17. Mel & Kim - F.L.M.
18. Loose Ends - Hangin' On A String

Exact Audio Copy V1.0 beta 3 from 29. August 2011

EAC extraction logfile from 27. December 2011, 20:10

Various / More Greatest Hits Of The 80's

Used drive : HL-DT-STDVDRAM GH10N Adapter: 1 ID: 1

Read mode : Secure
Utilize accurate stream : Yes
Defeat audio cache : Yes
Make use of C2 pointers : No

Read offset correction : 667
Overread into Lead-In and Lead-Out : No
Fill up missing offset samples with silence : Yes
Delete leading and trailing silent blocks : No
Null samples used in CRC calculations : Yes
Used interface : Native Win32 interface for Win NT & 2000

Used output format : User Defined Encoder
Selected bitrate : 1024 kBit/s
Quality : High
Add ID3 tag : Yes
Command line compressor : C:\Program Files\Exact Audio Copy New\Flac\flac.exe
Additional command line options : -V -5 -T "artist=%artist%" -T "title=%title%" -T "album=%albumtitle%" -T "tracknumber=%tracknr2%" -T "genre=%genre%" -5 %source%


TOC of the extracted CD

Track | Start | Length | Start sector | End sector
––––––––––––––––––––––––––––-
1 | 0:00.00 | 3:56.70 | 0 | 17769
2 | 3:56.70 | 3:41.65 | 17770 | 34409
3 | 7:38.60 | 3:50.28 | 34410 | 51687
4 | 11:29.13 | 3:58.41 | 51688 | 69578
5 | 15:27.54 | 5:12.48 | 69579 | 93026
6 | 20:40.27 | 3:27.56 | 93027 | 108607
7 | 24:08.08 | 3:29.26 | 108608 | 124308
8 | 27:37.34 | 3:36.05 | 124309 | 140513
9 | 31:13.39 | 4:08.57 | 140514 | 159170
10 | 35:22.21 | 3:30.20 | 159171 | 174940
11 | 38:52.41 | 3:20.56 | 174941 | 189996
12 | 42:13.22 | 3:14.17 | 189997 | 204563
13 | 45:27.39 | 7:42.44 | 204564 | 239257
14 | 53:10.08 | 3:25.55 | 239258 | 254687
15 | 56:35.63 | 3:32.44 | 254688 | 270631
16 | 60:08.32 | 3:31.14 | 270632 | 286470
17 | 63:39.46 | 3:54.67 | 286471 | 304087
18 | 67:34.38 | 5:55.24 | 304088 | 330736


Range status and errors

Selected range

Filename R:\EAC Rips\TASOS\Hits Of The 80's\Hits Of The 80s Vol 2\H80-2-4\Various - More Greatest Hits Of The 80's.wav

Peak level 97.7 %
Extraction speed 6.3 X
Range quality 100.0 %
Test CRC 8DD8CE5B
Copy CRC 8DD8CE5B
Copy OK

No errors occurred


AccurateRip summary

Track 1 accurately ripped (confidence 7) [C4D1214D] (AR v2)
Track 2 accurately ripped (confidence 7) [E5C45C6D] (AR v2)
Track 3 accurately ripped (confidence 7) [61AC8792] (AR v2)
Track 4 accurately ripped (confidence 7) [58F08D47] (AR v2)
Track 5 accurately ripped (confidence 7) [72C05E44] (AR v2)
Track 6 accurately ripped (confidence 7) [54A12D13] (AR v2)
Track 7 accurately ripped (confidence 7) [5264D8C9] (AR v2)
Track 8 accurately ripped (confidence 7) [97D3EBF0] (AR v2)
Track 9 accurately ripped (confidence 7) [6C71EE42] (AR v2)
Track 10 accurately ripped (confidence 7) [F7476EF5] (AR v2)
Track 11 accurately ripped (confidence 7) [11D1D804] (AR v2)
Track 12 accurately ripped (confidence 7) [75EB12B8] (AR v2)
Track 13 accurately ripped (confidence 7) [2006E184] (AR v2)
Track 14 accurately ripped (confidence 7) [7345AD84] (AR v2)
Track 15 accurately ripped (confidence 7) [4EFF025A] (AR v2)
Track 16 accurately ripped (confidence 7) [18463FF4] (AR v2)
Track 17 accurately ripped (confidence 7) [00F4ADBB] (AR v2)
Track 18 accurately ripped (confidence 6) [F286179D] (AR v2)

All tracks accurately ripped

End of status report

–– CUETools DB Plugin V2.1.3

[CTDB TOCID: yOpcuxFmIUCTMXEwXhbMPtY5OYY-] found, Submit result: yOpcuxFmIUCTMXEwXhbMPtY5OYY- has been confirmed
[767d46d5] (49/49) Accurately ripped


==== Log checksum 941B960B4430146D19B0B477A0FD9FAA9DFE962CE47B0D4C0D97642EC5B4CC03 ====

V.A. - More Greatest hits of the 80's (8CD Box, 2000)

CD5 (1:12:04 | ~ 503 Mb & 196 Mb)

TRACKLIST
01. Soul II Soul - Back To Life (However Do You Want Me)
02. Dusty Springfield - In Private
03. Hazell Dean - Who's Leaving Who
04. The Specials - Ghost Town
05. Fun Boy Three - Our Lips Are Sealed
06. Sex Pistols - (I'm Not Your) Stepping Stone
07. Spear Of Destiny - Never Take Me Alive
08. Kate Bush - Babooshka
09. Marc Almond - Tears Run Rings
10. Richard Marx - Right Here Waiting
11. Brother Beyond - Be My Twin
12. Dr. Hook - Better Love Next Time
13. Wendy & Lisa - Satisfaction
14. Jellybean - Jingo
15. Dayton - The Sound Of Music
16. George Clinton - Atomic Dog
17. Morris Minor And The Majors - Stutter Rap (No Sleep Til Bedtime)
18. The Art Of Noise - Close (To The Edit)

Exact Audio Copy V1.0 beta 3 from 29. August 2011

EAC extraction logfile from 29. December 2011, 12:21

Various / More Greatest Hits Of The 80's

Used drive : HL-DT-STDVDRAM GH10N Adapter: 1 ID: 1

Read mode : Secure
Utilize accurate stream : Yes
Defeat audio cache : Yes
Make use of C2 pointers : No

Read offset correction : 667
Overread into Lead-In and Lead-Out : No
Fill up missing offset samples with silence : Yes
Delete leading and trailing silent blocks : No
Null samples used in CRC calculations : Yes
Used interface : Native Win32 interface for Win NT & 2000

Used output format : User Defined Encoder
Selected bitrate : 1024 kBit/s
Quality : High
Add ID3 tag : Yes
Command line compressor : C:\Program Files\Exact Audio Copy New\Flac\flac.exe
Additional command line options : -V -5 -T "artist=%artist%" -T "title=%title%" -T "album=%albumtitle%" -T "tracknumber=%tracknr2%" -T "genre=%genre%" -5 %source%


TOC of the extracted CD

Track | Start | Length | Start sector | End sector
––––––––––––––––––––––––––––-
1 | 0:00.00 | 3:45.55 | 0 | 16929
2 | 3:45.55 | 4:19.12 | 16930 | 36366
3 | 8:04.67 | 3:45.02 | 36367 | 53243
4 | 11:49.69 | 3:40.11 | 53244 | 69754
5 | 15:30.05 | 2:53.21 | 69755 | 82750
6 | 18:23.26 | 3:09.10 | 82751 | 96935
7 | 21:32.36 | 4:15.60 | 96936 | 116120
8 | 25:48.21 | 3:29.54 | 116121 | 131849
9 | 29:18.00 | 5:43.13 | 131850 | 157587
10 | 35:01.13 | 4:24.15 | 157588 | 177402
11 | 39:25.28 | 3:28.25 | 177403 | 193027
12 | 42:53.53 | 3:00.24 | 193028 | 206551
13 | 45:54.02 | 4:55.26 | 206552 | 228702
14 | 50:49.28 | 3:23.11 | 228703 | 243938
15 | 54:12.39 | 3:39.44 | 243939 | 260407
16 | 57:52.08 | 4:45.56 | 260408 | 281838
17 | 62:37.64 | 3:50.07 | 281839 | 299095
18 | 66:27.71 | 5:36.59 | 299096 | 324354


Range status and errors

Selected range

Filename R:\EAC Rips\TASOS\Hits Of The 80's\Hits Of The 80s Vol 2\H80-2-5\Various - More Greatest Hits Of The 80's.wav

Peak level 97.7 %
Extraction speed 6.3 X
Range quality 100.0 %
Test CRC 5D65F9BD
Copy CRC 5D65F9BD
Copy OK

No errors occurred


AccurateRip summary

Track 1 accurately ripped (confidence 7) [1BD78E26] (AR v2)
Track 2 accurately ripped (confidence 7) [B6117E24] (AR v2)
Track 3 accurately ripped (confidence 7) [1D4201D4] (AR v2)
Track 4 accurately ripped (confidence 7) [2E2F78D4] (AR v2)
Track 5 accurately ripped (confidence 7) [2F338E4E] (AR v2)
Track 6 accurately ripped (confidence 7) [E4D125D1] (AR v2)
Track 7 accurately ripped (confidence 7) [153C9AA3] (AR v2)
Track 8 accurately ripped (confidence 7) [4E4DA2DF] (AR v2)
Track 9 accurately ripped (confidence 7) [7ABA058A] (AR v2)
Track 10 accurately ripped (confidence 7) [375BEB3E] (AR v2)
Track 11 accurately ripped (confidence 7) [7F3BAAEC] (AR v2)
Track 12 accurately ripped (confidence 7) [AE23D7B5] (AR v2)
Track 13 accurately ripped (confidence 7) [B518F00D] (AR v2)
Track 14 accurately ripped (confidence 7) [D07C77BC] (AR v2)
Track 15 accurately ripped (confidence 7) [CE609846] (AR v2)
Track 16 accurately ripped (confidence 7) [51AF2FC3] (AR v2)
Track 17 accurately ripped (confidence 7) [F661CEBC] (AR v2)
Track 18 accurately ripped (confidence 7) [DDC18961] (AR v2)

All tracks accurately ripped

End of status report

–– CUETools DB Plugin V2.1.3

[CTDB TOCID: JVsmevS9FKuyVdvMVvLGT3DVtJg-] found, Submit result: JVsmevS9FKuyVdvMVvLGT3DVtJg- has been confirmed
[4a5efd46] (49/50) Accurately ripped
[da005540] (01/50) Differs in 137 samples @12:16:41,28:30:17-28:30:18,29:07:73-29:07:74
You can use CUETools to repair this rip.


==== Log checksum 6370535807CFFA393B756C53F9D47F86C5FEADB23E82106D521941FF4731F926 ====

V.A. - More Greatest hits of the 80's (8CD Box, 2000)

CD6 (1:16:30 | ~ 546 Mb & 178 Mb)

TRACKLIST
01. Simple Minds - Don't You (Forget About Me)
02. Ziggy Marley - Tomorrow People
03. Scritti Politti - The Word Girl
04. Climie Fisher - Love Like A River
05. Paul Carrack - When You Walk In The Room
06. Kim Carnes - Draw Of The Cards
07. Brother Beyond - He Ain't No Competition
08. Giorgio Moroder & Phil Oakey - Together In Electric Dreams
09. Arcadia - Election Day
10. Pinkees, The - Danger Games
11. Ultravox - We Came To Dance
12. Frankie Goes To Hollywood - Rage Hard
13. Elbow Bones & Racketeers - A Night In New York
14. Phil Fearon - I Can Prove It
15. Barracudas - Summer Fun
16. George Clinton - Loopzilla
17. James Brown - Rapp Payback (Where Iz Moses)
18. April Wine - I Like To Rock

Exact Audio Copy V1.0 beta 3 from 29. August 2011

EAC extraction logfile from 29. December 2011, 13:02

Various / More Greatest Hits Of The 80's

Used drive : HL-DT-STDVDRAM GH10N Adapter: 1 ID: 1

Read mode : Secure
Utilize accurate stream : Yes
Defeat audio cache : Yes
Make use of C2 pointers : No

Read offset correction : 667
Overread into Lead-In and Lead-Out : No
Fill up missing offset samples with silence : Yes
Delete leading and trailing silent blocks : No
Null samples used in CRC calculations : Yes
Used interface : Native Win32 interface for Win NT & 2000

Used output format : User Defined Encoder
Selected bitrate : 1024 kBit/s
Quality : High
Add ID3 tag : Yes
Command line compressor : C:\Program Files\Exact Audio Copy New\Flac\flac.exe
Additional command line options : -V -5 -T "artist=%artist%" -T "title=%title%" -T "album=%albumtitle%" -T "tracknumber=%tracknr2%" -T "genre=%genre%" -5 %source%


TOC of the extracted CD

Track | Start | Length | Start sector | End sector
––––––––––––––––––––––––––––-
1 | 0:00.00 | 4:21.09 | 0 | 19583
2 | 4:21.09 | 3:36.19 | 19584 | 35802
3 | 7:57.28 | 4:25.65 | 35803 | 55742
4 | 12:23.18 | 4:50.63 | 55743 | 77555
5 | 17:14.06 | 3:30.61 | 77556 | 93366
6 | 20:44.67 | 4:54.07 | 93367 | 115423
7 | 25:38.74 | 3:21.22 | 115424 | 130520
8 | 29:00.21 | 3:53.30 | 130521 | 148025
9 | 32:53.51 | 5:28.50 | 148026 | 172675
10 | 38:22.26 | 2:57.12 | 172676 | 185962
11 | 41:19.38 | 4:09.37 | 185963 | 204674
12 | 45:29.00 | 5:05.23 | 204675 | 227572
13 | 50:34.23 | 3:47.41 | 227573 | 244638
14 | 54:21.64 | 3:58.24 | 244639 | 262512
15 | 58:20.13 | 3:12.71 | 262513 | 276983
16 | 61:33.09 | 3:35.67 | 276984 | 293175
17 | 65:09.01 | 7:03.51 | 293176 | 324951
18 | 72:12.52 | 4:17.67 | 324952 | 344293


Range status and errors

Selected range

Filename R:\EAC Rips\TASOS\Hits Of The 80's\Hits Of The 80s Vol 2\H80-2-6\Various - More Greatest Hits Of The 80's.wav

Peak level 97.7 %
Extraction speed 6.3 X
Range quality 99.9 %
Test CRC AD0B7043
Copy CRC AD0B7043
Copy OK

No errors occurred


AccurateRip summary

Track 1 accurately ripped (confidence 7) [947E1240] (AR v2)
Track 2 accurately ripped (confidence 7) [67BD85A1] (AR v2)
Track 3 accurately ripped (confidence 7) [4124DB04] (AR v2)
Track 4 accurately ripped (confidence 7) [8207227E] (AR v2)
Track 5 accurately ripped (confidence 7) [A3F80837] (AR v2)
Track 6 accurately ripped (confidence 7) [3B35DA1D] (AR v2)
Track 7 accurately ripped (confidence 7) [93D7ECD4] (AR v2)
Track 8 accurately ripped (confidence 7) [1658AAC7] (AR v2)
Track 9 accurately ripped (confidence 7) [1BF25990] (AR v2)
Track 10 accurately ripped (confidence 7) [1D848F81] (AR v2)
Track 11 accurately ripped (confidence 7) [85EE6C0E] (AR v2)
Track 12 accurately ripped (confidence 7) [957AA3C9] (AR v2)
Track 13 accurately ripped (confidence 7) [8FC9FD4A] (AR v2)
Track 14 accurately ripped (confidence 7) [04D97B3D] (AR v2)
Track 15 accurately ripped (confidence 7) [B4E5B6F2] (AR v2)
Track 16 accurately ripped (confidence 7) [1DDEB15A] (AR v2)
Track 17 accurately ripped (confidence 7) [BDBA6762] (AR v2)
Track 18 accurately ripped (confidence 7) [419A9743] (AR v2)

All tracks accurately ripped

End of status report

–– CUETools DB Plugin V2.1.3

[CTDB TOCID: gz66AuT3ZRg3_sRr_zyVHtVhB9I-] found, Submit result: gz66AuT3ZRg3_sRr_zyVHtVhB9I- has been confirmed
[19237112] (51/51) Accurately ripped


==== Log checksum 3802D97DA62FEB2EB5F4F34BBB86CDF0FD01D6DF808DF161EC0477A961BBA32E ====

V.A. - More Greatest hits of the 80's (8CD Box, 2000)

CD7 (1:13:05 | ~ 524 Mb & 172 Mb)

TRACKLIST
01. XTC - Dear God
02. Morrissey - Suedehead
03. Blondie - Rapture
04. Dusty Springfield - Nothing Has Been Proved
05. Climie Fisher - Rise To The Occasion
06. Talking Heads - Wild Wild Life
07. Devo - Whip It
08. The Stranglers - Strange Little Girl
09. Bow Wow Wow - C30, C60, C90, Go
10. Power Station - Get It On
11. Melba Moore - Love's Comin' At Ya
12. Lillo Thomas - Sexy Girl
13. Mystic Merlin - Just Can't Give You Up
14. Loose Ends - Magic Touch
15. Gary U.S. Bonds - This Little Girl
16. Paul Carrack - Don't Shed A Tear
17. Alvin Stardust - I Feel Like Buddy Holly

Exact Audio Copy V1.0 beta 3 from 29. August 2011

EAC extraction logfile from 29. December 2011, 13:35

Various / More Greatest Hits Of The 80's

Used drive : HL-DT-STDVDRAM GH10N Adapter: 1 ID: 1

Read mode : Secure
Utilize accurate stream : Yes
Defeat audio cache : Yes
Make use of C2 pointers : No

Read offset correction : 667
Overread into Lead-In and Lead-Out : No
Fill up missing offset samples with silence : Yes
Delete leading and trailing silent blocks : No
Null samples used in CRC calculations : Yes
Used interface : Native Win32 interface for Win NT & 2000

Used output format : User Defined Encoder
Selected bitrate : 1024 kBit/s
Quality : High
Add ID3 tag : Yes
Command line compressor : C:\Program Files\Exact Audio Copy New\Flac\flac.exe
Additional command line options : -V -5 -T "artist=%artist%" -T "title=%title%" -T "album=%albumtitle%" -T "tracknumber=%tracknr2%" -T "genre=%genre%" -5 %source%


TOC of the extracted CD

Track | Start | Length | Start sector | End sector
––––––––––––––––––––––––––––-
1 | 0:00.00 | 3:37.36 | 0 | 16310
2 | 3:37.36 | 3:52.20 | 16311 | 33730
3 | 7:29.56 | 5:33.05 | 33731 | 58710
4 | 13:02.61 | 4:40.00 | 58711 | 79710
5 | 17:42.61 | 4:46.26 | 79711 | 101186
6 | 22:29.12 | 3:41.05 | 101187 | 117766
7 | 26:10.17 | 2:58.62 | 117767 | 131178
8 | 29:09.04 | 2:42.55 | 131179 | 143383
9 | 31:51.59 | 3:00.04 | 143384 | 156887
10 | 34:51.63 | 5:31.69 | 156888 | 181781
11 | 40:23.57 | 5:40.60 | 181782 | 207341
12 | 46:04.42 | 4:01.04 | 207342 | 225420
13 | 50:05.46 | 7:00.53 | 225421 | 256973
14 | 57:06.24 | 4:29.20 | 256974 | 277168
15 | 61:35.44 | 3:42.54 | 277169 | 293872
16 | 65:18.23 | 3:43.32 | 293873 | 310629
17 | 69:01.55 | 4:03.42 | 310630 | 328896


Range status and errors

Selected range

Filename R:\EAC Rips\TASOS\Hits Of The 80's\Hits Of The 80s Vol 2\H80-2-7\Various - More Greatest Hits Of The 80's.wav

Peak level 100.0 %
Extraction speed 6.3 X
Range quality 100.0 %
Test CRC C679FED7
Copy CRC C679FED7
Copy OK

No errors occurred


AccurateRip summary

Track 1 accurately ripped (confidence 7) [3486A51B] (AR v2)
Track 2 accurately ripped (confidence 7) [E0E869EA] (AR v2)
Track 3 accurately ripped (confidence 7) [FE19AEA3] (AR v2)
Track 4 accurately ripped (confidence 7) [F3AB1FFF] (AR v2)
Track 5 accurately ripped (confidence 7) [1E5FA754] (AR v2)
Track 6 accurately ripped (confidence 7) [292580B4] (AR v2)
Track 7 accurately ripped (confidence 7) [F241BFC3] (AR v2)
Track 8 accurately ripped (confidence 7) [2961B029] (AR v2)
Track 9 accurately ripped (confidence 7) [86928325] (AR v2)
Track 10 accurately ripped (confidence 7) [AA68CEA7] (AR v2)
Track 11 accurately ripped (confidence 7) [D049F9D8] (AR v2)
Track 12 accurately ripped (confidence 7) [DFCEA79C] (AR v2)
Track 13 accurately ripped (confidence 7) [BE43E462] (AR v2)
Track 14 accurately ripped (confidence 7) [8FF86A26] (AR v2)
Track 15 accurately ripped (confidence 7) [88AFB18E] (AR v2)
Track 16 accurately ripped (confidence 7) [E09802AA] (AR v2)
Track 17 accurately ripped (confidence 7) [5F53805F] (AR v2)

All tracks accurately ripped

End of status report

–– CUETools DB Plugin V2.1.3

[CTDB TOCID: p1fdmpIteNkYN6y1XaU13IaITjY-] found, Submit result: p1fdmpIteNkYN6y1XaU13IaITjY- has been confirmed
[298651dc] (50/51) Accurately ripped
[70c78fac] (01/51) Differs in 7 samples @71:31:08,71:36:06,71:53:47
You can use CUETools to repair this rip.


==== Log checksum 0A4C6818944FB91F95237DF9342F50F997C9C934E430D76AE90195CF1790A015 ====

V.A. - More Greatest hits of the 80's (8CD Box, 2000)

CD8 (1:17:27 | ~ 551 Mb & 180 Mb)

TRACKLIST
01. Roxy Music - More Than This
02. Mike Oldfield - Moonlight Shadow
03. Stevie Nicks - Rooms On Fire
04. Talking Heads - And She Was
05. Johnny Clegg & Savuka - Scatterlings Of Africa
06. Blondie - Island Of Lost Souls
07. China Crisis - Christian
08. Maxi Priest - Wild World
09. Ziggy Marley And The Melody Makers - Look Who's Dancing
10. Black Slate - Amigo
11. Boy George - To Be Reborn
12. Soul II Soul - Get A Life
13. Talk Talk - Life's What You Make It
14. Pandora's Box - It's All Coming Back To Me Now
15. Propaganda - Duel
16. Bodysnatchers - Let's Do The Rock Steady
17. Poison - Your Mama Don't Dance
18. Pat Benatar - All Fired Up

Exact Audio Copy V1.0 beta 3 from 29. August 2011

EAC extraction logfile from 29. December 2011, 14:06

Various / More Greatest Hits Of The 80's

Used drive : HL-DT-STDVDRAM GH10N Adapter: 1 ID: 1

Read mode : Secure
Utilize accurate stream : Yes
Defeat audio cache : Yes
Make use of C2 pointers : No

Read offset correction : 667
Overread into Lead-In and Lead-Out : No
Fill up missing offset samples with silence : Yes
Delete leading and trailing silent blocks : No
Null samples used in CRC calculations : Yes
Used interface : Native Win32 interface for Win NT & 2000

Used output format : User Defined Encoder
Selected bitrate : 1024 kBit/s
Quality : High
Add ID3 tag : Yes
Command line compressor : C:\Program Files\Exact Audio Copy New\Flac\flac.exe
Additional command line options : -V -5 -T "artist=%artist%" -T "title=%title%" -T "album=%albumtitle%" -T "tracknumber=%tracknr2%" -T "genre=%genre%" -5 %source%


TOC of the extracted CD

Track | Start | Length | Start sector | End sector
––––––––––––––––––––––––––––-
1 | 0:00.00 | 4:06.06 | 0 | 18455
2 | 4:06.06 | 3:39.71 | 18456 | 34951
3 | 7:46.02 | 4:33.09 | 34952 | 55435
4 | 12:19.11 | 3:39.37 | 55436 | 71897
5 | 15:58.48 | 4:04.02 | 71898 | 90199
6 | 20:02.50 | 3:49.28 | 90200 | 107402
7 | 23:52.03 | 5:41.51 | 107403 | 133028
8 | 29:33.54 | 3:35.71 | 133029 | 149224
9 | 33:09.50 | 5:00.37 | 149225 | 171761
10 | 38:10.12 | 4:51.31 | 171762 | 193617
11 | 43:01.43 | 4:24.24 | 193618 | 213441
12 | 47:25.67 | 3:43.15 | 213442 | 230181
13 | 51:09.07 | 4:28.20 | 230182 | 250301
14 | 55:37.27 | 6:34.31 | 250302 | 279882
15 | 62:11.58 | 4:46.41 | 279883 | 301373
16 | 66:58.24 | 2:57.30 | 301374 | 314678
17 | 69:55.54 | 3:01.59 | 314679 | 328312
18 | 72:57.38 | 4:29.67 | 328313 | 348554


Range status and errors

Selected range

Filename R:\EAC Rips\TASOS\Hits Of The 80's\Hits Of The 80s Vol 2\H80-2-8\Various - More Greatest Hits Of The 80's.wav

Peak level 100.0 %
Extraction speed 4.2 X
Range quality 100.0 %
Test CRC B099C7DE
Copy CRC B099C7DE
Copy OK

No errors occurred


AccurateRip summary

Track 1 accurately ripped (confidence 7) [A7AAFB56] (AR v2)
Track 2 accurately ripped (confidence 7) [449C8A13] (AR v2)
Track 3 accurately ripped (confidence 7) [44614716] (AR v2)
Track 4 accurately ripped (confidence 7) [5E1D63E9] (AR v2)
Track 5 accurately ripped (confidence 7) [922E6707] (AR v2)
Track 6 accurately ripped (confidence 7) [A121277B] (AR v2)
Track 7 accurately ripped (confidence 7) [BD065E49] (AR v2)
Track 8 accurately ripped (confidence 7) [A2B2D2AF] (AR v2)
Track 9 accurately ripped (confidence 7) [9E10748D] (AR v2)
Track 10 accurately ripped (confidence 7) [F6C7A5ED] (AR v2)
Track 11 accurately ripped (confidence 7) [516B29A4] (AR v2)
Track 12 accurately ripped (confidence 7) [AC556BE9] (AR v2)
Track 13 accurately ripped (confidence 7) [ECCF49E8] (AR v2)
Track 14 accurately ripped (confidence 7) [6B666BE3] (AR v2)
Track 15 accurately ripped (confidence 7) [E3DA58F7] (AR v2)
Track 16 accurately ripped (confidence 7) [B7E8EA65] (AR v2)
Track 17 accurately ripped (confidence 7) [4E7CBA64] (AR v2)
Track 18 accurately ripped (confidence 7) [6200C53A] (AR v2)

All tracks accurately ripped

End of status report

–– CUETools DB Plugin V2.1.3

[CTDB TOCID: Yve6sF4unexk11sK4hl0NCAE_zU-] found, Submit result: Yve6sF4unexk11sK4hl0NCAE_zU- has been confirmed
[1d50b84e] (49/50) Accurately ripped
[d890fc50] (01/50) Differs in 35 samples @50:07:29-50:07:30,50:08:49,50:09:31,50:11:33,50:11:70,50:12:53,50:14:74,50:20:03,50:20:60,50:35:20,51:36:29
You can use CUETools to repair this rip.


==== Log checksum 277E2BD70E20C41D0E49B5CA39162D3E31628CE6082F4D5A53905F92376FB589 ====
Quality lossless (flac) & lossy (mp3 @ 320 kbps)

Download Filepost
Download EasyBytez
Download Uploaded