Subcategories

Gregg Allman - Gregg Allman Live: Back to Macon, GA (2015)

Posted By: aasana
Gregg Allman - Gregg Allman Live: Back to Macon, GA (2015)

Allman - Gregg Allman Live: Back To Macon, GA (2015)
EAC Rip | FLAC (tracks+.cue+.log) & front cover | 1:30:04 | 604 MB
Blues Rock | Label: New Rounder Records

It seems that Gregg Allman and the city of Macon, GA, will remain inexorably linked together; it is a history that spans over four decades, and one that Gregg is well aware of. “Macon is a beautiful, enchanting place, and it truly was home for the Allman Brothers Band,” stated Gregg. “We played, lived, laughed and cried there, and I wrote many, many songs in that town. It’s always good to play Macon, man.” On January 14, 2014, Gregg Allman brought his solo band to Macon for a performance at the venerable Grand Opera House, a 1,000 seat jewel of a theatre that was built in 1884. It was in this intimate setting that Gregg Allman Live: Back To Macon, GA was recorded.

Gregg took to the Grand Opera House stage with a group that, as he put it, “is a real kick-ass band.” Featuring Scott Sharrard on guitar, bassist Ron Johnson, Ben Stivers on keyboards, drummer Steve Potts, Allman Brothers veteran Marc Quinones on percussion, saxophonists Jay Collins and Art Edmaiston and Dennis Marion on trumpet, these eight players formed one of the best solo units Allman had fronted in years.

Gregg summarized the experience of recording Gregg Allman Live: Back to Macon, GA thusly: “Macon is a wonderful town with wonderful people, and I still have some dear, dear friends there. Macon holds a special place in my heart; it comes with a lot of different memories, but the good ones are all that matter to me now. I’m so proud of this album; boy, we were smokin’ that night.” So sit back, relax and enjoy the magic that is Gregg Allman. - John Lynskey

2015 Gregg Allman Live: Back to Macon, GA (Disc 1)
01. Gregg Allman - Statesboro Blues
02. Gregg Allman - I'm No Angel
03. Gregg Allman - Queen of Hearts
04. Gregg Allman - I Can't Be Satisfied
05. Gregg Allman - These Days
06. Gregg Allman - Ain't Wastin' Time No More
07. Gregg Allman - Brightest Smile in Town
08. Gregg Allman - Hot 'Lanta
09. Gregg Allman - I've Found a Love

Exact Audio Copy V1.3 from 2. September 2016

EAC extraction logfile from 31. December 2016, 16:46

Gregg Allman / Gregg Allman Live: Back to Macon, GA (Disc 1)

Used drive : PLEXTOR DVDR PX-716A Adapter: 1 ID: 2

Read mode : Secure
Utilize accurate stream : Yes
Defeat audio cache : Yes
Make use of C2 pointers : No

Read offset correction : 30
Overread into Lead-In and Lead-Out : Yes
Fill up missing offset samples with silence : Yes
Delete leading and trailing silent blocks : No
Null samples used in CRC calculations : Yes
Used interface : Native Win32 interface for Win NT & 2000
Gap handling : Appended to previous track

Used output format : User Defined Encoder
Selected bitrate : 1024 kBit/s
Quality : High
Add ID3 tag : No
Command line compressor : E:\Program Files\Exact Audio Copy\Flac\flac.exe
Additional command line options : -8 -V -T "ARTIST=%artist%" -T "TITLE=%title%" -T "ALBUM=%albumtitle%" -T "DATE=%year%" -T "TRACKNUMBER=%tracknr%" -T "TOTALTRACKS=%numtracks%" -T "GENRE=%genre%" -T "ALBUMARTIST=%albumartist%" -T "ALBUM ARTIST=%albumartist%" -T "COMMENT=EAC Secure Mode, Test & Copy, AccurateRip, FLAC -8" %source%


TOC of the extracted CD

Track | Start | Length | Start sector | End sector
––––––––––––––––––––––––––––-
1 | 0:00.00 | 5:25.23 | 0 | 24397
2 | 5:25.23 | 4:06.43 | 24398 | 42890
3 | 9:31.66 | 6:35.38 | 42891 | 72553
4 | 16:07.29 | 5:15.29 | 72554 | 96207
5 | 21:22.58 | 4:02.25 | 96208 | 114382
6 | 25:25.08 | 6:50.35 | 114383 | 145167
7 | 32:15.43 | 4:55.33 | 145168 | 167325
8 | 37:11.01 | 5:33.12 | 167326 | 192312
9 | 42:44.13 | 4:39.26 | 192313 | 213263


Track 1

Filename E:\PT\Gregg Allman - Gregg Allman Live- Back to Macon, GA (2015) [FLAC] {11661-37459-00}\CD1\01 - Statesboro Blues.wav

Pre-gap length 0:00:02.00

Peak level 97.8 %
Extraction speed 8.7 X
Track quality 100.0 %
Test CRC E26BCAE9
Copy CRC E26BCAE9
Accurately ripped (confidence 37) [844FE638] (AR v2)
Copy OK

Track 2

Filename E:\PT\Gregg Allman - Gregg Allman Live- Back to Macon, GA (2015) [FLAC] {11661-37459-00}\CD1\02 - I'm No Angel.wav

Peak level 98.1 %
Extraction speed 9.2 X
Track quality 100.0 %
Test CRC 0793F2DD
Copy CRC 0793F2DD
Accurately ripped (confidence 36) [393FE700] (AR v2)
Copy OK

Track 3

Filename E:\PT\Gregg Allman - Gregg Allman Live- Back to Macon, GA (2015) [FLAC] {11661-37459-00}\CD1\03 - Queen of Hearts.wav

Peak level 98.0 %
Extraction speed 9.9 X
Track quality 100.0 %
Test CRC 4E6EE827
Copy CRC 4E6EE827
Accurately ripped (confidence 37) [5E32E1CA] (AR v2)
Copy OK

Track 4

Filename E:\PT\Gregg Allman - Gregg Allman Live- Back to Macon, GA (2015) [FLAC] {11661-37459-00}\CD1\04 - I Can't Be Satisfied.wav

Peak level 97.8 %
Extraction speed 9.1 X
Track quality 99.9 %
Test CRC A69390C9
Copy CRC A69390C9
Accurately ripped (confidence 37) [DFBCC32C] (AR v2)
Copy OK

Track 5

Filename E:\PT\Gregg Allman - Gregg Allman Live- Back to Macon, GA (2015) [FLAC] {11661-37459-00}\CD1\05 - These Days.wav

Peak level 97.4 %
Extraction speed 8.9 X
Track quality 99.9 %
Test CRC 737DF6BF
Copy CRC 737DF6BF
Accurately ripped (confidence 37) [0347D8F2] (AR v2)
Copy OK

Track 6

Filename E:\PT\Gregg Allman - Gregg Allman Live- Back to Macon, GA (2015) [FLAC] {11661-37459-00}\CD1\06 - Ain't Wastin' Time No More.wav

Peak level 97.8 %
Extraction speed 10.8 X
Track quality 100.0 %
Test CRC D30F4979
Copy CRC D30F4979
Accurately ripped (confidence 37) [35197443] (AR v2)
Copy OK

Track 7

Filename E:\PT\Gregg Allman - Gregg Allman Live- Back to Macon, GA (2015) [FLAC] {11661-37459-00}\CD1\07 - Brightest Smile in Town.wav

Peak level 97.5 %
Extraction speed 9.5 X
Track quality 99.9 %
Test CRC B373838B
Copy CRC B373838B
Accurately ripped (confidence 37) [70DDD47D] (AR v2)
Copy OK

Track 8

Filename E:\PT\Gregg Allman - Gregg Allman Live- Back to Macon, GA (2015) [FLAC] {11661-37459-00}\CD1\08 - Hot 'Lanta.wav

Peak level 98.2 %
Extraction speed 11.0 X
Track quality 100.0 %
Test CRC 0BAA5C9D
Copy CRC 0BAA5C9D
Accurately ripped (confidence 37) [12C83FA8] (AR v2)
Copy OK

Track 9

Filename E:\PT\Gregg Allman - Gregg Allman Live- Back to Macon, GA (2015) [FLAC] {11661-37459-00}\CD1\09 - I've Found a Love.wav

Peak level 98.1 %
Extraction speed 11.8 X
Track quality 100.0 %
Test CRC 4B66638F
Copy CRC 4B66638F
Accurately ripped (confidence 36) [CF739DF3] (AR v2)
Copy OK


All tracks accurately ripped

No errors occurred

End of status report

–– AcoustID Plugin V1.2.0

Total fingerprints: 9


–– CUETools DB Plugin V2.1.6

[CTDB TOCID: tL7tzq5MMuEbEkKkLROEMkDe2LM-] found
Submit result: already submitted
Track | CTDB Status
1 | (75/75) Accurately ripped
2 | (73/75) Accurately ripped
3 | (75/75) Accurately ripped
4 | (75/75) Accurately ripped
5 | (75/75) Accurately ripped
6 | (75/75) Accurately ripped
7 | (75/75) Accurately ripped
8 | (75/75) Accurately ripped
9 | (75/75) Accurately ripped


==== Log checksum E2BC09D1431F4D8CEC2679497C6912B3C01D66E9FAA7C03B387953BE2FC6D7BD ====


2015 Gregg Allman Live: Back to Macon, GA (Disc 2)
01. Gregg Allman - Don't Keep Me Wonderin'
02. Gregg Allman - Before the Bullets Fly
03. Gregg Allman - Melissa
04. Gregg Allman - Midnight Rider
05. Gregg Allman - Love Like Kerosene
06. Gregg Allman - Whipping Post
07. Gregg Allman - One Way Out

Exact Audio Copy V1.3 from 2. September 2016

EAC extraction logfile from 31. December 2016, 16:59

Gregg Allman / Gregg Allman Live: Back to Macon, GA (Disc 2)

Used drive : PLEXTOR DVDR PX-716A Adapter: 1 ID: 2

Read mode : Secure
Utilize accurate stream : Yes
Defeat audio cache : Yes
Make use of C2 pointers : No

Read offset correction : 30
Overread into Lead-In and Lead-Out : Yes
Fill up missing offset samples with silence : Yes
Delete leading and trailing silent blocks : No
Null samples used in CRC calculations : Yes
Used interface : Native Win32 interface for Win NT & 2000
Gap handling : Appended to previous track

Used output format : User Defined Encoder
Selected bitrate : 1024 kBit/s
Quality : High
Add ID3 tag : No
Command line compressor : E:\Program Files\Exact Audio Copy\Flac\flac.exe
Additional command line options : -8 -V -T "ARTIST=%artist%" -T "TITLE=%title%" -T "ALBUM=%albumtitle%" -T "DATE=%year%" -T "TRACKNUMBER=%tracknr%" -T "TOTALTRACKS=%numtracks%" -T "GENRE=%genre%" -T "ALBUMARTIST=%albumartist%" -T "ALBUM ARTIST=%albumartist%" -T "COMMENT=EAC Secure Mode, Test & Copy, AccurateRip, FLAC -8" %source%


TOC of the extracted CD

Track | Start | Length | Start sector | End sector
––––––––––––––––––––––––––––-
1 | 0:00.00 | 5:11.18 | 0 | 23342
2 | 5:11.18 | 4:11.44 | 23343 | 42211
3 | 9:22.62 | 6:19.24 | 42212 | 70660
4 | 15:42.11 | 5:10.53 | 70661 | 93963
5 | 20:52.64 | 4:42.64 | 93964 | 115177
6 | 25:35.53 | 5:36.07 | 115178 | 140384
7 | 31:11.60 | 11:28.53 | 140385 | 192037


Track 1

Filename E:\PT\Gregg Allman - Gregg Allman Live- Back to Macon, GA (2015) [FLAC] {11661-37459-00}\CD2\01 - Don't Keep Me Wonderin'.wav

Pre-gap length 0:00:02.00

Peak level 97.7 %
Extraction speed 8.7 X
Track quality 100.0 %
Test CRC 73F8548B
Copy CRC 73F8548B
Accurately ripped (confidence 37) [FAA9F8C7] (AR v2)
Copy OK

Track 2

Filename E:\PT\Gregg Allman - Gregg Allman Live- Back to Macon, GA (2015) [FLAC] {11661-37459-00}\CD2\02 - Before the Bullets Fly.wav

Peak level 97.8 %
Extraction speed 9.2 X
Track quality 100.0 %
Test CRC E94EC2FD
Copy CRC E94EC2FD
Accurately ripped (confidence 37) [058C8166] (AR v2)
Copy OK

Track 3

Filename E:\PT\Gregg Allman - Gregg Allman Live- Back to Macon, GA (2015) [FLAC] {11661-37459-00}\CD2\03 - Melissa.wav

Peak level 97.5 %
Extraction speed 9.9 X
Track quality 100.0 %
Test CRC BF2F69EC
Copy CRC BF2F69EC
Accurately ripped (confidence 37) [63D01615] (AR v2)
Copy OK

Track 4

Filename E:\PT\Gregg Allman - Gregg Allman Live- Back to Macon, GA (2015) [FLAC] {11661-37459-00}\CD2\04 - Midnight Rider.wav

Peak level 97.6 %
Extraction speed 10.1 X
Track quality 100.0 %
Test CRC EE699099
Copy CRC EE699099
Accurately ripped (confidence 37) [114C573D] (AR v2)
Copy OK

Track 5

Filename E:\PT\Gregg Allman - Gregg Allman Live- Back to Macon, GA (2015) [FLAC] {11661-37459-00}\CD2\05 - Love Like Kerosene.wav

Peak level 97.6 %
Extraction speed 9.1 X
Track quality 99.9 %
Test CRC 06B63BA9
Copy CRC 06B63BA9
Accurately ripped (confidence 37) [2C810609] (AR v2)
Copy OK

Track 6

Filename E:\PT\Gregg Allman - Gregg Allman Live- Back to Macon, GA (2015) [FLAC] {11661-37459-00}\CD2\06 - Whipping Post.wav

Peak level 97.7 %
Extraction speed 10.7 X
Track quality 100.0 %
Test CRC 8AEE17CF
Copy CRC 8AEE17CF
Accurately ripped (confidence 37) [49E91629] (AR v2)
Copy OK

Track 7

Filename E:\PT\Gregg Allman - Gregg Allman Live- Back to Macon, GA (2015) [FLAC] {11661-37459-00}\CD2\07 - One Way Out.wav

Peak level 98.0 %
Extraction speed 11.7 X
Track quality 100.0 %
Test CRC 2ED78D51
Copy CRC 2ED78D51
Accurately ripped (confidence 37) [E33C25CA] (AR v2)
Copy OK


All tracks accurately ripped

No errors occurred

End of status report

–– AcoustID Plugin V1.2.0

Total fingerprints: 7


–– CUETools DB Plugin V2.1.6

[CTDB TOCID: JJ7XSf9N3uQ_9MsLTpcmcjyPVJ0-] found
Submit result: already submitted
Track | CTDB Status
1 | (74/75) Accurately ripped
2 | (75/75) Accurately ripped
3 | (75/75) Accurately ripped
4 | (75/75) Accurately ripped
5 | (75/75) Accurately ripped
6 | (74/75) Accurately ripped
7 | (74/75) Accurately ripped


==== Log checksum 9C896164463FC7411C9F976356C47473BC64717BE8D95A0779A8FC19823969C1 ====