Vince Guaraldi Trio - Jazz Impressions Of Black Orpheus (1962) {2010 Fantasy} [OJC Remasters Complete Series] (Item #15)

Posted By: ruskaval
Vince Guaraldi Trio - Jazz Impressions Of Black Orpheus (1962) {2010 Fantasy} [OJC Remasters Complete Series] (Item #15)

Vince Guaraldi Trio - Jazz Impressions Of Black Orpheus (1962) {2010 Fantasy} [OJC Remasters Complete Series] (Item #15)
EAC rip (secure mode) | FLAC (tracks)+CUE+LOG -> 349 Mb | MP3 @320 -> 148 Mb
Full Artwork @ 600 dpi (png) -> 153 Mb | 5% repair rar | 24-bit remaster
© 2010 Fantasy / Concord | 0888072323285
Jazz / Cool / Latin Jazz / Piano

An extension of the popular Original Jazz Classics series (est. 1982), the new OJC Remasters releases reveal the sonic benefits of 24-bit remastering-a technology that didn't exist when these titles were originally issued on compact disc. The addition of newly-written liner notes further enhances the illuminating quality of the OJC Remasters reissues. "Each of the recordings in this series is an all-time jazz classic," says Nick Phillips, Vice President of Jazz and Catalog A&R at Concord Music Group and producer of the series.

"With these reissues, we get a fresh look and a new perspective on these artists and some of their most important work-not only from the meticulous 24-bit remastering by Joe Tarantino, but also from the insights we glean from the new liner notes that have been written for each title in the series." The best modern jazz classics are revisited in the Original Jazz Classics Remasters series. Each title in the series features 24-bit remastering, original AND new liner notes, fully restored artwork, and bonus tracks (when available).
Vince Guaraldi Trio - Jazz Impressions Of Black Orpheus (1962) {2010 Fantasy} [OJC Remasters Complete Series] (Item #15)

Vince Guaraldi Trio - Jazz Impressions Of Black Orpheus (1962) {2010 Fantasy} [OJC Remasters Complete Series] (Item #15)

This album was originally intended as an early Stateside acknowledgment of the power of Brazilian bossa nova, and it remains one of the best examples of early jazz samba. Guaraldi selected classic themes from the acclaimed film Black Orpheus, applying the superior sense of presentation that had already made him a leading trio pianist. The lasting impact of the album, however, can be traced to the incredibly popular Guaraldi original that led off the original LP's contrasting second side of trio music. "Cast Your Fate to the Wind" became that rare phenomenon, an instrumental jazz hit single, and made Guaraldi a household name among jazz fans even before his Charlie Brown scores.
Vince Guaraldi Trio - Jazz Impressions Of Black Orpheus (1962) {2010 Fantasy} [OJC Remasters Complete Series] (Item #15)


Personnel:
Vince Guaraldi - piano
Monty Budwig - bass
Colin Bailey - drums

tracklist:
01 - Samba De Orfeu (aka Samba De Orpheus)
02 - Manha De Carnaval
03 - O Nosso Amor
04 - Felicidade
05 - Cast Your Fate To The Wind
06 - Moon River
07 - Alma-Ville
08 - Since I Fell For You
09 - Samba De Orfeu (aka Samba De Orpheus) (Single Version) (bonus track)
10 - Manha De Carnaval (Take 2) (bonus track)
11 - O Nosso Amor (Take 2) (bonus track)
12 - Felicidade (Take 3) (bonus track)
13 - Cast Your Fate To The Wind (Take 3) (bonus track)

Exact Audio Copy V1.0 beta 3 from 29. August 2011

EAC extraction logfile from 21. April 2014, 19:28

Vince Guaraldi Trio / Jazz Impressions Of Black Orpheus

Used drive : ATAPI iHAS124 B Adapter: 2 ID: 1

Read mode : Secure
Utilize accurate stream : Yes
Defeat audio cache : Yes
Make use of C2 pointers : No

Read offset correction : 6
Overread into Lead-In and Lead-Out : No
Fill up missing offset samples with silence : Yes
Delete leading and trailing silent blocks : No
Null samples used in CRC calculations : Yes
Used interface : Native Win32 interface for Win NT & 2000
Gap handling : Appended to previous track

Used output format : User Defined Encoder
Selected bitrate : 1024 kBit/s
Quality : High
Add ID3 tag : No
Command line compressor : C:\Program Files (x86)\FLAC Frontend\tools\flac.exe
Additional command line options : -8 -V -T "ARTIST=%artist%" -T "TITLE=%title%" -T "ALBUM=%albumtitle%" -T "DATE=%year%" -T "TRACKNUMBER=%tracknr%" -T "TOTALTRACKS=%numtracks%" -T "GENRE=%genre%" -T "ALBUMARTIST=%albumartist%" -T "ALBUM ARTIST=%albumartist%" -T "COMMENT=EAC Secure Mode, Test & Copy, AccurateRip, FLAC -8" %source%


TOC of the extracted CD

Track | Start | Length | Start sector | End sector
––––––––––––––––––––––––––––-
1 | 0:00.00 | 5:42.43 | 0 | 25692
2 | 5:42.43 | 5:50.50 | 25693 | 51992
3 | 11:33.18 | 4:56.49 | 51993 | 74241
4 | 16:29.67 | 4:49.72 | 74242 | 95988
5 | 21:19.64 | 3:10.27 | 95989 | 110265
6 | 24:30.16 | 5:21.02 | 110266 | 134342
7 | 29:51.18 | 5:00.45 | 134343 | 156887
8 | 34:51.63 | 4:23.65 | 156888 | 176677
9 | 39:15.53 | 3:18.56 | 176678 | 191583
10 | 42:34.34 | 6:17.36 | 191584 | 219894
11 | 48:51.70 | 5:00.69 | 219895 | 242463
12 | 53:52.64 | 4:54.65 | 242464 | 264578
13 | 58:47.54 | 3:04.68 | 264579 | 278446


Track 1

Filename C:\Vince Guaraldi Trio - Jazz Impressions Of Black Orpheus (1962) {2010 Fantasy} [OJC Remasters Complete Series]\01 - Samba De Orfeu (aka Samba De Orpheus).wav

Pre-gap length 0:00:02.00

Peak level 98.7 %
Extraction speed 3.7 X
Track quality 100.0 %
Test CRC 6F4FE71D
Copy CRC 6F4FE71D
Accurately ripped (confidence 16) [CDF85C4F] (AR v2)
Copy OK

Track 2

Filename C:\Vince Guaraldi Trio - Jazz Impressions Of Black Orpheus (1962) {2010 Fantasy} [OJC Remasters Complete Series]\02 - Manha De Carnaval.wav

Peak level 86.7 %
Extraction speed 4.3 X
Track quality 100.0 %
Test CRC 3B7E18B3
Copy CRC 3B7E18B3
Accurately ripped (confidence 17) [1B393C93] (AR v2)
Copy OK

Track 3

Filename C:\Vince Guaraldi Trio - Jazz Impressions Of Black Orpheus (1962) {2010 Fantasy} [OJC Remasters Complete Series]\03 - O Nosso Amor.wav

Peak level 98.7 %
Extraction speed 4.7 X
Track quality 100.0 %
Test CRC 51A5E10D
Copy CRC 51A5E10D
Accurately ripped (confidence 17) [478E1AC8] (AR v2)
Copy OK

Track 4

Filename C:\Vince Guaraldi Trio - Jazz Impressions Of Black Orpheus (1962) {2010 Fantasy} [OJC Remasters Complete Series]\04 - Felicidade.wav

Peak level 84.4 %
Extraction speed 5.1 X
Track quality 100.0 %
Test CRC 7A6D4E50
Copy CRC 7A6D4E50
Accurately ripped (confidence 17) [DDA3345E] (AR v2)
Copy OK

Track 5

Filename C:\Vince Guaraldi Trio - Jazz Impressions Of Black Orpheus (1962) {2010 Fantasy} [OJC Remasters Complete Series]\05 - Cast Your Fate To The Wind.wav

Peak level 85.5 %
Extraction speed 5.0 X
Track quality 100.0 %
Test CRC BAAEEB06
Copy CRC BAAEEB06
Accurately ripped (confidence 17) [35CCA4A8] (AR v2)
Copy OK

Track 6

Filename C:\Vince Guaraldi Trio - Jazz Impressions Of Black Orpheus (1962) {2010 Fantasy} [OJC Remasters Complete Series]\06 - Moon River.wav

Peak level 67.0 %
Extraction speed 4.7 X
Track quality 99.9 %
Test CRC 5BD5F420
Copy CRC 5BD5F420
Accurately ripped (confidence 17) [EDB4EEDD] (AR v2)
Copy OK

Track 7

Filename C:\Vince Guaraldi Trio - Jazz Impressions Of Black Orpheus (1962) {2010 Fantasy} [OJC Remasters Complete Series]\07 - Alma-Ville.wav

Peak level 92.2 %
Extraction speed 5.9 X
Track quality 100.0 %
Test CRC 811F0961
Copy CRC 811F0961
Accurately ripped (confidence 17) [937C19A8] (AR v2)
Copy OK

Track 8

Filename C:\Vince Guaraldi Trio - Jazz Impressions Of Black Orpheus (1962) {2010 Fantasy} [OJC Remasters Complete Series]\08 - Since I Fell For You.wav

Peak level 99.9 %
Extraction speed 6.1 X
Track quality 100.0 %
Test CRC D2E2F3D3
Copy CRC D2E2F3D3
Accurately ripped (confidence 17) [B3EC6A2A] (AR v2)
Copy OK

Track 9

Filename C:\Vince Guaraldi Trio - Jazz Impressions Of Black Orpheus (1962) {2010 Fantasy} [OJC Remasters Complete Series]\09 - Samba De Orfeu (aka Samba De Orpheus) (Single Version) (bonus track).wav

Peak level 84.7 %
Extraction speed 6.1 X
Track quality 100.0 %
Test CRC 13B433A7
Copy CRC 13B433A7
Accurately ripped (confidence 18) [EACCABDD] (AR v2)
Copy OK

Track 10

Filename C:\Vince Guaraldi Trio - Jazz Impressions Of Black Orpheus (1962) {2010 Fantasy} [OJC Remasters Complete Series]\10 - Manha De Carnaval (Take 2) (bonus track).wav

Peak level 98.7 %
Extraction speed 5.9 X
Track quality 99.9 %
Test CRC 7381E582
Copy CRC 7381E582
Accurately ripped (confidence 17) [1D05D041] (AR v2)
Copy OK

Track 11

Filename C:\Vince Guaraldi Trio - Jazz Impressions Of Black Orpheus (1962) {2010 Fantasy} [OJC Remasters Complete Series]\11 - O Nosso Amor (Take 2) (bonus track).wav

Peak level 98.7 %
Extraction speed 7.0 X
Track quality 100.0 %
Test CRC A326AC8B
Copy CRC A326AC8B
Accurately ripped (confidence 17) [CA6FF4EA] (AR v2)
Copy OK

Track 12

Filename C:\Vince Guaraldi Trio - Jazz Impressions Of Black Orpheus (1962) {2010 Fantasy} [OJC Remasters Complete Series]\12 - Felicidade (Take 3) (bonus track).wav

Peak level 89.6 %
Extraction speed 7.2 X
Track quality 100.0 %
Test CRC 1B71F5D1
Copy CRC 1B71F5D1
Accurately ripped (confidence 17) [52519149] (AR v2)
Copy OK

Track 13

Filename C:\Vince Guaraldi Trio - Jazz Impressions Of Black Orpheus (1962) {2010 Fantasy} [OJC Remasters Complete Series]\13 - Cast Your Fate To The Wind (Take 3) (bonus track).wav

Peak level 99.8 %
Extraction speed 5.2 X
Track quality 99.9 %
Test CRC 9C9215C5
Copy CRC 9C9215C5
Accurately ripped (confidence 17) [0D38C56F] (AR v2)
Copy OK


All tracks accurately ripped

No errors occurred

End of status report

==== Log checksum 209688A67A90B64F6C18C7280C6AD37E1EF06DFE4510D251C00204FA3B61D363 ====


Vince Guaraldi Trio - Jazz Impressions Of Black Orpheus (1962) {2010 Fantasy} [OJC Remasters Complete Series] (Item #15)

Vince Guaraldi Trio - Jazz Impressions Of Black Orpheus (1962) {2010 Fantasy} [OJC Remasters Complete Series] (Item #15)




NEXT -> Wes Montgomery - Boss Guitar (1963) {2010 Riverside} [OJC Remasters Complete Series] (Item #16)