Subcategories

Guitar Wolf - Golden Black (2005) RESTORED

Posted By: Rehabilly
Guitar Wolf - Golden Black (2005) RESTORED

Guitar Wolf - Golden Black (2005)
FLAC+CUE+LOG or MP3 CBR 320 | 74:36 min | 556 or 168 MB

Well known to be one of the most savage Rock & Roll bands of all time, the Japanese power trio Guitar Wolf were founded in Nagasaki in 1987. The band is known for songs with piercing vocals and an extremely loud style of noise-influenced punk/garage rock which emphasizes heavy distortion and feedback. They coined the phrase "Jet Rock 'N' Roll", which they also use to describe their musical style — an energetic cross between Rockabilly, Old School Punk, and Garage Rock. This 26-track anthology expresses Guitar Wolf's powerful voice the way all greatest hits albums should - by allowing the fans to choose every single track. All songs were re-mastered; includes rare and OOP material. 74+ minutes of original Japanese Jet Rock'n'Roll!



With their amps cranked past the threshold of pain and the hard but smeary blare of their guitars pushing the VU meters past the red and into the infrared, Guitar Wolf are a band who play straight-ahead punk rock with a physical force and frantic intensity matched by only a tiny handful of mere humans, and they've left behind plenty of fine records that document their speed-jive genius with commendable accuracy. Guitar Wolf's career came to a crossroads in March 2005 with the death of bassist Billy, and while guitarist Seiji and drummer Toru have pledged to continue with a new man on the four-string, that makes this as good a time as any to sum up the band's first era, and Golden Black is a "greatest hits" compilation that features 26 slabs of six-string frenzy recorded between 1997 and 2005, and from the first blast of "Can-Nana Fever" to the final growling report of their cover of "Summertime Blues", this album hits the road with the throttle opened all the way, and it never lets up for a moment. Even the album's token "ballad" – the noise-laden romantic number "I Love You, OK" – is tough as nails, and as they shout their tributes to such essential rock & roll subject matter as beer, girls, bikes, guitars, radio, space aliens, and lots more, this is primal no-quarter punk (with a rockabilly undertow) at its most joyous. If Golden Black: Greatest Hits isn't the definitive Guitar Wolf album – it doesn't cohere quite as well as the epochal Jet Generation – as an overview of the trio's first 18 years, it's superb blazing fun, and if you're looking for an ideal introduction to the group's glorious mayhem, this will do the trick just right.

~ Mark Deming, all media guide

Tracklist:

01. Can-Nana Fever
02. All Through The Night Buttobase!!
03. Missile Me
04. Rock 'N' Roll Etiquette
05. Wild Zero
06. Loverock
07. Lightning's Melody
08. Sky Star Jet
09. Jet Generation
10. Shinkansen High Tension
11. Jett Beer
12. Kaminari One
13. Invader Ace
14. UFO Romantics
15. Jet13
16. Murder By Rock
17. Mars Twist
18. Fujiyama Attack
19. Sparkle Baby
20. Red Rockabilly
21. Kawasaki Z2 750 Rock 'N' Roll
22. Taxi Driver
23. Shimane Slim
24. Roaring Blood
25. I Love You, OK
26. Summertime Blues




See also: WILD ZERO an essential trash movie with direct appearance of GUITAR WOLF. Pure fun! HERE

Exact Audio Copy V1.0 beta 1 from 15. November 2010

EAC extraction logfile from 24. June 2011, 16:02

Guitar Wolf / Golden Black

Used drive : PLEXTOR DVDR PX-716A Adapter: 1 ID: 0

Read mode : Secure
Utilize accurate stream : Yes
Defeat audio cache : Yes
Make use of C2 pointers : No

Read offset correction : 30
Overread into Lead-In and Lead-Out : No
Fill up missing offset samples with silence : Yes
Delete leading and trailing silent blocks : No
Null samples used in CRC calculations : Yes
Used interface : Installed external ASPI interface

Used output format : Internal WAV Routines
Sample format : 44.100 Hz; 16 Bit; Stereo


TOC of the extracted CD

Track | Start | Length | Start sector | End sector
––––––––––––––––––––––––––––-
1 | 0:00.00 | 2:04.04 | 0 | 9303
2 | 2:04.04 | 1:59.03 | 9304 | 18231
3 | 4:03.07 | 1:31.13 | 18232 | 25069
4 | 5:34.20 | 1:35.68 | 25070 | 32262
5 | 7:10.13 | 3:49.00 | 32263 | 49437
6 | 10:59.13 | 3:16.16 | 49438 | 64153
7 | 14:15.29 | 3:45.15 | 64154 | 81043
8 | 18:00.44 | 2:12.59 | 81044 | 91002
9 | 20:13.28 | 3:25.17 | 91003 | 106394
10 | 23:38.45 | 3:46.44 | 106395 | 123388
11 | 27:25.14 | 2:57.55 | 123389 | 136718
12 | 30:22.69 | 1:55.10 | 136719 | 145353
13 | 32:18.04 | 3:22.40 | 145354 | 160543
14 | 35:40.44 | 4:38.10 | 160544 | 181403
15 | 40:18.54 | 1:29.37 | 181404 | 188115
16 | 41:48.16 | 1:58.15 | 188116 | 196980
17 | 43:46.31 | 4:06.14 | 196981 | 215444
18 | 47:52.45 | 2:39.47 | 215445 | 227416
19 | 50:32.17 | 3:49.14 | 227417 | 244605
20 | 54:21.31 | 3:32.15 | 244606 | 260520
21 | 57:53.46 | 2:04.18 | 260521 | 269838
22 | 59:57.64 | 2:16.65 | 269839 | 280103
23 | 62:14.54 | 2:02.49 | 280104 | 289302
24 | 64:17.28 | 4:34.11 | 289303 | 309863
25 | 68:51.39 | 3:08.38 | 309864 | 324001
26 | 72:00.02 | 2:36.03 | 324002 | 335704


Range status and errors

Selected range

Filename C:\AvaxHome.ru\Guitar Wolf - Golden Black (2005) [Narnack Records]\Guitar Wolf - Golden Black (NCK7035-2).wav

Peak level 56.2 %
Extraction speed 0.0 X
Range quality 100.0 %
Test CRC AC32DCD9
Copy CRC AC32DCD9
Copy OK

No errors occurred


AccurateRip summary

Track 1 accurately ripped (confidence 3) [78B0EF55]
Track 2 accurately ripped (confidence 3) [519C46E9]
Track 3 accurately ripped (confidence 3) [74EF6337]
Track 4 accurately ripped (confidence 3) [8214586E]
Track 5 accurately ripped (confidence 3) [9932A1CA]
Track 6 accurately ripped (confidence 3) [ADC04D3F]
Track 7 accurately ripped (confidence 3) [412235E7]
Track 8 accurately ripped (confidence 3) [817DC070]
Track 9 accurately ripped (confidence 3) [3B292223]
Track 10 accurately ripped (confidence 3) [1ACFB4A2]
Track 11 accurately ripped (confidence 3) [9E51B817]
Track 12 accurately ripped (confidence 3) [72D00208]
Track 13 accurately ripped (confidence 3) [1B34CB75]
Track 14 accurately ripped (confidence 3) [27A0D37D]
Track 15 accurately ripped (confidence 2) [0E119025]
Track 16 accurately ripped (confidence 3) [ABF2F2A6]
Track 17 accurately ripped (confidence 3) [BF6EE03A]
Track 18 accurately ripped (confidence 3) [CE7F44BC]
Track 19 accurately ripped (confidence 3) [E1B50943]
Track 20 accurately ripped (confidence 3) [B4B20566]
Track 21 accurately ripped (confidence 3) [CBD83BB4]
Track 22 accurately ripped (confidence 3) [049EC882]
Track 23 accurately ripped (confidence 3) [C831175F]
Track 24 accurately ripped (confidence 3) [DAB6F9DD]
Track 25 accurately ripped (confidence 3) [7A03A40E]
Track 26 accurately ripped (confidence 3) [E3FB0267]

All tracks accurately ripped

End of status report

==== Log checksum 33DEE68AB74E6057409E6E7A0829D3F819F7C024B229211D42F076F65BFC72EA ====



Produced by Guitar Wolf. Mastered by Shuji Kitamura
All additional information read inside the booklet.

Release Date: November 2005
Label: Narnack Records
Catalog No.: NCK 7035-2
The Right choice*
http://www.nitroflare.com/view/97EF0DAD2D6667E
http://www.nitroflare.com/view/28FC4D538C5F976
http://www.nitroflare.com/view/88881C3346FFEF3

all covers.png (138 MB)
http://www.nitroflare.com/view/D877DFBB8772745

lossy.mp3
http://www.nitroflare.com/view/0C4ABC48958AFB5



* Original CD -> EAC Image, embedded cuesheet & more, foobar2000 ready, etc.
(all CUEs, LOGs and other technical info includes in the internal "CD_Support" archive).

_______________________________