Subcategories

Friedrich Gulda – Claudio Abbado – W.A. Mozart – Piano Concertos Nos. 25 & 27 (1976)

Posted By: janwal46
Friedrich Gulda – Claudio Abbado – W.A. Mozart – Piano Concertos Nos. 25 & 27 (1976)

Friedrich Gulda – Claudio Abbado – W.A. Mozart – Piano Concertos Nos. 25 & 27 (1976)

Friedrich Gulda – Claudio Abbado – W.A. Mozart – Piano Concertos Nos. 25 & 27 (1976)
Deutsche Grammophon | 1976 | Classical | EAC RIP | FLAC+CUE+LOG+HQ-Covers (400Dpi) | 276Mb+10Mb

A dream coupling of Abbado and Gulda, these are majestic and incomparable recordings to treasure for a lifetime !!!!

Personnel:

Friedrich Gulda - Piano
Wiener Philharmoniker - Claudio Abbado

Tracklist:

Wolfgang Amadeus Mozart (1756-1791)

Piano Concerto No.25 in C, K.503
01 1. Allegro maestoso
02 2. Andante
03 3. Allegretto

Piano Concerto No.27 in B flat, K.595
04 1. Allegro
05 2. Larghetto
06 3. Allegro

Sound Quality: 9

Exact Audio Copy V0.99 prebeta 5 from 4. May 2009

EAC extraction logfile from 31. December 2009, 10:35

Gulda - Abbado / W.A. Mozart-Piano Concertos Nos. 25 & 27

Used drive : _NEC DVD_RW ND-2500A Adapter: 1 ID: 0

Read mode : Secure
Utilize accurate stream : Yes
Defeat audio cache : Yes
Make use of C2 pointers : No

Read offset correction : 48
Overread into Lead-In and Lead-Out : No
Fill up missing offset samples with silence : Yes
Delete leading and trailing silent blocks : No
Null samples used in CRC calculations : Yes
Used interface : Native Win32 interface for Win NT & 2000

Used output format : Internal WAV Routines
Sample format : 44.100 Hz; 16 Bit; Stereo


TOC of the extracted CD

Track | Start | Length | Start sector | End sector
––––––––––––––––––––––––––––-
1 | 0:00.33 | 16:31.00 | 33 | 74357
2 | 16:31.33 | 8:24.00 | 74358 | 112157
3 | 24:55.33 | 9:58.00 | 112158 | 157007
4 | 34:53.33 | 14:50.00 | 157008 | 223757
5 | 49:43.33 | 8:15.00 | 223758 | 260882
6 | 57:58.33 | 9:19.65 | 260883 | 302872


Range status and errors

Selected range

Filename F:\AVAXHOME\Gulda - Abbado - W.A. Mozart-Piano Concertos Nos. 25 & 27 (1976)\Gulda - Abbado - W.A. Mozart-Piano Concertos Nos. 25 & 27.wav

Peak level 93.7 %
Range quality 99.9 %
Copy CRC 8859AD6A
Copy OK

No errors occurred


AccurateRip summary

Track 1 accurately ripped (confidence 18) [C6DFDAB5]
Track 2 accurately ripped (confidence 18) [14CF26A1]
Track 3 accurately ripped (confidence 17) [1C6E6276]
Track 4 accurately ripped (confidence 18) [34F6018A]
Track 5 accurately ripped (confidence 18) [1B52448E]
Track 6 accurately ripped (confidence 18) [13E4F4AA]

All tracks accurately ripped

End of status report

RIPPED BY JANWAL46

RS Links:



In case you encounter dead links in any of my posts, please send me a private message !!!!


Password: janwal46

Say thanks, but please, no mirrors and/or direct links in your comments !!!!