Subcategories

Hampton Hawes - Northern Windows (1974) {2014 Japan Rare Groove Funk Best Collection 1000}

Posted By: ruskaval
Hampton Hawes - Northern Windows (1974) {2014 Japan Rare Groove Funk Best Collection 1000}

Hampton Hawes - Northern Windows (1974) {2014 Japan Rare Groove Funk Best Collection 1000}
EAC rip (secure mode) | FLAC (tracks)+CUE+LOG -> 226 Mb | MP3 @320 -> 80 Mb
Full Artwork @ 600 dpi (png) -> 191 Mb | 5% repair rar
© 2014 Prestige / Concord / Universal Music Japan | UCCO-90359
Jazz / Jazz Funk / Hard Bop / Piano

One of the best David Axelrod-assisted albums from the early 70s – a sweet batch of funky cuts with arrangements and backings handled by Axe, and loads of great keyboard lines from the legendary Hampton Hawes! The record really bubbles with the warm and soulful approach Axelrod was using at Fantasy – kind of a step off his stark modern sound at Capitol, but still done with just the right amount of space and appreciation of a funky rhythm. The great Carol Kaye is on bass, and Hawes plays some totally sweeeeeeeet electric keys on the set – really stretching out in ways that are different than some of his acoustic work of a few years before – yet still filled with the same rich sort of imagination. Titles include "Sierra Morena", "Go Down Moses", "Web", "Tune Axle Grease", and "C&H Sugar".
Hampton Hawes - Northern Windows (1974) {2014 Japan Rare Groove Funk Best Collection 1000}


Personnel:
Hampton Hawes - acoustic and electric piano
Carol Kaye - electric bass
Spider Webb - drums
George Bohanon - trombone
Allen DeRienzo, Snooky Young - trumpets
Jackie Kelso, William Green, Jay Migliori - saxes and flutes
David Axelrod - arranger, conductor, producer

Hampton Hawes - Northern Windows (1974) {2014 Japan Rare Groove Funk Best Collection 1000}


tracklist:
01 - Sierra Morena
02 - Go Down Moses
03 - Bach
04 - Web
05 - Tune Axle Grease
06 - C & H Sugar

Exact Audio Copy V1.1 from 23. June 2015

EAC extraction logfile from 9. August 2015, 13:46

Hampton Hawes / Northern Windows

Used drive : ATAPI iHAS124 B Adapter: 2 ID: 0

Read mode : Secure
Utilize accurate stream : Yes
Defeat audio cache : Yes
Make use of C2 pointers : No

Read offset correction : 6
Overread into Lead-In and Lead-Out : No
Fill up missing offset samples with silence : Yes
Delete leading and trailing silent blocks : No
Null samples used in CRC calculations : Yes
Used interface : Installed external ASPI interface
Gap handling : Appended to previous track

Used output format : User Defined Encoder
Selected bitrate : 1024 kBit/s
Quality : High
Add ID3 tag : No
Command line compressor : C:\Program Files (x86)\FLAC Frontend\tools\flac.exe
Additional command line options : -8 -V -T "ARTIST=%artist%" -T "TITLE=%title%" -T "ALBUM=%albumtitle%" -T "DATE=%year%" -T "TRACKNUMBER=%tracknr%" -T "TOTALTRACKS=%numtracks%" -T "GENRE=%genre%" -T "ALBUMARTIST=%albumartist%" -T "ALBUM ARTIST=%albumartist%" -T "COMMENT=EAC Secure Mode, Test & Copy, AccurateRip, FLAC -8" %source%


TOC of the extracted CD

Track | Start | Length | Start sector | End sector
––––––––––––––––––––––––––––-
1 | 0:00.00 | 3:55.68 | 0 | 17692
2 | 3:55.68 | 6:29.12 | 17693 | 46879
3 | 10:25.05 | 3:01.43 | 46880 | 60497
4 | 13:26.48 | 3:32.70 | 60498 | 76467
5 | 16:59.43 | 5:06.70 | 76468 | 99487
6 | 22:06.38 | 11:35.51 | 99488 | 151663


Track 1

Filename M:\_EAC\Hampton Hawes - Northern Windows (1974) [FLAC] {2014 Japan Rare Groove Funk Best Collection 1000}\01 - Sierra Morena.wav

Pre-gap length 0:00:02.00

Peak level 99.7 %
Extraction speed 3.4 X
Track quality 100.0 %
Test CRC D620879A
Copy CRC D620879A
Cannot be verified as accurate (confidence 1) [6077026A], AccurateRip returned [CEB18282] (AR v2)
Copy OK

Track 2

Filename M:\_EAC\Hampton Hawes - Northern Windows (1974) [FLAC] {2014 Japan Rare Groove Funk Best Collection 1000}\02 - Go Down Moses.wav

Pre-gap length 0:00:02.46

Peak level 99.7 %
Extraction speed 4.1 X
Track quality 100.0 %
Test CRC 2E6F3D4E
Copy CRC 2E6F3D4E
Cannot be verified as accurate (confidence 1) [A1609F32], AccurateRip returned [1989ADE2] (AR v2)
Copy OK

Track 3

Filename M:\_EAC\Hampton Hawes - Northern Windows (1974) [FLAC] {2014 Japan Rare Groove Funk Best Collection 1000}\03 - Bach.wav

Pre-gap length 0:00:01.48

Peak level 99.7 %
Extraction speed 3.1 X
Track quality 99.9 %
Test CRC 7202D71D
Copy CRC 7202D71D
Cannot be verified as accurate (confidence 1) [F586CFA7], AccurateRip returned [B33AB974] (AR v2)
Copy OK

Track 4

Filename M:\_EAC\Hampton Hawes - Northern Windows (1974) [FLAC] {2014 Japan Rare Groove Funk Best Collection 1000}\04 - Web.wav

Pre-gap length 0:00:01.39

Peak level 99.7 %
Extraction speed 4.5 X
Track quality 100.0 %
Test CRC 30553C92
Copy CRC 30553C92
Cannot be verified as accurate (confidence 1) [7BF8FE55], AccurateRip returned [23C16BAB] (AR v2)
Copy OK

Track 5

Filename M:\_EAC\Hampton Hawes - Northern Windows (1974) [FLAC] {2014 Japan Rare Groove Funk Best Collection 1000}\05 - Tune Axle Grease.wav

Pre-gap length 0:00:01.61

Peak level 99.8 %
Extraction speed 5.0 X
Track quality 100.0 %
Test CRC A4675C76
Copy CRC A4675C76
Cannot be verified as accurate (confidence 1) [615C6B5C], AccurateRip returned [B8471634] (AR v2)
Copy OK

Track 6

Filename M:\_EAC\Hampton Hawes - Northern Windows (1974) [FLAC] {2014 Japan Rare Groove Funk Best Collection 1000}\06 - C & H Sugar.wav

Pre-gap length 0:00:01.65

Peak level 99.7 %
Extraction speed 5.9 X
Track quality 100.0 %
Test CRC 91386963
Copy CRC 91386963
Cannot be verified as accurate (confidence 1) [59C20514], AccurateRip returned [ADF1ABA0] (AR v2)
Copy OK


No tracks could be verified as accurate
You may have a different pressing from the one(s) in the database

No errors occurred

End of status report

==== Log checksum 741D42440DFA5A372A4D33A398EA5E59358F7CBCF6D896D9CA60852B07EF05DD ====


Hampton Hawes - Northern Windows (1974) {2014 Japan Rare Groove Funk Best Collection 1000}

Hampton Hawes - Northern Windows (1974) {2014 Japan Rare Groove Funk Best Collection 1000}




NEXT -> More 2014 Japan Rare Groove Funk Best Collection 1000…