Subcategories

George Frideric Handel - Collegium Cartusianum - Belshazzar [HWV 61] (2001, MDG "Gold" # 332 1079-2) [RE-UP]

Posted By: luckburz
George Frideric Handel - Collegium Cartusianum - Belshazzar [HWV 61] (2001, MDG "Gold" # 332 1079-2) [RE-UP]

George Frideric Handel - Belshazzar [HWV 61] (3xCD)
Kölner Kammerchor / Collegium Cartusianum / Peter Neumann
EAC+LOG+CUE | FLAC: 1,06 GB | MP3 CBR 320: 404 MB | Full Artwork | 5% Recovery Info + Rev-part
Label/Cat#: MDG 332 1079-2 | Country/Year: Germany 2001 | Genre: Classical | Hoster: Style: Oratorio

MD5 [X] CUE [X] LOG [X] INFO TEXT [X] ARTWORK [X]

webfind [ ] selfrip [X]

George Frideric Handel - Collegium Cartusianum - Belshazzar [HWV 61] (2001, MDG "Gold" # 332 1079-2) [RE-UP]

George Frideric Handel - Collegium Cartusianum - Belshazzar [HWV 61] (2001, MDG "Gold" # 332 1079-2) [RE-UP]



Exact Audio Copy V1.0 beta 2 from 29. April 2011

EAC extraction logfile from 25. May 2012, 12:53

Collegium Cartusianum / Händel - Belshazzar CD 1

Used drive : PIONEER BD-RW BDR-206 Adapter: 2 ID: 3

Read mode : Secure
Utilize accurate stream : Yes
Defeat audio cache : Yes
Make use of C2 pointers : No

Read offset correction : 667
Overread into Lead-In and Lead-Out : No
Fill up missing offset samples with silence : Yes
Delete leading and trailing silent blocks : No
Null samples used in CRC calculations : Yes
Used interface : Native Win32 interface for Win NT & 2000

Used output format : User Defined Encoder
Selected bitrate : 896 kBit/s
Quality : High
Add ID3 tag : No
Command line compressor : C:\Program Files\FLAC\flac.exe
Additional command line options : -5 -T "Artist=%artist%" -T "Title=%title%" -T "Album=%albumtitle%" -T "Date=%year%" -T "Tracknumber=%tracknr%" -T "Genre=%genre%" %source% -o %dest%


TOC of the extracted CD

Track | Start | Length | Start sector | End sector
––––––––––––––––––––––––––––-
1 | 0:00.00 | 4:13.72 | 0 | 19046
2 | 4:13.72 | 4:47.03 | 19047 | 40574
3 | 9:01.00 | 4:37.07 | 40575 | 61356
4 | 13:38.07 | 2:40.68 | 61357 | 73424
5 | 16:19.00 | 1:38.00 | 73425 | 80774
6 | 17:57.00 | 3:36.47 | 80775 | 97021
7 | 21:33.47 | 2:02.07 | 97022 | 106178
8 | 23:35.54 | 4:13.33 | 106179 | 125186
9 | 27:49.12 | 3:38.48 | 125187 | 141584
10 | 31:27.60 | 0:16.52 | 141585 | 142836
11 | 31:44.37 | 3:47.23 | 142837 | 159884
12 | 35:31.60 | 0:52.55 | 159885 | 163839
13 | 36:24.40 | 3:15.62 | 163840 | 178526
14 | 39:40.27 | 8:23.45 | 178527 | 216296
15 | 48:03.72 | 3:56.20 | 216297 | 234016
16 | 52:00.17 | 4:49.35 | 234017 | 255726
17 | 56:49.52 | 1:02.60 | 255727 | 260436
18 | 57:52.37 | 8:02.70 | 260437 | 296656


Range status and errors

Selected range

Filename I:\=== VINYL RIPS ===\=== EAC===\X FRESH RIP\Collegium Cartusianum - Händel - Belshazzar CD 1.wav

Peak level 86.4 %
Extraction speed 8.1 X
Range quality 100.0 %
Test CRC 8BF4C895
Copy CRC 8BF4C895
Copy OK

No errors occurred


AccurateRip summary

Track 1 accurately ripped (confidence 3) [08473E4E] (AR v1)
Track 2 accurately ripped (confidence 3) [F1C688A3] (AR v1)
Track 3 accurately ripped (confidence 3) [1B05C341] (AR v1)
Track 4 accurately ripped (confidence 3) [1E8C4DA6] (AR v1)
Track 5 accurately ripped (confidence 3) [C6139C9F] (AR v1)
Track 6 accurately ripped (confidence 3) [7EF58210] (AR v1)
Track 7 accurately ripped (confidence 3) [86815537] (AR v1)
Track 8 accurately ripped (confidence 3) [FCD02BD5] (AR v1)
Track 9 accurately ripped (confidence 3) [AB168920] (AR v1)
Track 10 accurately ripped (confidence 3) [B59C963A] (AR v1)
Track 11 accurately ripped (confidence 3) [674D7D70] (AR v1)
Track 12 accurately ripped (confidence 3) [0B71C695] (AR v1)
Track 13 accurately ripped (confidence 3) [AC697E14] (AR v1)
Track 14 accurately ripped (confidence 3) [A13E913E] (AR v1)
Track 15 accurately ripped (confidence 3) [4A658A00] (AR v1)
Track 16 accurately ripped (confidence 3) [922FDF48] (AR v1)
Track 17 accurately ripped (confidence 3) [5CA33D8A] (AR v1)
Track 18 accurately ripped (confidence 3) [2B1866B3] (AR v1)

All tracks accurately ripped

End of status report

==== Log checksum 420B2378C1FFE7C1D4E82916AB57E1301B17B94FA6180B64B4CC4A5B2C882FC2 ====

Exact Audio Copy V1.0 beta 2 from 29. April 2011

EAC extraction logfile from 25. May 2012, 14:02

Collegium Cartusianum / Händel - Belshazzar CD 2

Used drive : PIONEER BD-RW BDR-206 Adapter: 2 ID: 3

Read mode : Secure
Utilize accurate stream : Yes
Defeat audio cache : Yes
Make use of C2 pointers : No

Read offset correction : 667
Overread into Lead-In and Lead-Out : No
Fill up missing offset samples with silence : Yes
Delete leading and trailing silent blocks : No
Null samples used in CRC calculations : Yes
Used interface : Native Win32 interface for Win NT & 2000

Used output format : User Defined Encoder
Selected bitrate : 896 kBit/s
Quality : High
Add ID3 tag : No
Command line compressor : C:\Program Files\FLAC\flac.exe
Additional command line options : -5 -T "Artist=%artist%" -T "Title=%title%" -T "Album=%albumtitle%" -T "Date=%year%" -T "Tracknumber=%tracknr%" -T "Genre=%genre%" %source% -o %dest%


TOC of the extracted CD

Track | Start | Length | Start sector | End sector
––––––––––––––––––––––––––––-
1 | 0:00.00 | 1:35.27 | 0 | 7151
2 | 1:35.27 | 3:09.60 | 7152 | 21386
3 | 4:45.12 | 1:42.08 | 21387 | 29044
4 | 6:27.20 | 6:30.25 | 29045 | 58319
5 | 12:57.45 | 4:51.60 | 58320 | 80204
6 | 17:49.30 | 7:02.45 | 80205 | 111899
7 | 24:52.00 | 0:47.37 | 111900 | 115461
8 | 25:39.37 | 4:28.43 | 115462 | 135604
9 | 30:08.05 | 0:31.60 | 135605 | 137989
10 | 30:39.65 | 2:57.72 | 137990 | 151336
11 | 33:37.62 | 2:28.05 | 151337 | 162441
12 | 36:05.67 | 2:30.50 | 162442 | 173741
13 | 38:36.42 | 0:24.50 | 173742 | 175591
14 | 39:01.17 | 1:37.08 | 175592 | 182874
15 | 40:38.25 | 1:03.55 | 182875 | 187654
16 | 41:42.05 | 1:34.17 | 187655 | 194721
17 | 43:16.22 | 1:50.70 | 194722 | 203041
18 | 45:07.17 | 1:38.48 | 203042 | 210439
19 | 46:45.65 | 2:09.02 | 210440 | 220116
20 | 48:54.67 | 0:27.55 | 220117 | 222196
21 | 49:22.47 | 6:31.50 | 222197 | 251571
22 | 55:54.22 | 4:27.20 | 251572 | 271616
23 | 60:21.42 | 1:09.18 | 271617 | 276809
24 | 61:30.60 | 4:48.67 | 276810 | 298476


Range status and errors

Selected range

Filename I:\=== VINYL RIPS ===\=== EAC===\X FRESH RIP\Collegium Cartusianum - Händel - Belshazzar CD 2.wav

Peak level 87.0 %
Extraction speed 2.0 X
Range quality 99.9 %
Test CRC 56D73382
Copy CRC 56D73382
Copy OK

No errors occurred


AccurateRip summary

Track 1 accurately ripped (confidence 3) [0A79F517] (AR v1)
Track 2 accurately ripped (confidence 3) [D544F9C1] (AR v1)
Track 3 accurately ripped (confidence 3) [9A1F0BE2] (AR v1)
Track 4 accurately ripped (confidence 3) [A8E2D13E] (AR v1)
Track 5 accurately ripped (confidence 3) [243A846D] (AR v1)
Track 6 accurately ripped (confidence 3) [16376722] (AR v1)
Track 7 accurately ripped (confidence 3) [E605D3B7] (AR v1)
Track 8 accurately ripped (confidence 3) [0AC96B5B] (AR v1)
Track 9 accurately ripped (confidence 3) [A5B1EB2C] (AR v1)
Track 10 accurately ripped (confidence 3) [F62243A2] (AR v1)
Track 11 accurately ripped (confidence 3) [49929035] (AR v1)
Track 12 accurately ripped (confidence 3) [DE82409C] (AR v1)
Track 13 accurately ripped (confidence 3) [D2C1DF58] (AR v1)
Track 14 accurately ripped (confidence 3) [54AD0B0D] (AR v1)
Track 15 accurately ripped (confidence 3) [7CA2D4BA] (AR v1)
Track 16 accurately ripped (confidence 3) [29FAFADC] (AR v1)
Track 17 accurately ripped (confidence 3) [7C3D5F28] (AR v1)
Track 18 accurately ripped (confidence 3) [EED7B1E9] (AR v1)
Track 19 accurately ripped (confidence 3) [34EB09A4] (AR v1)
Track 20 accurately ripped (confidence 3) [F4D8D3C0] (AR v1)
Track 21 accurately ripped (confidence 3) [E2EF31CF] (AR v1)
Track 22 accurately ripped (confidence 3) [DA0A7E36] (AR v1)
Track 23 accurately ripped (confidence 3) [879D3DFC] (AR v1)
Track 24 accurately ripped (confidence 3) [799C5F6B] (AR v1)

All tracks accurately ripped

End of status report

==== Log checksum 109A2A8E09C922F751ECB654864A06C7B17366C1059322729651D5CFDFFCC462 ====

Exact Audio Copy V1.0 beta 2 from 29. April 2011

EAC extraction logfile from 28. May 2012, 23:24

Collegium Cartusianum / Händel - Belshazzar CD 3

Used drive : PIONEER BD-RW BDR-206 Adapter: 2 ID: 3

Read mode : Secure
Utilize accurate stream : Yes
Defeat audio cache : Yes
Make use of C2 pointers : No

Read offset correction : 667
Overread into Lead-In and Lead-Out : No
Fill up missing offset samples with silence : Yes
Delete leading and trailing silent blocks : No
Null samples used in CRC calculations : Yes
Used interface : Native Win32 interface for Win NT & 2000

Used output format : User Defined Encoder
Selected bitrate : 896 kBit/s
Quality : High
Add ID3 tag : No
Command line compressor : C:\Program Files\FLAC\flac.exe
Additional command line options : -5 -T "Artist=%artist%" -T "Title=%title%" -T "Album=%albumtitle%" -T "Date=%year%" -T "Tracknumber=%tracknr%" -T "Genre=%genre%" %source% -o %dest%


TOC of the extracted CD

Track | Start | Length | Start sector | End sector
––––––––––––––––––––––––––––-
1 | 0:00.00 | 4:26.45 | 0 | 19994
2 | 4:26.45 | 0:23.62 | 19995 | 21781
3 | 4:50.32 | 2:22.55 | 21782 | 32486
4 | 7:13.12 | 1:01.03 | 32487 | 37064
5 | 8:14.15 | 1:28.30 | 37065 | 43694
6 | 9:42.45 | 1:32.65 | 43695 | 50659
7 | 11:15.35 | 0:34.67 | 50660 | 53276
8 | 11:50.27 | 2:06.48 | 53277 | 62774
9 | 13:57.00 | 0:23.35 | 62775 | 64534
10 | 14:20.35 | 2:50.55 | 64535 | 77339
11 | 17:11.15 | 4:29.20 | 77340 | 97534
12 | 21:40.35 | 0:52.07 | 97535 | 101441
13 | 22:32.42 | 1:39.20 | 101442 | 108886
14 | 24:11.62 | 1:38.50 | 108887 | 116286
15 | 25:50.37 | 5:28.20 | 116287 | 140906


Range status and errors

Selected range

Filename I:\=== VINYL RIPS ===\=== EAC===\X FRESH RIP\Collegium Cartusianum - Händel - Belshazzar CD 3.wav

Peak level 86.1 %
Extraction speed 6.5 X
Range quality 100.0 %
Test CRC A8092751
Copy CRC A8092751
Copy OK

No errors occurred


AccurateRip summary

Track 1 accurately ripped (confidence 2) [52FF4847] (AR v1)
Track 2 accurately ripped (confidence 2) [24A034C0] (AR v1)
Track 3 accurately ripped (confidence 2) [11A05EB4] (AR v1)
Track 4 accurately ripped (confidence 2) [9753225A] (AR v1)
Track 5 accurately ripped (confidence 2) [7A7D29EF] (AR v1)
Track 6 accurately ripped (confidence 2) [DF6140E9] (AR v1)
Track 7 accurately ripped (confidence 2) [C61DBFB6] (AR v1)
Track 8 accurately ripped (confidence 2) [FBD87625] (AR v1)
Track 9 accurately ripped (confidence 2) [FDBC1D50] (AR v1)
Track 10 accurately ripped (confidence 2) [690C271B] (AR v1)
Track 11 accurately ripped (confidence 2) [E6BADE15] (AR v1)
Track 12 accurately ripped (confidence 2) [C84080A5] (AR v1)
Track 13 accurately ripped (confidence 2) [D4F8393F] (AR v1)
Track 14 accurately ripped (confidence 2) [AF7C1DEA] (AR v1)
Track 15 accurately ripped (confidence 2) [26103DD7] (AR v1)

All tracks accurately ripped

End of status report

==== Log checksum 4A581239CEF7F55FC9E01BB548A088F4BF8F05AF3D05063C1AEBA5F6A6BD7788 ====


foobar2000 1.1.7 / Dynamic Range Meter 1.1.1
log date: 2012-06-01 20:12:27

––––––––––––––––––––––––––––––––––––––––
Analyzed: Collegium Cartusianum / Händel - Belshazzar CD 1
––––––––––––––––––––––––––––––––––––––––

DR Peak RMS Duration Track
––––––––––––––––––––––––––––––––––––––––
DR12 -8.25 dB -24.06 dB 4:14 01-Overture
DR13 -2.45 dB -22.33 dB 4:47 02-Recitative - Vain, Fluctuating State Of Human Empire! - Simone Kermes
DR12 -3.25 dB -21.20 dB 4:37 03-Air - Thou, God Most High, And Thou Alone - Simone Kermes
DR13 -1.26 dB -17.99 dB 2:41 04-Chorus Of Babylonians - Behold, By Persia's Hero Made
DR15 -4.14 dB -24.99 dB 1:38 05-Recitative - Well May They Laugh - Christopher Robson
DR13 -3.32 dB -22.37 dB 3:37 06-Air - Opress'd With Never-ceasing Grief - Franz-Josef Selig
DR14 -5.15 dB -23.89 dB 2:02 07-Air - Dry Those Unavailing Tears - Christopher Robson
DR14 -5.10 dB -24.06 dB 4:13 08-Recitative - Be Comforted - Safe Though The Tyrant - Christopher Robson
DR14 -2.29 dB -20.49 dB 3:39 09-Air - Behold The Monstrous Human Beast - Franz-Josef Selig
DR12 -12.55 dB -29.83 dB 0:17 10-Recitative - Can You Then Think It Strange - Christopher Robson
DR14 -5.90 dB -26.14 dB 3:47 11-Air - Great God! - Christopher Robson
DR12 -8.22 dB -26.73 dB 0:53 12-Recitative - My Friends, Be Confident - Christopher Robson
DR14 -1.30 dB -18.52 dB 3:16 13-Chorus - All Empires Upon God Depend
DR14 -1.71 dB -23.66 dB 8:24 14-Air - Oh, Sacred Oracles Of Truth! - Patrick Van Goethem
DR13 -1.27 dB -17.84 dB 3:56 15-Chorus Of Jews - Sing, Oh Ye Heav'ns!
DR15 -1.30 dB -21.99 dB 4:49 16-Air - Let Festal Joy Triumphant Reign! - Markus Brutscher
DR12 -4.12 dB -21.72 dB 1:03 17-Recitative - For You, My Friends, The Nobles Of My Court - Simone Kermes
DR14 -1.28 dB -22.82 dB 8:03 18-Air - The Leafy Honours Of The Field - Simone Kermes
––––––––––––––––––––––––––––––––––––––––

Number of tracks: 18
Official DR value: DR13

Samplerate: 44100 Hz
Channels: 2
Bits per sample: 16
Bitrate: 627 kbps
Codec: FLAC
================================================================================

––––––––––––––––––––––––––––––––––––––––
Analyzed: Collegium Cartusianum / Händel - Belshazzar CD 2
––––––––––––––––––––––––––––––––––––––––

DR Peak RMS Duration Track
––––––––––––––––––––––––––––––––––––––––
DR14 -3.27 dB -23.81 dB 1:35 01-Recitative - It Is The Custom, I May Say, The Law - Simone Kermes
DR12 -1.27 dB -18.94 dB 3:10 02-Chorus Of Jews - Recall, Oh King! Thy Rash Command
DR16 -2.66 dB -24.83 dB 1:42 03-Recitative - They Tell You True - Simone Kermes
DR15 -1.90 dB -24.04 dB 6:30 04-Duet - Oh Dearer Than My Life - Simone Kermes
DR13 -1.74 dB -19.95 dB 4:52 05-Chorus Of Jews - By Slow Degrees The Wrath Of God
DR14 -3.11 dB -20.94 dB 7:03 06-Chorus Of Persians - See, From His Post Euphrates Flies!
DR12 -10.55 dB -27.65 dB 0:47 07-Recitative - You See My Friends - Christopher Robson
DR15 -4.12 dB -24.02 dB 4:29 08-Air - Amaz'd To Find The Foe So Near - Christopher Robson
DR12 -1.31 dB -15.77 dB 0:32 09-Chorus Of Persians - To Arms, To Arms!
DR14 -1.89 dB -19.41 dB 2:58 10-Chorus Of Babylonians - Ye Tutelar Gods Of Our Empire
DR14 -1.21 dB -21.47 dB 2:28 11-Air - Let The Deep Bowl Thy Praise Confess - Markus Brutscher
DR15 -2.92 dB -24.46 dB 2:31 12-Recitative - Where IS The God Of Judah's Boasted Pow'r? - Markus Brutscher
DR11 -10.63 dB -28.50 dB 0:25 13-Recitative - Call All My Wise Men - Markus Brutscher
DR13 -6.08 dB -22.71 dB 1:37 14-Sinfonia - Allegro Postillions
DR10 -2.74 dB -26.39 dB 1:04 15-Recitative - Ye Sages! Welcome Always To Your King - Markus Brutscher
DR12 -2.33 dB -19.75 dB 1:34 16-Chorus Of Babylonians - Oh Misery! - Oh Terror!
DR13 -3.40 dB -24.83 dB 1:51 17-Recitative - Oh King, Live For Ever! - Simone Kermes
DR13 -6.58 dB -26.09 dB 1:39 18-Air - No! To Thyself Thy Trifles Be - Patrick Van Goethem
DR14 -3.22 dB -24.97 dB 2:09 19-Recitative - Yet To Obey - Patrick Van Goethem
DR11 -10.92 dB -28.04 dB 0:28 20-Recitative - Oh Sentence Too Severe! - Simone Kermes
DR15 -5.16 dB -25.33 dB 6:32 21-Air - Regard, Oh Son, My Flowing Tears - Simone Kermes
DR15 -3.11 dB -23.50 dB 4:27 22-Air - Oh God Of Truth, Oh Faithful Guide - Christopher Robson
DR14 -8.86 dB -27.59 dB 1:09 23-Recitative - You, Gobrias, Lead Directly To The Palace - Christopher Robson
DR12 -1.24 dB -18.10 dB 4:49 24-Chorus Of Persians - Oh Glorius Prince! Thrice Happy
––––––––––––––––––––––––––––––––––––––––

Number of tracks: 24
Official DR value: DR13

Samplerate: 44100 Hz
Channels: 2
Bits per sample: 16
Bitrate: 621 kbps
Codec: FLAC
================================================================================

––––––––––––––––––––––––––––––––––––––––
Analyzed: Collegium Cartusianum / Händel - Belshazzar CD 3
––––––––––––––––––––––––––––––––––––––––

DR Peak RMS Duration Track
––––––––––––––––––––––––––––––––––––––––
DR14 -5.75 dB -24.53 dB 4:27 01-Air - Alternative Hopes And Fears Distract My Mind - Simone Kermes
DR14 -9.59 dB -29.01 dB 0:24 02-Recitative - Fain Would I Hope - Simone Kermes
DR13 -10.00 dB -27.36 dB 2:23 03-Air - Can The Black Aethiop Change His Skin? - Patrick Van Goethem
DR14 -8.35 dB -28.56 dB 1:01 04-Recitative - My Hopes Revive - Simone Kermes
DR13 -2.10 dB -19.38 dB 1:28 05-Chorus Of Jews - Bel Boweth Down! Nebo Stoopeth!
DR14 -2.70 dB -22.71 dB 1:33 06-Air - I Thank Thee, Sesach - Thy Sweet Pow'r - Markus Brutscher
DR11 -1.29 dB -14.73 dB 0:35 07-Martial Symphony
DR13 -9.93 dB -29.05 dB 2:07 08-Air - To Pow'r Immortal My First Thanks Are Due - Franz-Josef Selig
DR12 -9.44 dB -27.67 dB 0:23 09-Recitative - Be It Thy Care, Good Gobrias - Christopher Robson
DR13 -1.48 dB -19.76 dB 2:51 10-Air - Destructive War, Thy Limits Know - Christopher Robson
DR14 -4.01 dB -25.55 dB 4:29 11-Duet - Great Victor, At Your Feet I Bow - Christopher Robson
DR13 -10.41 dB -29.76 dB 0:52 12-Recitative - Say, Venerable Prophet - Christopher Robson
DR12 -2.89 dB -23.10 dB 1:39 13-Soli And Chorus - Tell It Out Among The Heathen - Christopher Robson
DR12 -6.20 dB -24.78 dB 1:39 14-Recitative - Yes, I Will Build Thy City, God Of Israel - Christopher Robson
DR14 -2.14 dB -22.01 dB 5:28 15-Anthem - I Will Magnify Thee, Oh God, My King! - Christopher Robson
––––––––––––––––––––––––––––––––––––––––

Number of tracks: 15
Official DR value: DR13

Samplerate: 44100 Hz
Channels: 2
Bits per sample: 16
Bitrate: 608 kbps
Codec: FLAC
================================================================================



CD Info:

Georg Friedrich Händel - Kölner Kammerchor / Collegium Cartusianum / Peter Neumann - Belshazzar HWV 61

Label: MDG
Series: Gold
Catalog#: MDG 332 1079-2
Format: 3xCD, Album
Country: Germany
Released: 15-10-2001
Genre: Classical
Style: Oratorium

Tracklist:

CD 1: Act I

01. Overture [0:04:13.72]
02. Recitative - Vain, Fluctuating State Of Human Empire! - Simone Kermes [0:04:47.03]
03. Air - Thou, God Most High, And Thou Alone - Simone Kermes [0:04:37.07]
04. Chorus Of Babylonians - Behold, By Persia's Hero Made [0:02:40.68]
05. Recitative - Well May They Laugh - Christopher Robson [0:01:38.00]
06. Air - Opress'd With Never-ceasing Grief - Franz-Josef Selig [0:03:36.47]
07. Air - Dry Those Unavailing Tears - Christopher Robson [0:02:02.07]
08. Recitative - Be Comforted - Safe Though The Tyrant - Christopher Robson [0:04:13.33]
09. Air - Behold The Monstrous Human Beast - Franz-Josef Selig [0:03:38.48]
10. Recitative - Can You Then Think It Strange - Christopher Robson [0:00:16.52]
11. Air - Great God! - Christopher Robson [0:03:47.23]
12. Recitative - My Friends, Be Confident - Christopher Robson [0:00:52.55]
13. Chorus - All Empires Upon God Depend [0:03:15.62]
14. Air - Oh, Sacred Oracles Of Truth! - Patrick Van Goethem [0:08:23.45]
15. Chorus Of Jews - Sing, Oh Ye Heav'ns! [0:03:56.20]
16. Air - Let Festal Joy Triumphant Reign! - Markus Brutscher [0:04:49.35]
17. Recitative - For You, My Friends, The Nobles Of My Court - Simone Kermes [0:01:02.60]
18. Air - The Leafy Honours Of The Field - Simone Kermes [0:08:02.70]

CD 2: Act II

01. Recitative - It Is The Custom, I May Say, The Law - Simone Kermes [0:01:35.27]
02. Chorus Of Jews - Recall, Oh King! Thy Rash Command [0:03:09.60]
03. Recitative - They Tell You True - Simone Kermes [0:01:42.08]
04. Duet - Oh Dearer Than My Life - Simone Kermes [0:06:30.25]
05. Chorus Of Jews - By Slow Degrees The Wrath Of God [0:04:51.60]
06. Chorus Of Persians - See, From His Post Euphrates Flies! [0:07:02.45]
07. Recitative - You See My Friends - Christopher Robson [0:00:47.37]
08. Air - Amaz'd To Find The Foe So Near - Christopher Robson [0:04:28.43]
09. Chorus Of Persians - To Arms, To Arms! [0:00:31.60]
10. Chorus Of Babylonians - Ye Tutelar Gods Of Our Empire [0:02:57.72]
11. Air - Let The Deep Bowl Thy Praise Confess - Markus Brutscher [0:02:28.05]
12. Recitative - Where IS The God Of Judah's Boasted Pow'r? - Markus Brutscher [0:02:30.50]
13. Recitative - Call All My Wise Men - Markus Brutscher [0:00:24.50]
14. Sinfonia - Allegro Postillions [0:01:37.08]
15. Recitative - Ye Sages! Welcome Always To Your King - Markus Brutscher [0:01:03.55]
16. Chorus Of Babylonians - Oh Misery! - Oh Terror! [0:01:34.17]
17. Recitative - Oh King, Live For Ever! - Simone Kermes [0:01:50.70]
18. Air - No! To Thyself Thy Trifles Be - Patrick Van Goethem [0:01:38.48]
19. Recitative - Yet To Obey - Patrick Van Goethem [0:02:09.02]
20. Recitative - Oh Sentence Too Severe! - Simone Kermes [0:00:27.55]
21. Air - Regard, Oh Son, My Flowing Tears - Simone Kermes [0:06:31.50]
22. Air - Oh God Of Truth, Oh Faithful Guide - Christopher Robson [0:04:27.20]
23. Recitative - You, Gobrias, Lead Directly To The Palace - Christopher Robson [0:01:09.18]
24. Chorus Of Persians - Oh Glorius Prince! Thrice Happy [0:04:48.67]

CD 3: Act III

01. Air - Alternative Hopes And Fears Distract My Mind - Simone Kermes [0:04:26.45]
02. Recitative - Fain Would I Hope - Simone Kermes [0:00:23.62]
03. Air - Can The Black Aethiop Change His Skin? - Patrick Van Goethem [0:02:22.55]
04. Recitative - My Hopes Revive - Simone Kermes [0:01:01.03]
05. Chorus Of Jews - Bel Boweth Down! Nebo Stoopeth! [0:01:28.30]
06. Air - I Thank Thee, Sesach - Thy Sweet Pow'r - Markus Brutscher [0:01:32.65]
07. Martial Symphony [0:00:34.67]
08. Air - To Pow'r Immortal My First Thanks Are Due - Franz-Josef Selig [0:02:06.48]
09. Recitative - Be It Thy Care, Good Gobrias - Christopher Robson [0:00:23.35]
10. Air - Destructive War, Thy Limits Know - Christopher Robson [0:02:50.55]
11. Duet - Great Victor, At Your Feet I Bow - Christopher Robson [0:04:29.20]
12. Recitative - Say, Venerable Prophet - Christopher Robson [0:00:52.07]
13. Soli And Chorus - Tell It Out Among The Heathen - Christopher Robson [0:01:39.20]
14. Recitative - Yes, I Will Build Thy City, God Of Israel - Christopher Robson [0:01:38.50]
15. Anthem - I Will Magnify Thee, Oh God, My King! - Christopher Robson [0:05:28.20]

Credits:

Markus Brutscher, Tenor – Belshazzar
Simone Kermes, Sopran – Nitocris
Christopher Robson, Altus – Cyrus
Patrick van Goethem, Altus – Daniel
Franz-Josef Selig, Bass – Gobrias

»From bar one, I felt an assurance and naturalness about the rhythms, a clarity and tonal richness in the orchestral and vocal texture, a stylishness of phrasing and embellishment, and a sheer zest and power of dramatic presentation that add up to a totally convincing and gripping whole. […] Neumann and his team have excelled themselves, and so has Handel, and anyone who thinks 18th-century music wanting in musico-dramatic force is urged to acquire this magnificent set without delay.«
Bernard Jacobson in Fanfare



Composer:

Johann Sebastian Bach
Bach- Calefax Reed Quintet - Die Kunst der Fuge BWV 1080 (2000)
Bach- Collegium Cartusianum - Passio secundum Johannem BWV 245 (Version II, 1725) (2000) [2xCD]
Bach- Musica Alta Ripa - Solo Concertos Vol. 1-4 (1996-1999) [4xCD]

Woldemar Bargiel
Bargiel- Trio Parnassus - Complete Piano Trios Vol. 1 (1998)

Ludwig van Beethoven
Beethoven- Trio Parnassus - Complete Piano Trios Vol. 1-5 (1994, 2001) [5xCD]
Beethoven- Ochester der Beethovenhalle Bonn - Leonore (Version 1806, aka 'Fidelio') (1998) [2xCD]
BeethovenQuartett - Beethoven: String Quartet op. 135 / Schumann: String Quartets op. 41 Nos. 1& 2 First Version (2010) [SACD]
BeethovenQuartett - Beethoven: String Quartet op. 135 / Schumann: String Quartets op. 41 Nos. 1& 2 First Version (2010) [CD]
Beethoven - BOB / Blunier - Symphonies No. 1 & 5 (2012) [SACD]
Beethoven - BOB / Blunier - Symphonies No. 1 & 5 (2012) [CD]

Frantisek Benda
Benda- Konrad Hünteler - Concertos for Flute, Strings and Basso Continuo (1996)

Oskar Gottlieb Blarr
Blarr- Neandersinfonietta - Jesus-Geburt: Weihnachtsoratorium (1992) [2xCD]

Luigi Boccherini
Boccherini- Flieder-Trio - String Trios op.14 (1990)

Oskar Böhme
Brandt / Böhme- Wolfgang Bauer - Music for Trumpet (2009) [SACD]
Brandt / Böhme- Wolfgang Bauer - Music for Trumpet (2009) [CD]

Mel Bonis
Bonis- Mozart Piano Quartet - Complete Piano Quartets (2007)

Marco Enrico Bossi
Bossi- Maija Lehtonen - Complete Organ Works Vol. 1 (1994)

Johannes Brahms
Brahms- Hardy Rittner - Early Piano Works Vol.1 (2008) [CD]
Brahms- Hardy Rittner - Early Piano Works Vol.2 (2008) [SACD]
Brahms- Hardy Rittner - Early Piano Works Vol.2 (2008) [CD]
Mozart Piano Quartet- Schumann / Brahms - Piano Quartets (2011)

Vassily/Willy Brandt
Brandt / Böhme- Wolfgang Bauer - Music for Trumpet (2009) [SACD]
Brandt / Böhme- Wolfgang Bauer - Music for Trumpet (2009) [CD]

Anton Bruckner
Bruckner- BOB / Blunier - Symphony D minor "Nullte", 3 Pieces, March (2011) [SACD]
Bruckner- BOB / Blunier - Symphony D minor "Nullte", 3 Pieces, March (2011) [CD]
Bruckner- BOB / Blunier - Symphony No. 8 WAB 108 (Version 1890) (2011) [SACD]
Bruckner- BOB / Blunier - Symphony No. 8 WAB 108 (Version 1890) (2011) [CD]

Ferruccio Busoni
Busoni- Claudius Tanski - Klavierwerke (1992)

Dietrich Buxtehude
Buxtehude - Harald Vogel - Complete Organ Works [7CD BOX] (2007)

John Cage
Cage- Steffen Schleiermacher - Complete Piano Music Vol. 1 - The Prepared Piano [3xCD] (1997)

Antonio Casimir Cartellieri
Cartellieri- Klöcker, PCO - Concertos for Clarinet (1996)

Mario Castelnuovo-Tedesco
Castelnuovo-Tedesco- Bungarten - 24 Caprichos de Goya para Guitarra (1996)

Frederic Chopin
Chopin- Hardy Rittner - Complete Etudes (2012) [SACD]
Chopin- Hardy Rittner - Complete Etudes (2012) [CD]

Heinz Chur
Heinz Chur - Noriko Kitano-Klein - Piano Sonatas 6-8 (1994)

Eugen D'Albert
D'Albert- BOB / Blunier - Der Golem: Opera in 3 Acts (2010)

Claude Debussy
Claude Debussy & Maurice Ravel: Orchestral Works - Orchester der BHB / Soustrot (2002)

Michael Denhoff
Michael Denhoff - Player Piano 8: Original Compositions in the Tradition of Nancarrow (2009)

Felix Draeseke
Draeseke- Claudius Tanski / Wuppertal SO - Symphony No.1 & Piano Concerto (1999)

Marcel Dupre
Dupré- Ben van Oosten - Organ Works Vol. 01 (1999)
Dupré- Ben van Oosten - Organ Works Vol. 02 (2001)
Dupré- Ben van Oosten - Organ Works Vol. 03 (2001)
Dupré- Ben van Oosten - Organ Works Vol. 04 (2002)
Dupré- Ben van Oosten - Organ Works Vol. 05 (2003)
Dupré- Ben van Oosten - Organ Works Vol. 06 (2004)
Dupré- Ben van Oosten - Organ Works Vol. 07 (2005)
Dupré- Ben van Oosten - Organ Works Vol. 08 (2007)
Dupré- Ben van Oosten - Organ Works Vol. 09 (2008)
Dupré- Ben van Oosten - Organ Works Vol. 10 (2008)

Antonin Dvorak
Dvorak- BOB / Firmbach / Honickel - Komm, wir fahren nach Amerika (2010)
Dvorak- Leipziger Streichquartett / Zacharias - Piano Quintets op.81 & 97 (2004)

Morton Feldman
Morton Feldman - Steffen Schleiermacher - The Late Piano Works Vol. 1 (2008)
Morton Feldman - Steffen Schleiermacher - The Late Piano Works Vol. 2 (2009)
Morton Feldman - Steffen Schleiermacher - The Late Piano Works Vol. 3 (2009)

Jean Francaix
Jean Francaix - Bläserquintette Nr. 1+2 & L'Heure du Berger (Sextett) (1993)

Alexander Glazunov
Alexander Glazunov - Utrecht String Quartet - String Quartets No. 3 & 5 (2004)

Benjamin Godard
Benjamin Godard - Trio Parnassus - Complete Piano Trios (2010)

Christoph Willibald Gluck
Christoph Willibald Gluck - Il trionfo di Clelia, opera in 3 acts, Wq. 31 (1763) (2012)

Friedrich Hartmann Graf
Friedrich Hartmann Graf - Hünteler, Festetics Quartet - Six Flute Quartets (1994)

Christoph Graupner
Christoph Graupner - Nova Stravaganza / Siegbert Rampe - Orchestral Works Vol. 1 (2002)
Christoph Graupner - Nova Stravaganza / Siegbert Rampe - Orchestral Works Vol. 2 (2004)
Christoph Graupner - Nova Stravaganza / Siegbert Rampe - Orchestral Works Vol. 3 (2010)

Georg Friedrich Händel
George Frideric Handel - Collegium Cartusianum / Peter Neumann - Saul [HWV 53] (1998)

Johann Nepomuk Hummel
Hummel- Trio Parnassus - Complete Piano Trios (1989) [2xCD]

Maurica Ravel
Claude Debussy & Maurice Ravel: Orchestral Works - Orchester der BHB / Soustrot (2002)

Ottorino Respighi
Respighi- Wuppertal Symphony Orchestra / Hanson - Orchestral Works (2001)

Franz Schubert
Schubert- Consortium Classicum - Octet F major D 803 (1997)

Robert Schumann
BeethovenQuartett- Beethoven: String Quartet op. 135 / Schumann: String Quartets op. 41 Nos. 1& 2 First Version (2010) [SACD]
BeethovenQuartett- Beethoven: String Quartet op. 135 / Schumann: String Quartets op. 41 Nos. 1& 2 First Version (2010) [CD]
Mozart Piano Quartet- Schumann / Brahms - Piano Quartets (2011)

Various Artists / Various Composers
VA - Inspirations: MDG Classical References (2007)[SACD]
VA - Inspirations: MDG Classical References (2007)[CD]

Performer:

BeethovenQuartet
BeethovenQuartett- Beethoven: String Quartet op. 135 / Schumann: String Quartets op. 41 Nos. 1& 2 First Version (2010) [SACD]
BeethovenQuartett- Beethoven: String Quartet op. 135 / Schumann: String Quartets op. 41 Nos. 1& 2 First Version (2010) [CD]

Ben van Oosten
Ben van Oosten- Dupré - Organ Works Vol. 01 (1999)
Ben van Oosten- Dupré - Organ Works Vol. 02 (2001)
Ben van Oosten- Dupré - Organ Works Vol. 03 (2001)
Ben van Oosten- Dupré - Organ Works Vol. 04 (2002)
Ben van Oosten- Dupré - Organ Works Vol. 05 (2003)
Ben van Oosten- Dupré - Organ Works Vol. 06 (2004)
Ben van Oosten- Dupré - Organ Works Vol. 07 (2005)
Ben van Oosten- Dupré - Organ Works Vol. 08 (2007)
Ben van Oosten- Dupré - Organ Works Vol. 09 (2008)
Ben van Oosten- Dupré - Organ Works Vol. 10 (2008)

Berliner Vokalensemble "Carl Maria von Weber"
Berliner Vokalensemble "Carl Maria von Weber" - Kein schöner Land (1995)
Berliner Vokalensemble "Carl Maria von Weber" - Bella Ciao (1997)

Claudius Tanski
Claudius Tanski- Busoni - Klavierwerke (1992)
Claudius Tanski- Draeseke - Symphony No.1 & Piano Concerto (1999)

Consortium Classicum
Consortium Classicum- Schubert - Octet F major D 803 (1997)

Duo Sonare
Duo Sonare - Mozart, Guiliani & Carulli Played On Historical Guitars (1997)

Ensemble Blumina
Ensemble Blumina - Previn / Francaix / Poulenc: Trios for oboe, bassoon and piano (2013) [SACD]
Ensemble Blumina - Previn / Francaix / Poulenc: Trios for oboe, bassoon and piano (2013) [CD]

Ensemble Lanterly
Ensemble Lanterly - Lüneburg 1647: Das "Weckmann-Manuskript" der Lüneburger Ratsbücherei (1995)

Ensemble Villa Musica
Ensemble Villa Musica - Portrait (1993)

Frank Bungarten
Bungarten- Castelnuovo-Tedesco - 24 Caprichos de Goya para Guitarra (1996)
Frank Bungarten - Cancion y Danza (2004)

Hardy Rittner
Hardy Rittner- Brahms - Early Piano Works Vol.1 (2008) [CD]
Hardy Rittner- Brahms - Early Piano Works Vol.2 (2008) [SACD]
Hardy Rittner- Brahms - Early Piano Works Vol.2 (2008) [CD]
Hardy Rittner- Chopin - Complete Etudes (2012) [SACD]
Hardy Rittner- Chopin - Complete Etudes (2012) [CD]

Mozart Piano Quartet
Mozart Piano Quartet- Mel Bonis - Complete Piano Quartets (2007)
Mozart Piano Quartet- Schumann / Brahms - Piano Quartets (2011)

Musica Alta Ripa
Musica Alta Ripa- Bach - Solo Concertos Vol. 1-4 (1996-1999) [4xCD]

Neues Leipziger Streichquartett
Neues Leipziger Streichquartett- Boris Blacher & Witold Lutoslawski: String Quartets (1994)

Steffen Schleiermacher
Steffen Schleiermacher - John Cage - Complete Piano Music Vol. 1 - The Prepared Piano [3xCD] (1997)

Trio Parnassus
Trio Parnassus- Bargiel- Complete Piano Trios Vol. 1 (1998)
Trio Parnassus- Beethoven - Complete Piano Trios Vol. 1-5 (1994, 2001) [5xCD]
Trio Parnassus- Hummel - Complete Piano Trios (1989) [2xCD]
Trio Parnassus- Benjamin Godard - Complete Piano Trios (2010)

Vokalensemble Drops
Vokalquartett Drops - Drops… von der Rolle: Evergreens & Chansons (1993)
Vokalquartett Drops - Drops… unter der Laterne: Lili Marleen und andere Chansons von Norbert Schulze (1997)
Vokalensemble Drops - Drops… in einer kleinen Konditorei: Lieder und Chansons (1998)

Wolfgang Bauer
Wolfgang Bauer- Brandt / Böhme - Music for Trumpet (2009) [SACD]
Wolfgang Bauer- Brandt / Böhme - Music for Trumpet (2009) [CD]



George Frideric Handel - Collegium Cartusianum - Belshazzar [HWV 61] (2001, MDG "Gold" # 332 1079-2) [RE-UP]


all of my uploads in my blog
________________

NITROFLARE

Music Pt. 1 | | Music Pt. 2
Music Pt. 3 | | Music Pt. 4

Art Pt. 1 | | Art Pt. 2

________________