Subcategories

Hank Williams Jr. - It's About Time (2016)

Posted By: delpotro
Hank Williams Jr. - It's About Time (2016)

Hank Williams Jr. - It's About Time (2016)
EAC Rip | FLAC (tracks+log+.cue) | 00:43:48 | 319 Mb
Outlaw Country, Southern Rock | Label: Nash Icon Records

It's About Time is a studio album by Hank Williams Jr. released by Nash Icon Records on January 15, 2016. The album includes re-recordings of previously released material and new songs. The album debuted at No. 2 on Top Country Albums, the highest he's reached on the chart since the release of Lone Wolf in 1990. The album also debuted at No. 15 on Billboard 200, selling 24,000 copies in its first week. It sold a further 9,000 copies in its second week. The album has sold 60,800 copies in the US as of March 2016.
Tracklist:
01. Are You Ready for the Country
02. Club U.S.A.
03. God Fearin' Man
04. Those Days Are Gone
05. Dress Like an Icon
06. God and Guns
07. Just Call Me Hank
08. Mental Revenge
09. It's About Time
10. The Party's On
11. Wrapped Up, Tangled Up in Jesus (God's Got It)
12. Born to Boogie

Exact Audio Copy V1.3 from 2. September 2016

EAC extraction logfile from 4. January 2017, 21:53

Hank Williams, Jr. / It's About Time

Used drive : ATAPI DVD A DH16AAL Adapter: 1 ID: 0

Read mode : Secure
Utilize accurate stream : Yes
Defeat audio cache : Yes
Make use of C2 pointers : No

Read offset correction : 6
Overread into Lead-In and Lead-Out : No
Fill up missing offset samples with silence : Yes
Delete leading and trailing silent blocks : No
Null samples used in CRC calculations : Yes
Used interface : Native Win32 interface for Win NT & 2000
Gap handling : Appended to previous track

Used output format : User Defined Encoder
Selected bitrate : 1024 kBit/s
Quality : High
Add ID3 tag : No
Command line compressor : C:\Program Files (x86)\Exact Audio Copy\Flac\flac.exe
Additional command line options : -8 -e -p -V -T "ARTIST=%artist%" -T "TITLE=%title%" -T "ALBUM=%albumtitle%" -T "DATE=%year%" -T "TRACKNUMBER=%tracknr%" -T "GENRE=%genre%" -T "PERFORMER=%albuminterpret%" -T "COMPOSER=%composer%" %haslyrics%–tag-from-file=LYRICS="%lyricsfile%"%haslyrics% -T "ALBUMARTIST=%albumartist%" -T "DISCNUMBER=%cdnumber%" -T "TOTALDISCS=%totalcds%" -T "TOTALTRACKS=%numtracks%" -T "COMMENT=%comment%" %source% -o %dest%


TOC of the extracted CD

Track | Start | Length | Start sector | End sector
––––––––––––––––––––––––––––-
1 | 0:00.00 | 3:29.33 | 0 | 15707
2 | 3:29.33 | 3:19.33 | 15708 | 30665
3 | 6:48.66 | 2:37.32 | 30666 | 42472
4 | 9:26.23 | 3:41.15 | 42473 | 59062
5 | 13:07.38 | 4:13.58 | 59063 | 78095
6 | 17:21.21 | 4:50.23 | 78096 | 99868
7 | 22:11.44 | 3:02.40 | 99869 | 113558
8 | 25:14.09 | 2:57.17 | 113559 | 126850
9 | 28:11.26 | 3:29.74 | 126851 | 142599
10 | 31:41.25 | 2:59.30 | 142600 | 156054
11 | 34:40.55 | 6:21.51 | 156055 | 184680
12 | 41:02.31 | 2:45.62 | 184681 | 197117


Track 1

Filename C:\EAC RIPS\Hank Williams Jr. - It's About Time (2016) [FLAC] {NICHW0100A}\01 - Are You Ready for the Country.wav

Pre-gap length 0:00:02.00

Peak level 100.0 %
Extraction speed 1.7 X
Track quality 100.0 %
Test CRC BFD809E7
Copy CRC BFD809E7
Accurately ripped (confidence 12) [F3F0F97C] (AR v2)
Copy OK

Track 2

Filename C:\EAC RIPS\Hank Williams Jr. - It's About Time (2016) [FLAC] {NICHW0100A}\02 - Club U.S.A..wav

Peak level 100.0 %
Extraction speed 1.9 X
Track quality 100.0 %
Test CRC B0640DDB
Copy CRC B0640DDB
Accurately ripped (confidence 12) [246C187A] (AR v2)
Copy OK

Track 3

Filename C:\EAC RIPS\Hank Williams Jr. - It's About Time (2016) [FLAC] {NICHW0100A}\03 - God Fearin' Man.wav

Peak level 100.0 %
Extraction speed 1.9 X
Track quality 100.0 %
Test CRC 20B1D3DA
Copy CRC 20B1D3DA
Accurately ripped (confidence 12) [A12992C0] (AR v2)
Copy OK

Track 4

Filename C:\EAC RIPS\Hank Williams Jr. - It's About Time (2016) [FLAC] {NICHW0100A}\04 - Those Days Are Gone.wav

Peak level 100.0 %
Extraction speed 2.2 X
Track quality 100.0 %
Test CRC A689B3A6
Copy CRC A689B3A6
Accurately ripped (confidence 12) [21C19328] (AR v2)
Copy OK

Track 5

Filename C:\EAC RIPS\Hank Williams Jr. - It's About Time (2016) [FLAC] {NICHW0100A}\05 - Dress Like an Icon.wav

Peak level 100.0 %
Extraction speed 2.4 X
Track quality 100.0 %
Test CRC EC58CA33
Copy CRC EC58CA33
Accurately ripped (confidence 12) [9FBD28D0] (AR v2)
Copy OK

Track 6

Filename C:\EAC RIPS\Hank Williams Jr. - It's About Time (2016) [FLAC] {NICHW0100A}\06 - God and Guns.wav

Peak level 100.0 %
Extraction speed 2.6 X
Track quality 100.0 %
Test CRC B447C9CA
Copy CRC B447C9CA
Accurately ripped (confidence 12) [AEF15A29] (AR v2)
Copy OK

Track 7

Filename C:\EAC RIPS\Hank Williams Jr. - It's About Time (2016) [FLAC] {NICHW0100A}\07 - Just Call Me Hank.wav

Peak level 100.0 %
Extraction speed 2.6 X
Track quality 100.0 %
Test CRC B8E0FC03
Copy CRC B8E0FC03
Accurately ripped (confidence 12) [53D5F39A] (AR v2)
Copy OK

Track 8

Filename C:\EAC RIPS\Hank Williams Jr. - It's About Time (2016) [FLAC] {NICHW0100A}\08 - Mental Revenge.wav

Peak level 100.0 %
Extraction speed 2.7 X
Track quality 100.0 %
Test CRC 493888FA
Copy CRC 493888FA
Accurately ripped (confidence 12) [44C30A72] (AR v2)
Copy OK

Track 9

Filename C:\EAC RIPS\Hank Williams Jr. - It's About Time (2016) [FLAC] {NICHW0100A}\09 - It's About Time.wav

Peak level 100.0 %
Extraction speed 2.9 X
Track quality 100.0 %
Test CRC BE66626E
Copy CRC BE66626E
Accurately ripped (confidence 12) [15A3141F] (AR v2)
Copy OK

Track 10

Filename C:\EAC RIPS\Hank Williams Jr. - It's About Time (2016) [FLAC] {NICHW0100A}\10 - The Party's on.wav

Peak level 100.0 %
Extraction speed 2.9 X
Track quality 100.0 %
Test CRC A97A1B7B
Copy CRC A97A1B7B
Accurately ripped (confidence 12) [22116BB9] (AR v2)
Copy OK

Track 11

Filename C:\EAC RIPS\Hank Williams Jr. - It's About Time (2016) [FLAC] {NICHW0100A}\11 - Wrapped Up Tangled Up in Jesus (God's Got It).wav

Peak level 100.0 %
Extraction speed 3.3 X
Track quality 100.0 %
Test CRC E6A6F4BC
Copy CRC E6A6F4BC
Accurately ripped (confidence 12) [1C2CC6B9] (AR v2)
Copy OK

Track 12

Filename C:\EAC RIPS\Hank Williams Jr. - It's About Time (2016) [FLAC] {NICHW0100A}\12 - Born To Boogie.wav

Peak level 100.0 %
Extraction speed 3.1 X
Track quality 100.0 %
Test CRC 1356CA9A
Copy CRC 1356CA9A
Accurately ripped (confidence 12) [2EDCC661] (AR v2)
Copy OK


All tracks accurately ripped

No errors occurred

End of status report

–– CUETools DB Plugin V2.1.6

[CTDB TOCID: zJll4nvCW0Ma2OVMc_ME.RPI7Eg-] found
Submit result: zJll4nvCW0Ma2OVMc_ME.RPI7Eg- has been confirmed
Track | CTDB Status
1 | (29/29) Accurately ripped
2 | (29/29) Accurately ripped
3 | (29/29) Accurately ripped
4 | (29/29) Accurately ripped
5 | (29/29) Accurately ripped
6 | (29/29) Accurately ripped
7 | (29/29) Accurately ripped
8 | (29/29) Accurately ripped
9 | (29/29) Accurately ripped
10 | (29/29) Accurately ripped
11 | (29/29) Accurately ripped
12 | (29/29) Accurately ripped


==== Log checksum 5F763EF15BF9F7AD2C1DD5495109679C96341409963B7D0C8569827C365D586A ====

Thanks to the Original ripper peaveyman !