Subcategories

Hans Zimmer - Interstellar (Illuminated Star Projection Edition) (2CD) (2015)

Posted By: Domestos
Hans Zimmer - Interstellar (Illuminated Star Projection Edition) (2CD) (2015)

Hans Zimmer - Interstellar (Illuminated Star Projection Edition) (2CD) (2015)
XLD Rip | FLAC (tracks+.cue, log) ~ 289.70 Mb (CD1) + 241.42 Mb (CD2) + 126.31 Mb (Scans) | 02:12:00
Soundtrack | Label: WaterTower Music

The latest blockbuster from SF maestro Christopher Nolan is one of the most widely anticipated movies of the year. 'Interstellar' reunites the acclaimed director with his composer of choice, Academy-Award and Grammy Winner Hans Zimmer. Zimmer's list of celebrated scores includes 'Batman Begins', 'The Dark Knight', 'Inception', 'Man of Steel', 'Gladiator', 'Black Hawk Down' and 'The Last Samurai'.

The powerful and evocative soundtrack to 'Interstellar' is a must-have for all fans of the most in-demand composer in Hollywood and for collectors of classic film scores.

“Chris wanted us to push the limits,” offers Zimmer. “Every conversation was about pushing boundaries and exploring new territories. This movie virtually dictates that you put everything on the line and keep the laboratory doors wide open and experiment to the very end. It tested our limits: the limits of what musicians are capable of, the limits of what could be recorded, the limits of everyone's stamina, commitment and invention, and I think we got it.”
"I believe that Hans’ score for Interstellar has the tightest bond between music and image that we’ve yet achieved,” Nolan reflected. “And we’re excited for people to be able to revisit the soundtrack once they’ve had the chance to experience the music in the film itself."

Track List CD1 (01:11:46):
01 - Dreaming of the Crash
02 - Cornfield Chase
03 - Dust
04 - Day One
05 - Stay
06 - Message From Home
07 - The Wormhole
08 - Mountains
09 - Afraid of Time
10 - A Place Among the Stars
11 - Running Out
12 - I'm Going Home
13 - Coward
14 - Detach
15 - S.T.A.Y.
16 - Where We're Going

Track List CD2 (01:00:14):
01 - First Step
02 - Flying Drone
03 - Atmospheric Entry
04 - No Need To Come Back
05 - Imperfect Lock
06 - What Happens Now
07 - Who's They
08 - Murph
09 - Organ Variation
10 - Tick-Tock
11 - Day One (Original Demo)
12 - Do Not Go Gentle Into That Good Night (Poem)
13 - No Time For Caution

Hans Zimmer - Interstellar (Illuminated Star Projection Edition) (2CD) (2015)

Hans Zimmer - Interstellar (Illuminated Star Projection Edition) (2CD) (2015)

X Lossless Decoder version 20141129 (148.1)

XLD extraction logfile from 2015-01-13 15:24:09 -0600

Hans Zimmer / Interstellar: Original Motion Picture Soundtrack

Used drive : TSSTcorp BDDVDW SE-506BB (revision TS00)
Media type : Pressed CD

Ripper mode : XLD Secure Ripper
Disable audio cache : OK for the drive with a cache less than 1375KiB
Make use of C2 pointers : NO
Read offset correction : 6
Max retry count : 100
Gap status : Analyzed, Appended (except HTOA)

TOC of the extracted CD
Track | Start | Length | Start sector | End sector
––––––––––––––––––––––––––––-
1 | 00:00:00 | 03:55:63 | 0 | 17687
2 | 03:55:63 | 02:06:72 | 17688 | 27209
3 | 06:02:60 | 05:41:30 | 27210 | 52814
4 | 11:44:15 | 03:19:32 | 52815 | 67771
5 | 15:03:47 | 06:52:32 | 67772 | 98703
6 | 21:56:04 | 01:40:65 | 98704 | 106268
7 | 23:36:69 | 01:30:43 | 106269 | 113061
8 | 25:07:37 | 03:39:07 | 113062 | 129493
9 | 28:46:44 | 02:32:58 | 129494 | 140951
10 | 31:19:27 | 03:27:01 | 140952 | 156477
11 | 34:46:28 | 01:57:19 | 156478 | 165271
12 | 36:43:47 | 05:48:41 | 165272 | 191412
13 | 42:32:13 | 08:26:63 | 191413 | 229425
14 | 50:59:01 | 06:42:19 | 229426 | 259594
15 | 57:41:20 | 06:23:37 | 259595 | 288356
16 | 64:04:57 | 07:41:23 | 288357 | 322954

AccurateRip Summary
Disc not found in AccurateRip DB.

All Tracks
Album gain : -3.99 dB
Peak : 1.000000
Statistics
Read error : 0
Jitter error (maybe fixed) : 4
Retry sector count : 1830
Damaged sector count : 0

Track 01
Filename : /Users/patrickobrien/Music/Hans Zimmer - Interstellar: Original Motion Picture Soundtrack (2014) [FLAC]/01 Dreaming of the Crash.flac
Pre-gap length : 00:02:00

Track gain : 13.21 dB
Peak : 0.939941
CRC32 hash (test run) : 926E4E11
CRC32 hash : 926E4E11
CRC32 hash (skip zero) : 86CF9781
AccurateRip v1 signature : 49044813
AccurateRip v2 signature : 7D3EE636
->Track not present in AccurateRip database.
Statistics
Read error : 0
Jitter error (maybe fixed) : 0
Retry sector count : 0
Damaged sector count : 0

Track 02
Filename : /Users/patrickobrien/Music/Hans Zimmer - Interstellar: Original Motion Picture Soundtrack (2014) [FLAC]/02 Cornfield Chase.flac

Track gain : -4.76 dB
Peak : 0.977692
CRC32 hash (test run) : 7D51F002
CRC32 hash : 7D51F002
CRC32 hash (skip zero) : 84173AF8
AccurateRip v1 signature : 04853BBC
AccurateRip v2 signature : 0868C9F7
->Track not present in AccurateRip database.
Statistics
Read error : 0
Jitter error (maybe fixed) : 0
Retry sector count : 0
Damaged sector count : 0

Track 03
Filename : /Users/patrickobrien/Music/Hans Zimmer - Interstellar: Original Motion Picture Soundtrack (2014) [FLAC]/03 Dust.flac

Track gain : -1.29 dB
Peak : 0.929596
CRC32 hash (test run) : 735352BB
CRC32 hash : 735352BB
CRC32 hash (skip zero) : 9E5DB7ED
AccurateRip v1 signature : 0618710D
AccurateRip v2 signature : EB4E2BFF
->Track not present in AccurateRip database.
Statistics
Read error : 0
Jitter error (maybe fixed) : 1
Retry sector count : 486
Damaged sector count : 0

Track 04
Filename : /Users/patrickobrien/Music/Hans Zimmer - Interstellar: Original Motion Picture Soundtrack (2014) [FLAC]/04 Day One.flac

Track gain : 2.53 dB
Peak : 0.774109
CRC32 hash (test run) : F3E53B81
CRC32 hash : F3E53B81
CRC32 hash (skip zero) : 247E635D
AccurateRip v1 signature : B83523F1
AccurateRip v2 signature : D007693B
->Track not present in AccurateRip database.
Statistics
Read error : 0
Jitter error (maybe fixed) : 0
Retry sector count : 0
Damaged sector count : 0

Track 05
Filename : /Users/patrickobrien/Music/Hans Zimmer - Interstellar: Original Motion Picture Soundtrack (2014) [FLAC]/05 Stay.flac

Track gain : -5.18 dB
Peak : 0.943909
CRC32 hash (test run) : 855A083A
CRC32 hash : 855A083A
CRC32 hash (skip zero) : FC6CDF85
AccurateRip v1 signature : 972E043D
AccurateRip v2 signature : B28ABEEA
->Track not present in AccurateRip database.
Statistics
Read error : 0
Jitter error (maybe fixed) : 0
Retry sector count : 107
Damaged sector count : 0

Track 06
Filename : /Users/patrickobrien/Music/Hans Zimmer - Interstellar: Original Motion Picture Soundtrack (2014) [FLAC]/06 Message from Home.flac

Track gain : 16.62 dB
Peak : 0.150391
CRC32 hash (test run) : BF53762F
CRC32 hash : BF53762F
CRC32 hash (skip zero) : 5992A298
AccurateRip v1 signature : A9AB011F
AccurateRip v2 signature : 91BE63BB
->Track not present in AccurateRip database.
Statistics
Read error : 0
Jitter error (maybe fixed) : 0
Retry sector count : 0
Damaged sector count : 0

Track 07
Filename : /Users/patrickobrien/Music/Hans Zimmer - Interstellar: Original Motion Picture Soundtrack (2014) [FLAC]/07 The Wormhole.flac

Track gain : -1.38 dB
Peak : 0.943909
CRC32 hash (test run) : 7ACF8B36
CRC32 hash : 7ACF8B36
CRC32 hash (skip zero) : 8A50B62B
AccurateRip v1 signature : 9AE2925D
AccurateRip v2 signature : E98C87FA
->Track not present in AccurateRip database.
Statistics
Read error : 0
Jitter error (maybe fixed) : 0
Retry sector count : 0
Damaged sector count : 0

Track 08
Filename : /Users/patrickobrien/Music/Hans Zimmer - Interstellar: Original Motion Picture Soundtrack (2014) [FLAC]/08 Mountains.flac

Track gain : -6.95 dB
Peak : 0.943909
CRC32 hash (test run) : 73B046E4
CRC32 hash : 73B046E4
CRC32 hash (skip zero) : 9C8F8AEE
AccurateRip v1 signature : BE544933
AccurateRip v2 signature : C252CC75
->Track not present in AccurateRip database.
Statistics
Read error : 0
Jitter error (maybe fixed) : 0
Retry sector count : 0
Damaged sector count : 0

Track 09
Filename : /Users/patrickobrien/Music/Hans Zimmer - Interstellar: Original Motion Picture Soundtrack (2014) [FLAC]/09 Afraid of Time.flac

Track gain : 14.88 dB
Peak : 0.167175
CRC32 hash (test run) : 9E56C665
CRC32 hash : 9E56C665
CRC32 hash (skip zero) : D57936A1
AccurateRip v1 signature : F61A0263
AccurateRip v2 signature : EA402BD5
->Track not present in AccurateRip database.
Statistics
Read error : 0
Jitter error (maybe fixed) : 0
Retry sector count : 165
Damaged sector count : 0

Track 10
Filename : /Users/patrickobrien/Music/Hans Zimmer - Interstellar: Original Motion Picture Soundtrack (2014) [FLAC]/10 A Place Among the Stars.flac

Track gain : 1.22 dB
Peak : 0.715668
CRC32 hash (test run) : D9EB3758
CRC32 hash : D9EB3758
CRC32 hash (skip zero) : 476D8733
AccurateRip v1 signature : 500F5B9C
AccurateRip v2 signature : 66EAA9A8
->Track not present in AccurateRip database.
Statistics
Read error : 0
Jitter error (maybe fixed) : 0
Retry sector count : 0
Damaged sector count : 0

Track 11
Filename : /Users/patrickobrien/Music/Hans Zimmer - Interstellar: Original Motion Picture Soundtrack (2014) [FLAC]/11 Running Out.flac

Track gain : 9.05 dB
Peak : 0.515350
CRC32 hash (test run) : B9F996F3
CRC32 hash : B9F996F3
CRC32 hash (skip zero) : 69060CAE
AccurateRip v1 signature : 8E1EBEF9
AccurateRip v2 signature : 35364814
->Track not present in AccurateRip database.
Statistics
Read error : 0
Jitter error (maybe fixed) : 1
Retry sector count : 55
Damaged sector count : 0

Track 12
Filename : /Users/patrickobrien/Music/Hans Zimmer - Interstellar: Original Motion Picture Soundtrack (2014) [FLAC]/12 I'm Going Home.flac

Track gain : 1.54 dB
Peak : 0.943878
CRC32 hash (test run) : F0F79663
CRC32 hash : F0F79663
CRC32 hash (skip zero) : 70679709
AccurateRip v1 signature : 66269AA4
AccurateRip v2 signature : D0D76E1B
->Track not present in AccurateRip database.
Statistics
Read error : 0
Jitter error (maybe fixed) : 0
Retry sector count : 0
Damaged sector count : 0

Track 13
Filename : /Users/patrickobrien/Music/Hans Zimmer - Interstellar: Original Motion Picture Soundtrack (2014) [FLAC]/13 Coward.flac

Track gain : -4.67 dB
Peak : 1.000000
CRC32 hash (test run) : 38B0749A
CRC32 hash : 38B0749A
CRC32 hash (skip zero) : 69E68E98
AccurateRip v1 signature : D8EE0669
AccurateRip v2 signature : D5C46459
->Track not present in AccurateRip database.
Statistics
Read error : 0
Jitter error (maybe fixed) : 0
Retry sector count : 0
Damaged sector count : 0

Track 14
Filename : /Users/patrickobrien/Music/Hans Zimmer - Interstellar: Original Motion Picture Soundtrack (2014) [FLAC]/14 Detach.flac

Track gain : -6.06 dB
Peak : 0.962097
CRC32 hash (test run) : CEFA05B6
CRC32 hash : CEFA05B6
CRC32 hash (skip zero) : 3C7141FA
AccurateRip v1 signature : B3BB3AEF
AccurateRip v2 signature : BAED5718
->Track not present in AccurateRip database.
Statistics
Read error : 0
Jitter error (maybe fixed) : 0
Retry sector count : 196
Damaged sector count : 0

Track 15
Filename : /Users/patrickobrien/Music/Hans Zimmer - Interstellar: Original Motion Picture Soundtrack (2014) [FLAC]/15 S.T.A.Y..flac

Track gain : 1.78 dB
Peak : 0.943909
CRC32 hash (test run) : 44653CAC
CRC32 hash : 44653CAC
CRC32 hash (skip zero) : F1583C12
AccurateRip v1 signature : 3770079B
AccurateRip v2 signature : 8A12ACBA
->Track not present in AccurateRip database.
Statistics
Read error : 0
Jitter error (maybe fixed) : 0
Retry sector count : 0
Damaged sector count : 0

Track 16
Filename : /Users/patrickobrien/Music/Hans Zimmer - Interstellar: Original Motion Picture Soundtrack (2014) [FLAC]/16 Where We're Going.flac

Track gain : -0.06 dB
Peak : 0.958435
CRC32 hash (test run) : F9A9537F
CRC32 hash : F9A9537F
CRC32 hash (skip zero) : A5A2E975
AccurateRip v1 signature : 4E274C72
AccurateRip v2 signature : DB0D7002
->Track not present in AccurateRip database.
Statistics
Read error : 0
Jitter error (maybe fixed) : 2
Retry sector count : 821
Damaged sector count : 0

No errors occurred

End of status report

––-BEGIN XLD SIGNATURE––-
2O9DU3k_dPNMU49lSqxMSkDG9B1jnoGQLR0IFyJapLWSJnwyAUGAOFvF46nsL.3TNkR728CEWwHzqP_k7PG4FuEWkO6y0MiFlENXU4e
––-END XLD SIGNATURE––-

X Lossless Decoder version 20141129 (148.1)

XLD extraction logfile from 2015-01-13 16:49:34 -0600

Hans Zimmer / Interstellar: Original Motion Picture Soundtrack [Disc 2]

Used drive : TSSTcorp BDDVDW SE-506BB (revision TS00)
Media type : Pressed CD

Ripper mode : XLD Secure Ripper
Disable audio cache : OK for the drive with a cache less than 1375KiB
Make use of C2 pointers : NO
Read offset correction : 6
Max retry count : 100
Gap status : Analyzed, Appended (except HTOA)

TOC of the extracted CD
Track | Start | Length | Start sector | End sector
––––––––––––––––––––––––––––-
1 | 00:00:00 | 01:48:01 | 0 | 8100
2 | 01:48:01 | 01:53:01 | 8101 | 16576
3 | 03:41:02 | 01:39:17 | 16577 | 24018
4 | 05:20:19 | 04:32:73 | 24019 | 44491
5 | 09:53:17 | 06:55:13 | 44492 | 75629
6 | 16:48:30 | 02:04:41 | 75630 | 84970
7 | 18:52:71 | 07:17:10 | 84971 | 117755
8 | 26:10:06 | 11:20:59 | 117756 | 168814
9 | 37:30:65 | 04:51:60 | 168815 | 190699
10 | 42:22:50 | 08:18:64 | 190700 | 228113
11 | 50:41:39 | 03:49:11 | 228114 | 245299
12 | 54:30:50 | 01:37:28 | 245300 | 252602
13 | 56:08:03 | 04:06:21 | 252603 | 271073

AccurateRip Summary
Disc not found in AccurateRip DB.

All Tracks
Album gain : -2.14 dB
Peak : 0.949219
Statistics
Read error : 0
Jitter error (maybe fixed) : 2
Retry sector count : 811
Damaged sector count : 0

Track 01
Filename : /Users/patrickobrien/Music/Hans Zimmer - Interstellar: Original Motion Picture Soundtrack [Disc 2] (2014) [FLAC]/01 First Step.flac
Pre-gap length : 00:02:00

Track gain : -3.33 dB
Peak : 0.943848
CRC32 hash (test run) : 0710AA91
CRC32 hash : 0710AA91
CRC32 hash (skip zero) : 9FCCA167
AccurateRip v1 signature : 5EE6DE1B
AccurateRip v2 signature : 92C73C11
->Track not present in AccurateRip database.
Statistics
Read error : 0
Jitter error (maybe fixed) : 0
Retry sector count : 0
Damaged sector count : 0

Track 02
Filename : /Users/patrickobrien/Music/Hans Zimmer - Interstellar: Original Motion Picture Soundtrack [Disc 2] (2014) [FLAC]/02 Flying Drone.flac

Track gain : -1.31 dB
Peak : 0.761322
CRC32 hash (test run) : F5B99D3C
CRC32 hash : F5B99D3C
CRC32 hash (skip zero) : FC31315B
AccurateRip v1 signature : DAE0A701
AccurateRip v2 signature : F031A4D9
->Track not present in AccurateRip database.
Statistics
Read error : 0
Jitter error (maybe fixed) : 0
Retry sector count : 0
Damaged sector count : 0

Track 03
Filename : /Users/patrickobrien/Music/Hans Zimmer - Interstellar: Original Motion Picture Soundtrack [Disc 2] (2014) [FLAC]/03 Atmospheric Entry.flac

Track gain : 14.28 dB
Peak : 0.479889
CRC32 hash (test run) : F8F3DD85
CRC32 hash : F8F3DD85
CRC32 hash (skip zero) : D6491D38
AccurateRip v1 signature : 03470F97
AccurateRip v2 signature : F79FDA93
->Track not present in AccurateRip database.
Statistics
Read error : 0
Jitter error (maybe fixed) : 0
Retry sector count : 0
Damaged sector count : 0

Track 04
Filename : /Users/patrickobrien/Music/Hans Zimmer - Interstellar: Original Motion Picture Soundtrack [Disc 2] (2014) [FLAC]/04 No Need To Come Back.flac

Track gain : 5.22 dB
Peak : 0.943848
CRC32 hash (test run) : 836D6663
CRC32 hash : 836D6663
CRC32 hash (skip zero) : 0564C0F8
AccurateRip v1 signature : E06F9524
AccurateRip v2 signature : 1DE2EA3A
->Track not present in AccurateRip database.
Statistics
Read error : 0
Jitter error (maybe fixed) : 0
Retry sector count : 1
Damaged sector count : 0

Track 05
Filename : /Users/patrickobrien/Music/Hans Zimmer - Interstellar: Original Motion Picture Soundtrack [Disc 2] (2014) [FLAC]/05 Imperfect Lock.flac

Track gain : 1.61 dB
Peak : 0.943848
CRC32 hash (test run) : 4FF6444A
CRC32 hash : 4FF6444A
CRC32 hash (skip zero) : 884BD733
AccurateRip v1 signature : E715E8BB
AccurateRip v2 signature : BF3B2734
->Track not present in AccurateRip database.
Statistics
Read error : 0
Jitter error (maybe fixed) : 0
Retry sector count : 0
Damaged sector count : 0

Track 06
Filename : /Users/patrickobrien/Music/Hans Zimmer - Interstellar: Original Motion Picture Soundtrack [Disc 2] (2014) [FLAC]/06 What Happens Now?.flac

Track gain : -1.56 dB
Peak : 0.716888
CRC32 hash (test run) : 70B2BAB7
CRC32 hash : 70B2BAB7
CRC32 hash (skip zero) : 717043DC
AccurateRip v1 signature : 3CE7CA37
AccurateRip v2 signature : 3F92F567
->Track not present in AccurateRip database.
Statistics
Read error : 0
Jitter error (maybe fixed) : 0
Retry sector count : 0
Damaged sector count : 0

Track 07
Filename : /Users/patrickobrien/Music/Hans Zimmer - Interstellar: Original Motion Picture Soundtrack [Disc 2] (2014) [FLAC]/07 Who's They?.flac

Track gain : 1.45 dB
Peak : 0.830902
CRC32 hash (test run) : C1543D47
CRC32 hash : C1543D47
CRC32 hash (skip zero) : 82CB1A37
AccurateRip v1 signature : F06C96B8
AccurateRip v2 signature : 0168F1C3
->Track not present in AccurateRip database.
Statistics
Read error : 0
Jitter error (maybe fixed) : 0
Retry sector count : 0
Damaged sector count : 0

Track 08
Filename : /Users/patrickobrien/Music/Hans Zimmer - Interstellar: Original Motion Picture Soundtrack [Disc 2] (2014) [FLAC]/08 Murph.flac

Track gain : -5.05 dB
Peak : 0.943848
CRC32 hash (test run) : 692664CF
CRC32 hash : 692664CF
CRC32 hash (skip zero) : 849C7F33
AccurateRip v1 signature : 2C7486AB
AccurateRip v2 signature : EDBED24A
->Track not present in AccurateRip database.
Statistics
Read error : 0
Jitter error (maybe fixed) : 2
Retry sector count : 743
Damaged sector count : 0

Track 09
Filename : /Users/patrickobrien/Music/Hans Zimmer - Interstellar: Original Motion Picture Soundtrack [Disc 2] (2014) [FLAC]/09 Organ Variation.flac

Track gain : 4.67 dB
Peak : 0.910736
CRC32 hash (test run) : FF3BECAF
CRC32 hash : FF3BECAF
CRC32 hash (skip zero) : 5EB94CCD
AccurateRip v1 signature : C419D226
AccurateRip v2 signature : 9E679FFB
->Track not present in AccurateRip database.
Statistics
Read error : 0
Jitter error (maybe fixed) : 0
Retry sector count : 0
Damaged sector count : 0

Track 10
Filename : /Users/patrickobrien/Music/Hans Zimmer - Interstellar: Original Motion Picture Soundtrack [Disc 2] (2014) [FLAC]/10 Tick-Tock.flac

Track gain : -4.62 dB
Peak : 0.943848
CRC32 hash (test run) : BCEC9FD4
CRC32 hash : BCEC9FD4
CRC32 hash (skip zero) : AE0E0B82
AccurateRip v1 signature : 13BE5FD2
AccurateRip v2 signature : 94F53ACF
->Track not present in AccurateRip database.
Statistics
Read error : 0
Jitter error (maybe fixed) : 0
Retry sector count : 67
Damaged sector count : 0

Track 11
Filename : /Users/patrickobrien/Music/Hans Zimmer - Interstellar: Original Motion Picture Soundtrack [Disc 2] (2014) [FLAC]/11 Day One (Original Demo).flac

Track gain : 0.50 dB
Peak : 0.915771
CRC32 hash (test run) : 02A52164
CRC32 hash : 02A52164
CRC32 hash (skip zero) : 1BE4A216
AccurateRip v1 signature : 15D276E4
AccurateRip v2 signature : 674BADAD
->Track not present in AccurateRip database.
Statistics
Read error : 0
Jitter error (maybe fixed) : 0
Retry sector count : 0
Damaged sector count : 0

Track 12
Filename : /Users/patrickobrien/Music/Hans Zimmer - Interstellar: Original Motion Picture Soundtrack [Disc 2] (2014) [FLAC]/12 Do Not Go Gentle Into That Good Night.flac

Track gain : 10.34 dB
Peak : 0.273712
CRC32 hash (test run) : 43A76A1D
CRC32 hash : 43A76A1D
CRC32 hash (skip zero) : 0033A643
AccurateRip v1 signature : 11CF6448
AccurateRip v2 signature : 519C898D
->Track not present in AccurateRip database.
Statistics
Read error : 0
Jitter error (maybe fixed) : 0
Retry sector count : 0
Damaged sector count : 0

Track 13
Filename : /Users/patrickobrien/Music/Hans Zimmer - Interstellar: Original Motion Picture Soundtrack [Disc 2] (2014) [FLAC]/13 No Time For Caution.flac

Track gain : -1.66 dB
Peak : 0.949219
CRC32 hash (test run) : A60E8F72
CRC32 hash : A60E8F72
CRC32 hash (skip zero) : 978CCC01
AccurateRip v1 signature : A54FBA2E
AccurateRip v2 signature : 709B65C2
->Track not present in AccurateRip database.
Statistics
Read error : 0
Jitter error (maybe fixed) : 0
Retry sector count : 0
Damaged sector count : 0

No errors occurred

End of status report

––-BEGIN XLD SIGNATURE––-
ugJCmEKMv_lETF3zotR6gxzXuETMdd0TVqqoEQUTo0UYIOt11SxMqfXasqY3G6KZAfNUWfxzPaBltmzEd.8eBh1FK1X2JdBWZy1nT7y
––-END XLD SIGNATURE––-

All thanks go to the what.cd

More Music in My Blog
Follow My RSS Channel