Subcategories

Hans Zimmer, Jacob Shea & David Fleming - Blue Planet II (Original Television Soundtrack) (2017)

Posted By: delpotro
Hans Zimmer, Jacob Shea & David Fleming - Blue Planet II (Original Television Soundtrack) (2017)

Hans Zimmer, Jacob Shea & David Fleming - Blue Planet II (Original Television Soundtrack) (2017)
EAC Rip | FLAC (tracks+log+.cue) - 327 Mb | Scans - 114 Mb | 01:11:27
Ambient, Soundtrack | Label: Silva Screen Records

A generation on from the BBC Natural History Unit’s series The Blue Planet, Blue Planet II uses breakthroughs in marine science and cutting-edge technology to explore new worlds and reveal the very latest discoveries. This landmark seven-part series will bring viewers face to face with unexpected new landscapes and introduce compelling contemporary stories from our ocean. Over the course of more than four years, the Blue Planet II team have mounted 125 expeditions, visited 39 countries, filmed across every ocean and spent over 6,000 hours diving underwater to bring us closer than ever before to the captivating lives of some of the most extraordinary sea creatures. Following on from their soundtrack success with Planet Earth II, the Emmy and BAFTA nominated Bleeding Fingers Music team headed by Hans Zimmer deliver once more their perfect harmony of matching music to stunning images of nature. With over 120 soundtracks to his credit which have grossed 24 billion dollars at the box office Hans Zimmer has been honoured with many accolades, an Academy Award, two Golden Globes, three Grammys, an American Music Award, a Tony Award and The Henry Mancini Award for Lifetime Achievement. His Academy Award nomination for Interstellar marked his 10th Oscar nomination. Jacob Shea is lead composer at Bleeding Fingers winning BMI Awards for Mountain Men and Alaskan Bush People. David Fleming began his career working with the master of TV music, Mike Post, recent work includes contributions to Divergent, Teenage Mutant Ninja Turtles: Out of the Shadows, and Transformers: The Last Knight.
Tracklist:
01. The Blue Planet [0:03:17.26]
02. Family Theme [0:02:37.34]
03. Surfing Dolphins [0:02:22.02]
04. Abyssal Plain [0:03:07.74]
05. Mobula Rays [0:02:43.50]
06. Race To Feed [0:05:11.22]
07. Albatross Flight [0:05:38.67]
08. Big Blue [0:04:25.28]
09. Turtle Spa [0:02:28.15]
10. Ducks and Currents [0:02:20.70]
11. Humboldt Squid [0:03:35.70]
12. A Forest Awakens [0:03:25.56]
13. Scavengers of the Deep [0:02:27.25]
14. Kobudai Transformation [0:05:39.72]
15. Clownfish [0:03:52.58]
16. Baby Turtle [0:03:43.58]
17. Weedy Sea Dragon [0:03:49.19]
18. Portuguese Man of War [0:04:54.69]
19. Walrus: The Right Piece of Ice [0:05:44.32]

Exact Audio Copy V1.3 from 2. September 2016

EAC extraction logfile from 6. December 2017, 14:23

Hans Zimmer, Jacob Shea & David Fleming / Blue Planet II

Used drive : PLEXTOR CD-R PX-230A Adapter: 1 ID: 2

Read mode : Secure
Utilize accurate stream : Yes
Defeat audio cache : Yes
Make use of C2 pointers : No

Read offset correction : 738
Overread into Lead-In and Lead-Out : No
Fill up missing offset samples with silence : Yes
Delete leading and trailing silent blocks : No
Null samples used in CRC calculations : Yes
Used interface : Native Win32 interface for Win NT & 2000
Gap handling : Appended to previous track

Used output format : User Defined Encoder
Selected bitrate : 1024 kBit/s
Quality : High
Add ID3 tag : No
Command line compressor : C:\Program Files\Exact Audio Copy\Flac\flac.exe
Additional command line options : -6 -V -T "ARTIST=%artist%" -T "TITLE=%title%" -T "ALBUM=%albumtitle%" -T "DATE=%year%" -T "TRACKNUMBER=%tracknr%" -T "GENRE=%genre%" -T "COMMENT=%comment%" -T "ALBUMARTIST=%albuminterpret%" -T "COMPOSER=%composer%" -T "DISCNUMBER=%cdnumber%" -T "TOTALDISCS=%totalcds%" -T "TOTALTRACKS=%numtracks%" %source% -o %dest%


TOC of the extracted CD

Track | Start | Length | Start sector | End sector
––––––––––––––––––––––––––––-
1 | 0:00.00 | 3:17.26 | 0 | 14800
2 | 3:17.26 | 2:37.34 | 14801 | 26609
3 | 5:54.60 | 2:22.02 | 26610 | 37261
4 | 8:16.62 | 3:07.74 | 37262 | 51360
5 | 11:24.61 | 2:43.50 | 51361 | 63635
6 | 14:08.36 | 5:11.22 | 63636 | 86982
7 | 19:19.58 | 5:38.67 | 86983 | 112399
8 | 24:58.50 | 4:25.28 | 112400 | 132302
9 | 29:24.03 | 2:28.15 | 132303 | 143417
10 | 31:52.18 | 2:20.70 | 143418 | 153987
11 | 34:13.13 | 3:35.70 | 153988 | 170182
12 | 37:49.08 | 3:25.56 | 170183 | 185613
13 | 41:14.64 | 2:27.25 | 185614 | 196663
14 | 43:42.14 | 5:39.72 | 196664 | 222160
15 | 49:22.11 | 3:52.58 | 222161 | 239618
16 | 53:14.69 | 3:43.58 | 239619 | 256401
17 | 56:58.52 | 3:49.19 | 256402 | 273595
18 | 60:47.71 | 4:54.69 | 273596 | 295714
19 | 65:42.65 | 5:44.32 | 295715 | 321546


Track 1

Filename C:\Ripped by Filex\01 - The Blue Planet.wav

Pre-gap length 0:00:02.00

Peak level 90.1 %
Extraction speed 4.7 X
Track quality 100.0 %
Test CRC 4AC13A2A
Copy CRC 4AC13A2A
Track not present in AccurateRip database
Copy OK

Track 2

Filename C:\Ripped by Filex\02 - Family Theme.wav

Peak level 84.0 %
Extraction speed 4.1 X
Track quality 100.0 %
Test CRC 94AD4786
Copy CRC 94AD4786
Track not present in AccurateRip database
Copy OK

Track 3

Filename C:\Ripped by Filex\03 - Surfing Dolphins.wav

Peak level 84.4 %
Extraction speed 4.9 X
Track quality 100.0 %
Test CRC E1B7B3C7
Copy CRC E1B7B3C7
Track not present in AccurateRip database
Copy OK

Track 4

Filename C:\Ripped by Filex\04 - Abyssal Plain.wav

Peak level 64.1 %
Extraction speed 5.2 X
Track quality 100.0 %
Test CRC 2057CD45
Copy CRC 2057CD45
Track not present in AccurateRip database
Copy OK

Track 5

Filename C:\Ripped by Filex\05 - Mobula Rays.wav

Peak level 87.8 %
Extraction speed 4.3 X
Track quality 99.9 %
Test CRC 4C0C1EC2
Copy CRC 4C0C1EC2
Track not present in AccurateRip database
Copy OK

Track 6

Filename C:\Ripped by Filex\06 - Race To Feed.wav

Peak level 86.0 %
Extraction speed 5.6 X
Track quality 100.0 %
Test CRC 4B009D22
Copy CRC 4B009D22
Track not present in AccurateRip database
Copy OK

Track 7

Filename C:\Ripped by Filex\07 - Albatross Flight.wav

Peak level 85.2 %
Extraction speed 5.6 X
Track quality 100.0 %
Test CRC 15F5F4CD
Copy CRC 15F5F4CD
Track not present in AccurateRip database
Copy OK

Track 8

Filename C:\Ripped by Filex\08 - Big Blue.wav

Peak level 88.0 %
Extraction speed 4.2 X
Track quality 100.0 %
Test CRC F79B6C88
Copy CRC F79B6C88
Track not present in AccurateRip database
Copy OK

Track 9

Filename C:\Ripped by Filex\09 - Turtle Spa.wav

Peak level 88.4 %
Extraction speed 4.9 X
Track quality 100.0 %
Test CRC 1A1156D4
Copy CRC 1A1156D4
Track not present in AccurateRip database
Copy OK

Track 10

Filename C:\Ripped by Filex\10 - Ducks and Currents.wav

Peak level 82.7 %
Extraction speed 4.9 X
Track quality 100.0 %
Test CRC 61BE7EA9
Copy CRC 61BE7EA9
Track not present in AccurateRip database
Copy OK

Track 11

Filename C:\Ripped by Filex\11 - Humboldt Squid.wav

Peak level 85.6 %
Extraction speed 5.2 X
Track quality 100.0 %
Test CRC 50B55C91
Copy CRC 50B55C91
Track not present in AccurateRip database
Copy OK

Track 12

Filename C:\Ripped by Filex\12 - A Forest Awakens.wav

Peak level 89.5 %
Extraction speed 5.2 X
Track quality 100.0 %
Test CRC C43CF7D5
Copy CRC C43CF7D5
Track not present in AccurateRip database
Copy OK

Track 13

Filename C:\Ripped by Filex\13 - Scavengers of the Deep.wav

Peak level 68.1 %
Extraction speed 4.9 X
Track quality 100.0 %
Test CRC 0BA2829C
Copy CRC 0BA2829C
Track not present in AccurateRip database
Copy OK

Track 14

Filename C:\Ripped by Filex\14 - Kobudai Transformation.wav

Peak level 90.1 %
Extraction speed 4.6 X
Track quality 99.9 %
Test CRC E115A1CD
Copy CRC E115A1CD
Track not present in AccurateRip database
Copy OK

Track 15

Filename C:\Ripped by Filex\15 - Clownfish.wav

Peak level 85.6 %
Extraction speed 5.2 X
Track quality 100.0 %
Test CRC D1BBBC77
Copy CRC D1BBBC77
Track not present in AccurateRip database
Copy OK

Track 16

Filename C:\Ripped by Filex\16 - Baby Turtle.wav

Peak level 82.5 %
Extraction speed 4.6 X
Track quality 99.9 %
Test CRC CE5CCBF1
Copy CRC CE5CCBF1
Track not present in AccurateRip database
Copy OK

Track 17

Filename C:\Ripped by Filex\17 - Weedy Sea Dragon.wav

Peak level 86.0 %
Extraction speed 5.2 X
Track quality 100.0 %
Test CRC 82B749FD
Copy CRC 82B749FD
Track not present in AccurateRip database
Copy OK

Track 18

Filename C:\Ripped by Filex\18 - Portuguese Man of War.wav

Peak level 85.3 %
Extraction speed 5.3 X
Track quality 100.0 %
Test CRC 806C5C9C
Copy CRC 806C5C9C
Track not present in AccurateRip database
Copy OK

Track 19

Filename C:\Ripped by Filex\19 - Walrus- The Right Piece of Ice.wav

Peak level 89.0 %
Extraction speed 5.4 X
Track quality 100.0 %
Test CRC AE8BFACA
Copy CRC AE8BFACA
Track not present in AccurateRip database
Copy OK


None of the tracks are present in the AccurateRip database

No errors occurred

End of status report

–– CUETools DB Plugin V2.1.6

[CTDB TOCID: r7xfW9vrIuLFJ4TKWGtP6mzlBHU-] found
Submit result: r7xfW9vrIuLFJ4TKWGtP6mzlBHU- has been confirmed
Track | CTDB Status
1 | (1/1) Accurately ripped
2 | (1/1) Accurately ripped
3 | (1/1) Accurately ripped
4 | (1/1) Accurately ripped
5 | (1/1) Accurately ripped
6 | (1/1) Accurately ripped
7 | (1/1) Accurately ripped
8 | (1/1) Accurately ripped
9 | (1/1) Accurately ripped
10 | (1/1) Accurately ripped
11 | (1/1) Accurately ripped
12 | (1/1) Accurately ripped
13 | (1/1) Accurately ripped
14 | (1/1) Accurately ripped
15 | (1/1) Accurately ripped
16 | (1/1) Accurately ripped
17 | (1/1) Accurately ripped
18 | (1/1) Accurately ripped
19 | (1/1) Accurately ripped


==== Log checksum BDB4D702EE6E250799CD9F12A528E2F3443E8E9E27FADBC0A8C5AF4EA8ADCB15 ====



Hans Zimmer, Jacob Shea & David Fleming - Blue Planet II (Original Television Soundtrack) (2017)

Thanks to the Original ripper Filex !