Subcategories

Havasi Balázs - Pure Piano (2017)

Posted By: shamanicus
Havasi Balázs - Pure Piano (2017)

Havasi Balázs - Pure Piano (2017)
EAC Rip | FLAC (tracks+.cue, log) | Artwork | 534 mb | MP3 CBR 320kbps | RAR | 318 mb
Classical, Piano | Label: Havasi Entertainment / 5999566120015

A virtuoso pianist with rock star-like charisma and an original composer who has forged a unique musical style, blending the depth and discipline of classical tradition with the dazzling diversity of world music.

Tracklist:

CD 1 (18 / 1:04:15)

01. The Storm
02. Etude No. 2
03. Faena
04. Trinity River
05. Beside You
06. Snowflakes
07. Empty House
08. Terra Rossa
09. Shelter
10. Mystic
11. Timepiece
12. Northern Lights
13. Hypnotic
14. Wolf
15. Freedom
16. See Red
17. The Duel
18. Rise


CD 2 (18 / 1:03:55)

01. Dusty Road
02. A Hungarian In Paris
03. The Lover Of The Sun
04. Awakenings
05. Cathedral
06. Raindrops
07. Etude No.1
08. My Homeland
09. Sumbeam
10. Shadows
11. Eliot
12. Elinor
13. Daisy's Secret
14. Abelle
15. Hymn
16. Lament
17. Fairy Dreams
18. On A Winter Night

Havasi Balázs - Pure Piano (2017)


Exact Audio Copy V1.3 from 2. September 2016

EAC extraction logfile from 15. December 2017, 22:26

Havasi Balázs / Pure Piano

Used drive : PLEXTOR DVDR PX-891SAF Adapter: 1 ID: 0

Read mode : Secure
Utilize accurate stream : Yes
Defeat audio cache : Yes
Make use of C2 pointers : No

Read offset correction : 6
Overread into Lead-In and Lead-Out : No
Fill up missing offset samples with silence : Yes
Delete leading and trailing silent blocks : No
Null samples used in CRC calculations : Yes
Used interface : Native Win32 interface for Win NT & 2000
Gap handling : Appended to previous track

Used output format : User Defined Encoder
Selected bitrate : 1024 kBit/s
Quality : High
Add ID3 tag : No
Command line compressor : C:\Program Files (x86)\Exact Audio Copy\Flac\flac.exe
Additional command line options : -0 -V -T "ARTIST=%artist%" -T "TITLE=%title%" -T "ALBUM=%albumtitle%" -T "DATE=%year%" -T "TRACKNUMBER=%tracknr%" -T "TOTALTRACKS=%numtracks%" -T "GENRE=%genre%" -T "COMMENT=Naftamusic Release!" %source%


TOC of the extracted CD

Track | Start | Length | Start sector | End sector
––––––––––––––––––––––––––––-
1 | 0:00.00 | 2:56.54 | 0 | 13253
2 | 2:56.54 | 3:04.30 | 13254 | 27083
3 | 6:01.09 | 3:50.14 | 27084 | 44347
4 | 9:51.23 | 4:54.71 | 44348 | 66468
5 | 14:46.19 | 3:05.00 | 66469 | 80343
6 | 17:51.19 | 1:17.41 | 80344 | 86159
7 | 19:08.60 | 3:04.51 | 86160 | 100010
8 | 22:13.36 | 4:35.22 | 100011 | 120657
9 | 26:48.58 | 3:33.74 | 120658 | 136706
10 | 30:22.57 | 4:31.69 | 136707 | 157100
11 | 34:54.51 | 3:01.60 | 157101 | 170735
12 | 37:56.36 | 5:51.01 | 170736 | 197061
13 | 43:47.37 | 3:17.72 | 197062 | 211908
14 | 47:05.34 | 3:37.32 | 211909 | 228215
15 | 50:42.66 | 4:44.59 | 228216 | 249574
16 | 55:27.50 | 2:59.49 | 249575 | 263048
17 | 58:27.24 | 3:29.08 | 263049 | 278731
18 | 61:56.32 | 2:18.37 | 278732 | 289118


Track 1

Filename E:\Nafta Releases\Havasi Balázs - Pure Piano (2 CD 2017)[FLAC] - Naftamusic\CD 1\01 - The Storm.wav

Pre-gap length 0:00:02.00

Peak level 100.0 %
Extraction speed 2.5 X
Track quality 100.0 %
Test CRC 588F3EDD
Copy CRC 588F3EDD
Track not present in AccurateRip database
Copy OK

Track 2

Filename E:\Nafta Releases\Havasi Balázs - Pure Piano (2 CD 2017)[FLAC] - Naftamusic\CD 1\02 - Etude No. 2.wav

Pre-gap length 0:00:02.51

Peak level 88.2 %
Extraction speed 2.7 X
Track quality 100.0 %
Test CRC 0DBB4CAF
Copy CRC 0DBB4CAF
Track not present in AccurateRip database
Copy OK

Track 3

Filename E:\Nafta Releases\Havasi Balázs - Pure Piano (2 CD 2017)[FLAC] - Naftamusic\CD 1\03 - Faena.wav

Pre-gap length 0:00:02.36

Peak level 92.8 %
Extraction speed 3.0 X
Track quality 100.0 %
Test CRC D4976F1A
Copy CRC D4976F1A
Track not present in AccurateRip database
Copy OK

Track 4

Filename E:\Nafta Releases\Havasi Balázs - Pure Piano (2 CD 2017)[FLAC] - Naftamusic\CD 1\04 - Trinity River.wav

Pre-gap length 0:00:03.34

Peak level 93.9 %
Extraction speed 3.4 X
Track quality 100.0 %
Test CRC 20A4E5DE
Copy CRC 20A4E5DE
Track not present in AccurateRip database
Copy OK

Track 5

Filename E:\Nafta Releases\Havasi Balázs - Pure Piano (2 CD 2017)[FLAC] - Naftamusic\CD 1\05 - Beside You.wav

Pre-gap length 0:00:03.18

Peak level 96.0 %
Extraction speed 3.5 X
Track quality 100.0 %
Test CRC E6408819
Copy CRC E6408819
Track not present in AccurateRip database
Copy OK

Track 6

Filename E:\Nafta Releases\Havasi Balázs - Pure Piano (2 CD 2017)[FLAC] - Naftamusic\CD 1\06 - Snowflakes.wav

Pre-gap length 0:00:03.43

Peak level 53.6 %
Extraction speed 2.9 X
Track quality 100.0 %
Test CRC 503AE0DF
Copy CRC 503AE0DF
Track not present in AccurateRip database
Copy OK

Track 7

Filename E:\Nafta Releases\Havasi Balázs - Pure Piano (2 CD 2017)[FLAC] - Naftamusic\CD 1\07 - Empty House.wav

Pre-gap length 0:00:02.24

Peak level 84.9 %
Extraction speed 3.7 X
Track quality 100.0 %
Test CRC CECA10AA
Copy CRC CECA10AA
Track not present in AccurateRip database
Copy OK

Track 8

Filename E:\Nafta Releases\Havasi Balázs - Pure Piano (2 CD 2017)[FLAC] - Naftamusic\CD 1\08 - Terra Rossa.wav

Pre-gap length 0:00:01.74

Peak level 72.0 %
Extraction speed 4.1 X
Track quality 100.0 %
Test CRC 2DE0B911
Copy CRC 2DE0B911
Track not present in AccurateRip database
Copy OK

Track 9

Filename E:\Nafta Releases\Havasi Balázs - Pure Piano (2 CD 2017)[FLAC] - Naftamusic\CD 1\09 - Shelter.wav

Pre-gap length 0:00:02.37

Peak level 67.5 %
Extraction speed 4.2 X
Track quality 100.0 %
Test CRC 73D62E87
Copy CRC 73D62E87
Track not present in AccurateRip database
Copy OK

Track 10

Filename E:\Nafta Releases\Havasi Balázs - Pure Piano (2 CD 2017)[FLAC] - Naftamusic\CD 1\10 - Mystic.wav

Pre-gap length 0:00:02.17

Peak level 80.4 %
Extraction speed 3.7 X
Track quality 99.9 %
Test CRC 0F91486C
Copy CRC 0F91486C
Track not present in AccurateRip database
Copy OK

Track 11

Filename E:\Nafta Releases\Havasi Balázs - Pure Piano (2 CD 2017)[FLAC] - Naftamusic\CD 1\11 - Timepiece.wav

Pre-gap length 0:00:02.20

Peak level 78.6 %
Extraction speed 4.4 X
Track quality 100.0 %
Test CRC 6FEAF464
Copy CRC 6FEAF464
Track not present in AccurateRip database
Copy OK

Track 12

Filename E:\Nafta Releases\Havasi Balázs - Pure Piano (2 CD 2017)[FLAC] - Naftamusic\CD 1\12 - Northern Lights.wav

Pre-gap length 0:00:01.54

Peak level 88.8 %
Extraction speed 5.0 X
Track quality 100.0 %
Test CRC 964420BF
Copy CRC 964420BF
Track not present in AccurateRip database
Copy OK

Track 13

Filename E:\Nafta Releases\Havasi Balázs - Pure Piano (2 CD 2017)[FLAC] - Naftamusic\CD 1\13 - Hypnotic.wav

Pre-gap length 0:00:01.74

Peak level 97.4 %
Extraction speed 4.8 X
Track quality 100.0 %
Test CRC A6A57042
Copy CRC A6A57042
Track not present in AccurateRip database
Copy OK

Track 14

Filename E:\Nafta Releases\Havasi Balázs - Pure Piano (2 CD 2017)[FLAC] - Naftamusic\CD 1\14 - Wolf.wav

Pre-gap length 0:00:03.08

Peak level 90.6 %
Extraction speed 3.8 X
Track quality 99.9 %
Test CRC 684EA6B9
Copy CRC 684EA6B9
Track not present in AccurateRip database
Copy OK

Track 15

Filename E:\Nafta Releases\Havasi Balázs - Pure Piano (2 CD 2017)[FLAC] - Naftamusic\CD 1\15 - Freedom.wav

Pre-gap length 0:00:02.33

Peak level 100.0 %
Extraction speed 5.3 X
Track quality 100.0 %
Test CRC 0E6A4A0C
Copy CRC 0E6A4A0C
Track not present in AccurateRip database
Copy OK

Track 16

Filename E:\Nafta Releases\Havasi Balázs - Pure Piano (2 CD 2017)[FLAC] - Naftamusic\CD 1\16 - See Red.wav

Pre-gap length 0:00:02.46

Peak level 100.0 %
Extraction speed 5.1 X
Track quality 100.0 %
Test CRC 75ACD0DF
Copy CRC 75ACD0DF
Track not present in AccurateRip database
Copy OK

Track 17

Filename E:\Nafta Releases\Havasi Balázs - Pure Piano (2 CD 2017)[FLAC] - Naftamusic\CD 1\17 - The Duel.wav

Pre-gap length 0:00:01.49

Peak level 100.0 %
Extraction speed 5.3 X
Track quality 100.0 %
Test CRC A67E8418
Copy CRC A67E8418
Track not present in AccurateRip database
Copy OK

Track 18

Filename E:\Nafta Releases\Havasi Balázs - Pure Piano (2 CD 2017)[FLAC] - Naftamusic\CD 1\18 - Rise.wav

Pre-gap length 0:00:03.21

Peak level 100.0 %
Extraction speed 5.0 X
Track quality 100.0 %
Test CRC F9BEBAFF
Copy CRC F9BEBAFF
Track not present in AccurateRip database
Copy OK


None of the tracks are present in the AccurateRip database

No errors occurred

End of status report

==== Log checksum 131958ABF3D93D1704A1BEA4FDBA8C5887A149D437D8C4B6976DC85E024DC04F ====

Exact Audio Copy V1.3 from 2. September 2016

EAC extraction logfile from 15. December 2017, 23:30

Havasi Balázs / Pure Piano

Used drive : PLEXTOR DVDR PX-891SAF Adapter: 1 ID: 0

Read mode : Secure
Utilize accurate stream : Yes
Defeat audio cache : Yes
Make use of C2 pointers : No

Read offset correction : 6
Overread into Lead-In and Lead-Out : No
Fill up missing offset samples with silence : Yes
Delete leading and trailing silent blocks : No
Null samples used in CRC calculations : Yes
Used interface : Native Win32 interface for Win NT & 2000
Gap handling : Appended to previous track

Used output format : User Defined Encoder
Selected bitrate : 1024 kBit/s
Quality : High
Add ID3 tag : No
Command line compressor : C:\Program Files (x86)\Exact Audio Copy\Flac\flac.exe
Additional command line options : -0 -V -T "ARTIST=%artist%" -T "TITLE=%title%" -T "ALBUM=%albumtitle%" -T "DATE=%year%" -T "TRACKNUMBER=%tracknr%" -T "TOTALTRACKS=%numtracks%" -T "GENRE=%genre%" -T "COMMENT=Naftamusic Release!" %source%


TOC of the extracted CD

Track | Start | Length | Start sector | End sector
––––––––––––––––––––––––––––-
1 | 0:00.00 | 3:15.27 | 0 | 14651
2 | 3:15.27 | 2:20.52 | 14652 | 25203
3 | 5:36.04 | 3:50.19 | 25204 | 42472
4 | 9:26.23 | 3:20.64 | 42473 | 57536
5 | 12:47.12 | 2:14.54 | 57537 | 67640
6 | 15:01.66 | 2:59.64 | 67641 | 81129
7 | 18:01.55 | 4:22.70 | 81130 | 100849
8 | 22:24.50 | 4:57.24 | 100850 | 123148
9 | 27:21.74 | 2:37.50 | 123149 | 134973
10 | 29:59.49 | 2:59.01 | 134974 | 148399
11 | 32:58.50 | 4:44.38 | 148400 | 169737
12 | 37:43.13 | 4:48.56 | 169738 | 191393
13 | 42:31.69 | 4:20.50 | 191394 | 210943
14 | 46:52.44 | 4:10.10 | 210944 | 229703
15 | 51:02.54 | 2:28.61 | 229704 | 240864
16 | 53:31.40 | 3:54.50 | 240865 | 258464
17 | 57:26.15 | 2:59.32 | 258465 | 271921
18 | 60:25.47 | 3:29.62 | 271922 | 287658


Track 1

Filename E:\Nafta Releases\Havasi Balázs - Pure Piano (2 CD 2017)[FLAC] - Naftamusic\CD 2\01 - Dusty road.wav

Pre-gap length 0:00:02.00

Peak level 92.1 %
Extraction speed 2.5 X
Track quality 100.0 %
Test CRC D2316683
Copy CRC D2316683
Track not present in AccurateRip database
Copy OK

Track 2

Filename E:\Nafta Releases\Havasi Balázs - Pure Piano (2 CD 2017)[FLAC] - Naftamusic\CD 2\02 - A Hungarian In Paris.wav

Peak level 95.6 %
Extraction speed 2.5 X
Track quality 100.0 %
Test CRC B5B697BE
Copy CRC B5B697BE
Track not present in AccurateRip database
Copy OK

Track 3

Filename E:\Nafta Releases\Havasi Balázs - Pure Piano (2 CD 2017)[FLAC] - Naftamusic\CD 2\03 - The Lover Of The Sun.wav

Peak level 93.1 %
Extraction speed 3.0 X
Track quality 100.0 %
Test CRC 4B741D6E
Copy CRC 4B741D6E
Track not present in AccurateRip database
Copy OK

Track 4

Filename E:\Nafta Releases\Havasi Balázs - Pure Piano (2 CD 2017)[FLAC] - Naftamusic\CD 2\04 - Awakenings.wav

Pre-gap length 0:00:01.57

Peak level 94.8 %
Extraction speed 2.4 X
Track quality 99.9 %
Test CRC D750316C
Copy CRC D750316C
Track not present in AccurateRip database
Copy OK

Track 5

Filename E:\Nafta Releases\Havasi Balázs - Pure Piano (2 CD 2017)[FLAC] - Naftamusic\CD 2\05 - Cathedral.wav

Pre-gap length 0:00:03.54

Peak level 85.5 %
Extraction speed 3.1 X
Track quality 100.0 %
Test CRC DC2ED1F5
Copy CRC DC2ED1F5
Track not present in AccurateRip database
Copy OK

Track 6

Filename E:\Nafta Releases\Havasi Balázs - Pure Piano (2 CD 2017)[FLAC] - Naftamusic\CD 2\06 - Raindrops.wav

Pre-gap length 0:00:02.40

Peak level 90.6 %
Extraction speed 3.4 X
Track quality 100.0 %
Test CRC B4FF54E5
Copy CRC B4FF54E5
Track not present in AccurateRip database
Copy OK

Track 7

Filename E:\Nafta Releases\Havasi Balázs - Pure Piano (2 CD 2017)[FLAC] - Naftamusic\CD 2\07 - Etude No.1.wav

Pre-gap length 0:00:03.02

Peak level 87.0 %
Extraction speed 3.1 X
Track quality 99.9 %
Test CRC C791B64A
Copy CRC C791B64A
Track not present in AccurateRip database
Copy OK

Track 8

Filename E:\Nafta Releases\Havasi Balázs - Pure Piano (2 CD 2017)[FLAC] - Naftamusic\CD 2\08 - My Homeland.wav

Pre-gap length 0:00:01.62

Peak level 97.5 %
Extraction speed 4.1 X
Track quality 100.0 %
Test CRC 57657FF7
Copy CRC 57657FF7
Track not present in AccurateRip database
Copy OK

Track 9

Filename E:\Nafta Releases\Havasi Balázs - Pure Piano (2 CD 2017)[FLAC] - Naftamusic\CD 2\09 - Sumbeam.wav

Pre-gap length 0:00:02.68

Peak level 69.4 %
Extraction speed 2.8 X
Track quality 99.9 %
Test CRC 5F882843
Copy CRC 5F882843
Track not present in AccurateRip database
Copy OK

Track 10

Filename E:\Nafta Releases\Havasi Balázs - Pure Piano (2 CD 2017)[FLAC] - Naftamusic\CD 2\10 - Shadows.wav

Pre-gap length 0:00:02.23

Peak level 78.8 %
Extraction speed 4.2 X
Track quality 100.0 %
Test CRC 9594CB8A
Copy CRC 9594CB8A
Track not present in AccurateRip database
Copy OK

Track 11

Filename E:\Nafta Releases\Havasi Balázs - Pure Piano (2 CD 2017)[FLAC] - Naftamusic\CD 2\11 - Eliot.wav

Pre-gap length 0:00:02.09

Peak level 99.1 %
Extraction speed 3.7 X
Track quality 99.9 %
Test CRC FB84C449
Copy CRC FB84C449
Track not present in AccurateRip database
Copy OK

Track 12

Filename E:\Nafta Releases\Havasi Balázs - Pure Piano (2 CD 2017)[FLAC] - Naftamusic\CD 2\12 - Elinor.wav

Pre-gap length 0:00:02.55

Peak level 89.9 %
Extraction speed 4.8 X
Track quality 100.0 %
Test CRC 34EB0933
Copy CRC 34EB0933
Track not present in AccurateRip database
Copy OK

Track 13

Filename E:\Nafta Releases\Havasi Balázs - Pure Piano (2 CD 2017)[FLAC] - Naftamusic\CD 2\13 - Daisy's Secret.wav

Pre-gap length 0:00:01.74

Peak level 86.3 %
Extraction speed 4.9 X
Track quality 100.0 %
Test CRC 0861B89B
Copy CRC 0861B89B
Track not present in AccurateRip database
Copy OK

Track 14

Filename E:\Nafta Releases\Havasi Balázs - Pure Piano (2 CD 2017)[FLAC] - Naftamusic\CD 2\14 - Abelle.wav

Pre-gap length 0:00:02.40

Peak level 75.9 %
Extraction speed 5.0 X
Track quality 100.0 %
Test CRC 1AD84243
Copy CRC 1AD84243
Track not present in AccurateRip database
Copy OK

Track 15

Filename E:\Nafta Releases\Havasi Balázs - Pure Piano (2 CD 2017)[FLAC] - Naftamusic\CD 2\15 - Hymn.wav

Pre-gap length 0:00:02.38

Peak level 40.7 %
Extraction speed 4.7 X
Track quality 100.0 %
Test CRC 11620D0B
Copy CRC 11620D0B
Track not present in AccurateRip database
Copy OK

Track 16

Filename E:\Nafta Releases\Havasi Balázs - Pure Piano (2 CD 2017)[FLAC] - Naftamusic\CD 2\16 - Lament.wav

Pre-gap length 0:00:04.11

Peak level 48.4 %
Extraction speed 5.2 X
Track quality 100.0 %
Test CRC 22F28D8B
Copy CRC 22F28D8B
Track not present in AccurateRip database
Copy OK

Track 17

Filename E:\Nafta Releases\Havasi Balázs - Pure Piano (2 CD 2017)[FLAC] - Naftamusic\CD 2\17 - Fairy Dreams.wav

Pre-gap length 0:00:02.08

Peak level 79.4 %
Extraction speed 5.2 X
Track quality 100.0 %
Test CRC F7548824
Copy CRC F7548824
Track not present in AccurateRip database
Copy OK

Track 18

Filename E:\Nafta Releases\Havasi Balázs - Pure Piano (2 CD 2017)[FLAC] - Naftamusic\CD 2\18 - On A Winter Night.wav

Pre-gap length 0:00:01.34

Peak level 75.7 %
Extraction speed 2.8 X
Track quality 99.9 %
Test CRC 40EECE21
Copy CRC 40EECE21
Track not present in AccurateRip database
Copy OK


None of the tracks are present in the AccurateRip database

No errors occurred

End of status report

==== Log checksum 8DB07716763D5EDBA4A736D44DC4136F2EEE396B2701174F9393D8A0323C496F ====




Thanks to the Original customer.