Subcategories

Hampton Hawes Quartet - All Night Session, Vols. 1-3 (1956) {2CD Set Japan Victor Mini LP 20-bit K2, VICJ-60782~3 rel 2001}

Posted By: ruskaval
Hampton Hawes Quartet - All Night Session, Vols. 1-3 (1956) {2CD Set Japan Victor Mini LP 20-bit K2, VICJ-60782~3 rel 2001}

Hampton Hawes Quartet - All Night Session, Vols. 1-3 (1956) {2CD Set Japan Victor Mini LP 20-bit K2, VICJ-60782~3 rel 2001}
EAC rip (secure mode) | FLAC (tracks)+CUE+LOG -> 1.08 Gb | MP3 @320 -> 437 Mb
Full Artwork @ 300 dpi (jpg) -> 21 Mb | 5% repair rar | 20-bit K2 super coding
© 1956, 2001 Contemporary Records / Victor Japan | VICJ-60782~3
Jazz / Bop / Hard Bop / Piano

A Japanese reissue of this terrific session which was originally released on three LPs. It's beautifully remastered in 20-bit K2 super coding and contains one track not on any of the original LPs. Originally issued on three LPs, the music resulting from Hampton Hawes' All Night Session! was stereophonically recorded for the Contemporary label in Los Angeles on the night of November 12 and into the morning of November 13, 1956. This session transcended the conventions of studio production by moving steadily from one tune to the next like a live gig with no alternate takes.
Hampton Hawes Quartet - All Night Session, Vols. 1-3 (1956) {2CD Set Japan Victor Mini LP 20-bit K2, VICJ-60782~3 rel 2001}

Here is West Coast bop at its most spontaneous and exciting. Prior to this highly successful quartet experiment, Hawes had recorded mainly with his trio. He said that the addition of guitarist Jim Hall opened up more rhythmic possibilities. The currents passing between Hawes and bassist Red Mitchell were the metabolic pulse of this group; drummer Eldridge "Bruz" Freeman was a replacement for Chuck Thompson, whose heroin habit had forced him out of the band earlier that year. On this night Hawes chose to reinterpret no less than four Dizzy Gillespie compositions, along with themes by Duke Ellington and Duke Jordan as well as six chestnuts from the standard jazz repertoire. But there's nothing "standardized" about this music. Like his main influence, Charlie Parker, Hampton Hawes was a strikingly inventive blues-based improviser; this element is strongly present throughout, particularly during five spontaneously composed Hawes originals that materialized during this monumentally creative All Night Session! Now, 50 years after this music was first made available to the public, the Definitive label's beautifully remastered edition should enable this to be acknowledged and appreciated as one of the truly essential jazz recordings of all time.
Hampton Hawes Quartet - All Night Session, Vols. 1-3 (1956) {2CD Set Japan Victor Mini LP 20-bit K2, VICJ-60782~3 rel 2001}


Personnel:
Hampton Hawes - piano
Jim Hall - guitar
Red Mitchell - bass
Bruz Freeman - drums

tracklist:
Disc One

01 - Jordu
02 - Groovin' High
03 - Takin' Care
04 - Broadway
05 - Hampton's Pulpit
06 - I'll Remember April
07 - I Should Care
08 - Woody 'N' You
09 - Two Bass Hit

Disc Two
01 - Will You Still Be Mine
02 - April In Paris
03 - Blue 'N' Boogie
04 - Do Nothin' 'Till You Hear From Me
05 - Blues #3
06 - Between The Devil And The Deep Blue Sea
07 - Blues #4
08 - Blues Of A Sort (*)

Recorded: November 12 & 13 (*), 1956 Los Angeles, CA

Exact Audio Copy V0.99 prebeta 4 from 23. January 2008

EAC extraction logfile from 1. July 2010, 18:37

Hampton Hawes Quartet / All Night Session! Vols 1-3 (Disc One)

Used drive : _NEC DVD_RW ND-3520A Adapter: 1 ID: 0

Read mode : Secure
Utilize accurate stream : Yes
Defeat audio cache : Yes
Make use of C2 pointers : No

Read offset correction : 48
Overread into Lead-In and Lead-Out : No
Fill up missing offset samples with silence : Yes
Delete leading and trailing silent blocks : No
Null samples used in CRC calculations : Yes
Used interface : Installed external ASPI interface
Gap handling : Appended to previous track

Used output format : User Defined Encoder
Selected bitrate : 1024 kBit/s
Quality : High
Add ID3 tag : No
Command line compressor : C:\Program Files\FLAC\flac.exe
Additional command line options : -8 -V -T "ARTIST=%a" -T "TITLE=%t" -T "ALBUM=%g" -T "DATE=%y" -T "TRACKNUMBER=%n" -T "GENRE=%m" -T "COMMENT=EAC FLAC -8" %s


TOC of the extracted CD

Track | Start | Length | Start sector | End sector
––––––––––––––––––––––––––––-
1 | 0:00.00 | 7:07.05 | 0 | 32029
2 | 7:07.05 | 5:47.40 | 32030 | 58094
3 | 12:54.45 | 8:09.03 | 58095 | 94772
4 | 21:03.48 | 6:54.12 | 94773 | 125834
5 | 27:57.60 | 11:17.23 | 125835 | 176632
6 | 39:15.08 | 7:05.12 | 176633 | 208519
7 | 46:20.20 | 4:28.00 | 208520 | 228619
8 | 50:48.20 | 5:45.03 | 228620 | 254497
9 | 56:33.23 | 2:51.70 | 254498 | 267392


Track 1

Filename C:\Documents and Settings\All Users\Documents\Uploads\Ex\Hampton Hawes Quartet - All Night Session Vols 1-3 (1956) [FLAC]\Disc 1\01 - Jordu.wav

Pre-gap length 0:00:02.00

Peak level 97.9 %
Track quality 100.0 %
Test CRC DD06138B
Copy CRC DD06138B
Track not present in AccurateRip database
Copy OK

Track 2

Filename C:\Documents and Settings\All Users\Documents\Uploads\Ex\Hampton Hawes Quartet - All Night Session Vols 1-3 (1956) [FLAC]\Disc 1\02 - Groovin' High.wav

Pre-gap length 0:00:02.45

Peak level 97.9 %
Track quality 100.0 %
Test CRC 50DD4718
Copy CRC 50DD4718
Track not present in AccurateRip database
Copy OK

Track 3

Filename C:\Documents and Settings\All Users\Documents\Uploads\Ex\Hampton Hawes Quartet - All Night Session Vols 1-3 (1956) [FLAC]\Disc 1\03 - Takin' Care.wav

Pre-gap length 0:00:02.45

Peak level 97.9 %
Track quality 100.0 %
Test CRC 9E526A25
Copy CRC 9E526A25
Track not present in AccurateRip database
Copy OK

Track 4

Filename C:\Documents and Settings\All Users\Documents\Uploads\Ex\Hampton Hawes Quartet - All Night Session Vols 1-3 (1956) [FLAC]\Disc 1\04 - Broadway.wav

Pre-gap length 0:00:02.45

Peak level 97.9 %
Track quality 100.0 %
Test CRC 50752F1F
Copy CRC 50752F1F
Track not present in AccurateRip database
Copy OK

Track 5

Filename C:\Documents and Settings\All Users\Documents\Uploads\Ex\Hampton Hawes Quartet - All Night Session Vols 1-3 (1956) [FLAC]\Disc 1\05 - Hampton's Pulpit.wav

Pre-gap length 0:00:02.45

Peak level 97.9 %
Track quality 100.0 %
Test CRC C951BBAE
Copy CRC C951BBAE
Track not present in AccurateRip database
Copy OK

Track 6

Filename C:\Documents and Settings\All Users\Documents\Uploads\Ex\Hampton Hawes Quartet - All Night Session Vols 1-3 (1956) [FLAC]\Disc 1\06 - I'll Remember April.wav

Pre-gap length 0:00:02.45

Peak level 97.9 %
Track quality 100.0 %
Test CRC 2BE77B06
Copy CRC 2BE77B06
Track not present in AccurateRip database
Copy OK

Track 7

Filename C:\Documents and Settings\All Users\Documents\Uploads\Ex\Hampton Hawes Quartet - All Night Session Vols 1-3 (1956) [FLAC]\Disc 1\07 - I Should Care.wav

Pre-gap length 0:00:02.45

Peak level 97.9 %
Track quality 100.0 %
Test CRC C680D720
Copy CRC C680D720
Track not present in AccurateRip database
Copy OK

Track 8

Filename C:\Documents and Settings\All Users\Documents\Uploads\Ex\Hampton Hawes Quartet - All Night Session Vols 1-3 (1956) [FLAC]\Disc 1\08 - Woody'n You.wav

Pre-gap length 0:00:02.48

Peak level 97.9 %
Track quality 100.0 %
Test CRC EABEA7F4
Copy CRC EABEA7F4
Track not present in AccurateRip database
Copy OK

Track 9

Filename C:\Documents and Settings\All Users\Documents\Uploads\Ex\Hampton Hawes Quartet - All Night Session Vols 1-3 (1956) [FLAC]\Disc 1\09 - Two Bass Hit.wav

Pre-gap length 0:00:02.45

Peak level 97.9 %
Track quality 100.0 %
Test CRC 9D187299
Copy CRC 9D187299
Track not present in AccurateRip database
Copy OK


None of the tracks are present in the AccurateRip database

No errors occurred

End of status report



Exact Audio Copy V0.99 prebeta 4 from 23. January 2008

EAC extraction logfile from 1. July 2010, 20:07

Hampton Hawes Quartet / All Night Session (Disc Two)

Used drive : _NEC DVD_RW ND-3520A Adapter: 1 ID: 0

Read mode : Secure
Utilize accurate stream : Yes
Defeat audio cache : Yes
Make use of C2 pointers : No

Read offset correction : 48
Overread into Lead-In and Lead-Out : No
Fill up missing offset samples with silence : Yes
Delete leading and trailing silent blocks : No
Null samples used in CRC calculations : Yes
Used interface : Installed external ASPI interface
Gap handling : Appended to previous track

Used output format : User Defined Encoder
Selected bitrate : 1024 kBit/s
Quality : High
Add ID3 tag : No
Command line compressor : C:\Program Files\FLAC\flac.exe
Additional command line options : -8 -V -T "ARTIST=%a" -T "TITLE=%t" -T "ALBUM=%g" -T "DATE=%y" -T "TRACKNUMBER=%n" -T "GENRE=%m" -T "COMMENT=EAC FLAC -8" %s


TOC of the extracted CD

Track | Start | Length | Start sector | End sector
––––––––––––––––––––––––––––-
1 | 0:00.00 | 6:58.28 | 0 | 31377
2 | 6:58.28 | 7:33.57 | 31378 | 65409
3 | 14:32.10 | 8:12.33 | 65410 | 102342
4 | 22:44.43 | 11:01.05 | 102343 | 151922
5 | 33:45.48 | 7:38.25 | 151923 | 186297
6 | 41:23.73 | 10:58.60 | 186298 | 235707
7 | 52:22.58 | 6:18.17 | 235708 | 264074
8 | 58:41.00 | 5:39.55 | 264075 | 289554


Track 1

Filename C:\Documents and Settings\All Users\Documents\Uploads\Ex\Hampton Hawes Quartet - All Night Session Vols 1-3 (1956) [FLAC]\Disc 2\01 - Will You Still Be Mine.wav

Pre-gap length 0:00:02.00

Peak level 97.9 %
Track quality 100.0 %
Test CRC 3AD1B949
Copy CRC 3AD1B949
Track not present in AccurateRip database
Copy OK

Track 2

Filename C:\Documents and Settings\All Users\Documents\Uploads\Ex\Hampton Hawes Quartet - All Night Session Vols 1-3 (1956) [FLAC]\Disc 2\02 - April In Paris.wav

Pre-gap length 0:00:02.45

Peak level 97.9 %
Track quality 100.0 %
Test CRC 282DD759
Copy CRC 282DD759
Track not present in AccurateRip database
Copy OK

Track 3

Filename C:\Documents and Settings\All Users\Documents\Uploads\Ex\Hampton Hawes Quartet - All Night Session Vols 1-3 (1956) [FLAC]\Disc 2\03 - Blue'n Boogie.wav

Pre-gap length 0:00:02.45

Peak level 97.9 %
Track quality 99.9 %
Test CRC 98FB7C21
Copy CRC 98FB7C21
Track not present in AccurateRip database
Copy OK

Track 4

Filename C:\Documents and Settings\All Users\Documents\Uploads\Ex\Hampton Hawes Quartet - All Night Session Vols 1-3 (1956) [FLAC]\Disc 2\04 - Do Nothin' Till You Hear From Me.wav

Pre-gap length 0:00:02.45

Peak level 97.9 %
Track quality 100.0 %
Test CRC 488216C8
Copy CRC 488216C8
Track not present in AccurateRip database
Copy OK

Track 5

Filename C:\Documents and Settings\All Users\Documents\Uploads\Ex\Hampton Hawes Quartet - All Night Session Vols 1-3 (1956) [FLAC]\Disc 2\05 - Blues #3.wav

Pre-gap length 0:00:02.45

Peak level 97.9 %
Track quality 99.9 %
Test CRC FF30FAA2
Copy CRC FF30FAA2
Track not present in AccurateRip database
Copy OK

Track 6

Filename C:\Documents and Settings\All Users\Documents\Uploads\Ex\Hampton Hawes Quartet - All Night Session Vols 1-3 (1956) [FLAC]\Disc 2\06 - Between The Devil And The Deep Blue Sea.wav

Pre-gap length 0:00:02.45

Peak level 97.9 %
Track quality 99.9 %
Test CRC 1FDB303B
Copy CRC 1FDB303B
Track not present in AccurateRip database
Copy OK

Track 7

Filename C:\Documents and Settings\All Users\Documents\Uploads\Ex\Hampton Hawes Quartet - All Night Session Vols 1-3 (1956) [FLAC]\Disc 2\07 - Blues #4.wav

Pre-gap length 0:00:02.45

Peak level 97.9 %
Track quality 99.9 %
Test CRC 26DA1615
Copy CRC 26DA1615
Track not present in AccurateRip database
Copy OK

Track 8

Filename C:\Documents and Settings\All Users\Documents\Uploads\Ex\Hampton Hawes Quartet - All Night Session Vols 1-3 (1956) [FLAC]\Disc 2\08 - Blues Of A Sort.wav

Pre-gap length 0:00:02.45

Peak level 97.9 %
Track quality 99.9 %
Test CRC C8B2A221
Copy CRC C8B2A221
Track not present in AccurateRip database
Copy OK


None of the tracks are present in the AccurateRip database

No errors occurred

End of status report




Hampton Hawes Quartet - All Night Session, Vols. 1-3 (1956) {2CD Set Japan Victor Mini LP 20-bit K2, VICJ-60782~3 rel 2001}

Hampton Hawes Quartet - All Night Session, Vols. 1-3 (1956) {2CD Set Japan Victor Mini LP 20-bit K2, VICJ-60782~3 rel 2001}



===